osu file format v12

[General]
AudioFilename: Satori De Pon!.mp3
AudioLeadIn: 0
PreviewTime: -1
Countdown: 0
SampleSet: Normal
StackLeniency: 0.7
Mode: 2
LetterboxInBreaks: 1
WidescreenStoryboard: 1

[Editor]
DistanceSpacing: 0.5
BeatDivisor: 4
GridSize: 4

[Metadata]
Title:Satori De Pon!
TitleUnicode:Satori De Pon!
Artist:goreshit
ArtistUnicode:goreshit
Creator:eldnl
Version:Cup
Source:
Tags:
BeatmapID:338596
BeatmapSetID:134990

[Difficulty]
HPDrainRate:3
CircleSize:2
OverallDifficulty:3
ApproachRate:5
SliderMultiplier:0.999999999999999
SliderTickRate:1

[Events]
//Background and Video events
0,0,"BG.png",0,0
//Break Periods
2,76326,83096
2,92666,99437
//Storyboard Layer 0 (Background)
//Storyboard Layer 1 (Fail)
//Storyboard Layer 2 (Pass)
//Storyboard Layer 3 (Foreground)
//Storyboard Sound Samples
//Background Colour Transformations
3,100,163,162,255

[TimingPoints]
190,332.963374028857,4,1,1,71,1,0
6849,330.396475770925,4,1,1,71,1,0
8170,638.297872340426,4,1,1,71,1,0
9446,333.333333333333,4,1,1,71,1,0
9946,352.941176470588,4,1,1,71,1,0
10122,333.333333333333,4,1,1,71,1,0
10288,324.324324324324,4,1,1,71,1,0
10450,315.789473684211,4,1,1,71,1,0
10765,255.31914893617,4,1,1,71,1,0
14339,-100,4,2,1,71,0,0
14977,-100,4,1,1,71,0,0
17913,-100,4,1,0,76,0,0
18041,-100,4,1,1,76,0,0
18424,-100,4,2,1,76,0,0
18935,-100,4,1,1,82,0,0
22509,-100,4,2,1,82,0,0
23020,-100,4,1,1,82,0,0
23147,-100,4,1,1,82,0,0
27105,-100,4,1,1,82,0,1
35275,-100,4,1,1,82,0,1
39233,-100,4,1,1,82,0,1
42424,-100,4,1,0,48,0,1
42935,-100,4,1,1,82,0,0
47913,-100,4,1,1,82,0,0
51616,-100,4,1,1,82,0,0
56211,-100,4,1,1,82,0,0
58764,-100,4,1,0,60,0,0
59147,-100,4,2,1,82,0,0
59275,-100,4,1,1,91,0,0
59786,-100,4,1,1,82,0,1
62850,-100,4,1,0,60,0,1
63616,-100,4,1,1,82,0,1
67956,-100,4,1,1,82,0,1
72041,-100,4,1,1,82,0,1
75105,-100,4,1,0,55,0,1
76126,-100,4,1,0,82,0,0
84296,-100,4,1,0,55,0,0
100637,-100,4,1,0,82,0,0
104467,-100,4,1,1,82,0,0
108807,-100,4,1,1,82,0,1
112254,-100,4,1,0,48,0,1
112892,-100,4,1,1,82,0,1
116977,-100,4,1,1,82,0,1
117999,-100,4,1,1,86,0,1
121062,-100,4,1,1,60,0,1
121190,-100,4,1,1,86,0,1
124126,-100,4,1,0,42,0,1
124764,-100,4,1,0,48,0,1
125147,-100,4,1,1,55,0,0
132807,-100,4,1,0,42,0,0
133318,-100,4,2,0,55,0,0

[Colours]
Combo1 : 128,255,255
Combo2 : 255,128,192

[HitObjects]
152,272,9446,1,0,0:0:0:0:
360,272,10122,1,0,0:0:0:0:
152,272,10765,6,0,L|36:100,1,200,4|0,0:0|0:0,0:0:0:0:
152,104,11786,1,0,0:0:0:0:
264,104,12296,2,0,L|380:276,1,200,0|0,0:0|0:0,0:0:0:0:
264,272,13318,1,0,0:0:0:0:
152,272,13828,2,0,L|94:186,2,99.9999999999999,0|0|0,0:0|0:0|0:0,0:0:0:0:
264,272,14850,5,0,0:0:0:0:
376,272,15360,2,0,L|434:186,2,99.9999999999999,0|0|0,0:0|0:0|0:0,0:0:0:0:
264,272,16382,2,0,L|206:186,1,99.9999999999999,0|0,0:0|0:0,0:0:0:0:
152,272,16892,1,0,0:0:0:0:
264,272,17403,2,0,L|380:100,1,200,0|0,0:0|0:0,0:0:0:0:
264,108,18424,1,0,0:0:0:0:
152,108,18935,6,0,L|94:194,3,99.9999999999999,4|8|0|8,0:0|0:0|0:0|0:0,0:0:0:0:
212,192,19956,2,0,L|270:278,3,99.9999999999999,0|8|0|8,0:0|0:0|0:0|0:0,0:0:0:0:
380,272,20977,2,0,L|496:100,1,200,0|0,0:0|0:0,0:0:0:0:
320,108,21999,2,0,L|262:194,2,99.9999999999999,0|8|0,0:0|0:0|0:0,0:0:0:0:
148,108,23020,5,0,0:0:0:0:
320,108,23530,2,0,L|262:194,2,99.9999999999999,0|8|0,0:0|0:0|0:0,0:0:0:0:
148,108,24551,1,0,0:0:0:0:
256,192,25062,12,0,26594,0:0:0:0:
236,192,27105,2,0,L|150:65,1,150,4|0,0:0|0:0,0:0:0:0:
280,68,27871,1,8,0:0:0:0:
340,68,28126,2,0,L|425:194,1,150,0|0,0:0|0:0,0:0:0:0:
296,196,28892,1,8,0:0:0:0:
236,196,29147,6,0,L|151:70,1,150,0|0,0:0|0:0,0:0:0:0:
280,68,29913,1,8,0:0:0:0:
340,68,30169,2,0,L|403:161,3,99.9999999999999,0|8|0|8,0:0|0:0|0:0|0:0,0:0:0:0:
456,152,31190,6,0,L|456:264,2,99.9999999999999,0|8|0,0:0|0:0|0:0,0:0:0:0:
396,152,31956,1,8,0:0:0:0:
276,152,32211,2,0,L|276:264,2,99.9999999999999,0|8|0,0:0|0:0|0:0,0:0:0:0:
216,152,32977,1,8,0:0:0:0:
96,148,33233,6,0,L|11:274,1,150,0|0,0:0|0:0,0:0:0:0:
192,276,33999,1,8,0:0:0:0:
252,276,34254,2,0,L|370:99,1,200,0|0,0:0|0:0,0:0:0:0:
124,108,35275,6,0,L|32:245,1,150,4|0,0:0|0:0,0:0:0:0:
220,236,36041,2,0,L|278:148,1,99.9999999999999,8|0,0:0|0:0,0:0:0:0:
96,152,36679,1,0,0:0:0:0:
275,152,37062,2,0,L|220:236,1,99.9999999999999,8|0,0:0|0:0,0:0:0:0:
400,240,37701,5,0,0:0:0:0:
220,236,38084,2,0,L|275:152,3,99.9999999999999,8|0|8|0,0:0|0:0|0:0|0:0,0:0:0:0:
256,192,39360,12,0,42424,0:0:0:0:
356,276,43445,2,0,L|474:99,1,200,4|0,0:0|0:0,0:0:0:0:
228,104,44467,2,0,L|110:281,1,200,0|0,0:0|0:0,0:0:0:0:
356,276,45488,6,0,L|415:187,1,99.9999999999999,0|8,0:0|0:0,0:0:0:0:
466,109,45999,1,0,0:0:0:0:
228,104,46509,2,0,L|168:192,1,99.9999999999999,0|8,0:0|0:0,0:0:0:0:
117,270,47020,1,0,0:0:0:0:
356,276,47530,6,0,L|474:99,1,200,0|0,0:0|0:0,0:0:0:0:
412,112,48296,1,8,0:0:0:0:
272,112,48552,2,0,L|154:289,1,200,0|0,0:0|0:0,0:0:0:0:
216,280,49318,1,8,0:0:0:0:
356,276,49573,6,0,L|474:99,1,200,0|0,0:0|0:0,0:0:0:0:
412,112,50339,1,8,0:0:0:0:
272,112,50595,2,0,L|154:289,1,200,0|0,0:0|0:0,0:0:0:0:
216,280,51361,1,8,0:0:0:0:
356,276,51616,6,0,L|414:187,2,99.9999999999999,4|8|0,0:0|0:0|0:0,0:0:0:0:
216,280,52382,1,8,0:0:0:0:
76,280,52637,2,0,L|18:191,2,99.9999999999999,0|8|0,0:0|0:0|0:0,0:0:0:0:
216,280,53403,1,8,0:0:0:0:
356,276,53658,6,0,L|414:187,3,99.9999999999999,0|8|0|8,0:0|0:0|0:0|0:0,0:0:0:0:
272,192,54679,2,0,L|214:103,3,99.9999999999999,0|8|0|8,0:0|0:0|0:0|0:0,0:0:0:0:
360,104,55701,6,0,L|478:281,1,200,0|0,0:0|0:0,0:0:0:0:
232,276,56722,2,0,L|114:99,1,200,0|0,0:0|0:0,0:0:0:0:
256,192,57743,12,0,59275,0:0:0:0:
108,192,59786,6,0,L|108:40,1,150,4|0,0:0|0:0,0:0:0:0:
308,192,60552,1,8,0:0:0:0:
208,192,60807,2,0,L|208:40,1,150,0|0,0:0|0:0,0:0:0:0:
408,192,61573,1,8,0:0:0:0:
308,192,61828,6,0,L|308:40,1,150,0|0,0:0|0:0,0:0:0:0:
108,192,62594,1,8,0:0:0:0:
208,192,62850,2,0,L|266:103,3,99.9999999999999,0|8|0|8,0:0|0:0|0:0|0:0,0:0:0:0:
364,108,63871,6,0,L|456:245,1,150,0|0,0:0|0:0,0:0:0:0:
236,232,64637,1,8,0:0:0:0:
176,232,64892,2,0,L|91:106,1,150,0|0,0:0|0:0,0:0:0:0:
304,108,65658,1,8,0:0:0:0:
364,108,65913,6,0,L|449:234,1,150,0|0,0:0|0:0,0:0:0:0:
236,232,66679,1,8,0:0:0:0:
176,232,66935,2,0,L|176:128,3,99.9999999999999,0|8|0|8,0:0|0:0|0:0|0:0,0:0:0:0:
236,232,67956,6,0,L|321:106,2,150,4|0|8,0:0|0:0|0:0,0:0:0:0:
336,232,68977,2,0,L|251:106,2,150,0|0|8,0:0|0:0|0:0,0:0:0:0:
236,232,69999,6,0,L|151:106,2,150,0|0|8,0:0|0:0|0:0,0:0:0:0:
336,232,71020,2,0,L|394:143,3,99.9999999999999,0|8|0|8,0:0|0:0|0:0|0:0,0:0:0:0:
256,192,72041,12,0,75105,0:0:0:0:
256,192,76126,5,4,0:0:0:0:
160,192,84296,5,8,0:0:0:0:
352,192,84807,1,8,0:0:0:0:
132,80,85318,1,8,0:0:0:0:
380,80,85828,1,8,0:0:0:0:
160,304,86339,6,0,L|100:112,1,200,8|8,0:0|0:0,0:0:0:0:
352,304,87360,2,0,L|412:112,1,200,8|8,0:0|0:0,0:0:0:0:
256,192,88382,5,8,0:0:0:0:
56,192,88892,1,8,0:0:0:0:
256,192,89403,1,8,0:0:0:0:
456,192,89913,1,8,0:0:0:0:
256,192,90424,1,8,0:0:0:0:
56,248,90935,6,0,L|152:72,1,200,8|8,0:0|0:0,0:0:0:0:
456,248,91956,2,0,L|360:72,1,200,8|4,0:0|0:0,0:0:0:0:
364,192,100637,6,0,L|450:65,1,150,4|0,0:0|0:0,0:0:0:0:
252,68,101403,1,8,0:0:0:0:
192,68,101658,2,0,L|107:194,1,150,0|0,0:0|0:0,0:0:0:0:
304,196,102424,1,8,0:0:0:0:
364,196,102679,6,0,L|449:70,1,150,0|0,0:0|0:0,0:0:0:0:
252,68,103445,1,8,0:0:0:0:
192,68,103701,2,0,L|129:161,3,99.9999999999999,0|8|0|8,0:0|0:0|0:0|0:0,0:0:0:0:
76,156,104722,6,0,L|161:282,2,150,0|0|8,0:0|0:0|0:0,0:0:0:0:
196,156,105743,2,0,L|281:282,2,150,0|0|8,0:0|0:0|0:0,0:0:0:0:
316,156,106764,6,0,L|401:282,2,150,0|0|8,0:0|0:0|0:0,0:0:0:0:
196,156,107786,2,0,L|133:63,3,99.9999999999999,0|0|0|0,0:0|0:0|0:0|0:0,0:0:0:0:
260,72,108807,6,0,L|352:209,1,150,4|0,0:0|0:0,0:0:0:0:
164,200,109573,2,0,L|106:112,1,99.9999999999999,8|0,0:0|0:0,0:0:0:0:
288,116,110211,1,0,0:0:0:0:
108,116,110594,2,0,L|164:200,1,99.9999999999999,8|0,0:0|0:0,0:0:0:0:
344,200,111233,6,0,L|436:337,1,150,0|8,0:0|0:0,0:0:0:0:
308,324,111871,2,0,L|252:240,1,99.9999999999999,0|8,0:0|0:0,0:0:0:0:
196,240,112382,2,0,L|140:156,1,99.9999999999999,0|0,0:0|0:0,0:0:0:0:
280,156,112892,6,0,L|372:19,1,150,0|0,0:0|0:0,0:0:0:0:
184,40,113658,2,0,L|239:123,1,99.9999999999999,8|0,0:0|0:0,0:0:0:0:
420,120,114296,1,0,0:0:0:0:
240,124,114679,2,0,L|295:207,1,99.9999999999999,8|0,0:0|0:0,0:0:0:0:
476,204,115318,5,0,0:0:0:0:
296,208,115701,1,8,0:0:0:0:
352,208,115956,2,0,L|407:291,3,99.9999999999999,0|8|0|8,0:0|0:0|0:0|0:0,0:0:0:0:
288,292,116977,6,0,L|196:155,1,150,4|0,0:0|0:0,0:0:0:0:
24,164,117743,2,0,L|79:81,1,99.9999999999999,8|0,0:0|0:0,0:0:0:0:
260,76,118382,2,0,L|352:213,1,150,0|8,0:0|0:0,0:0:0:0:
224,204,119020,6,0,L|132:67,2,150,0|0|8,0:0|0:0|0:0,0:0:0:0:
344,204,120041,2,0,L|399:287,3,99.9999999999999,0|8|0|8,0:0|0:0|0:0|0:0,0:0:0:0:
256,192,121062,12,0,124126,0:0:0:0:
56,192,125147,6,0,L|56:300,1,99.9999999999999,8|8,0:0|0:0,0:0:0:0:
156,192,125658,1,8,0:0:0:0:
56,192,126169,1,8,0:0:0:0:
256,192,126679,1,8,0:0:0:0:
456,192,127190,6,0,L|456:300,1,99.9999999999999,8|8,0:0|0:0,0:0:0:0:
356,192,127701,1,8,0:0:0:0:
456,192,128212,1,8,0:0:0:0:
256,192,128722,1,8,0:0:0:0:
56,192,129233,5,8,0:0:0:0:
256,192,129744,1,8,0:0:0:0:
456,192,130254,1,8,0:0:0:0:
256,192,130765,1,8,0:0:0:0:
56,248,131275,6,0,L|152:72,1,200,8|8,0:0|0:0,0:0:0:0:
456,248,132296,2,0,L|360:72,1,200,8|8,0:0|0:0,0:0:0:0:
56,248,133318,5,8,0:0:0:0:
56,248,133828,1,8,0:0:0:0:
256,248,134339,1,8,0:0:0:0:
256,248,134850,1,8,0:0:0:0:
456,248,135360,1,8,0:0:0:0:
456,248,135871,1,8,0:0:0:0:
256,248,136382,2,0,L|256:144,2,99.9999999999999,8|8|8,0:0|0:0|0:0,0:0:0:0:
256,192,137403,12,0,141488,0:0:0:0:
