osu file format v9

[General]
AudioFilename: goreshit - Satori De Pon!.mp3
AudioLeadIn: 1500
PreviewTime: 27059
Countdown: 0
SampleSet: Normal
StackLeniency: 0.7
Mode: 1
LetterboxInBreaks: 0
SkinPreference:taiko

[Editor]
Bookmarks: 190,10765,27105,43445,59786,76126,84296,100637,116977,133318,141488
DistanceSpacing: 0.8
BeatDivisor: 4
GridSize: 8

[Metadata]
Title:Satori De Pon!
Artist:goreshit
Creator:[CSGA]Ar3sgice
Version:Taikosaki
Source:
Tags:marisa lolicore hardcore Backfire Hyperhappyhardcore Dance Corps 2 Gasaiyuno-chan DCRPS018 breakcore OnosakiHito eldnl

[Difficulty]
HPDrainRate:6
CircleSize:5
OverallDifficulty:6
ApproachRate:5
SliderMultiplier:1.4
SliderTickRate:2

[Events]
//Background and Video events
0,0,"Taiko_BG.jpg"
//Break Periods
//Storyboard Layer 0 (Background)
//Storyboard Layer 1 (Fail)
//Storyboard Layer 2 (Pass)
//Storyboard Layer 3 (Foreground)
Sprite,Foreground,Centre,"SB\leftsatori.png",320,240 L,76125,8 F,0,0,192,1,0 S,0,0,192,0.65,0.85 F,0,0,256,0 S,0,0,256,1 L,80213,8 F,0,0,192,1,0 S,0,0,192,0.65,0.85 F,0,0,256,0 S,0,0,256,1 L,82257,1 F,0,0,192,1,0 S,0,0,192,0.65,0.85 F,0,0,256,0 S,0,0,256,1 L,82768,1 F,0,0,192,1,0 S,0,0,192,0.65,0.85 F,0,0,256,0 S,0,0,256,1 L,83279,1 F,0,0,192,1,0 S,0,0,192,0.65,0.85 F,0,0,256,0 S,0,0,256,1 L,84045,2 F,0,0,129,1,0 S,0,0,129,0.65,0.85 M,0,76130,,156,393
Sprite,Foreground,Centre,"SB\right satori.png",320,240 L,78169,8 F,0,0,192,1,0 S,0,0,192,0.65,0.85 F,0,0,256,0 S,0,0,256,1 L,80213,8 F,0,0,192,1,0 S,0,0,192,0.65,0.85 F,0,0,256,0 S,0,0,256,1 L,82512,1 F,0,0,192,1,0 S,0,0,192,0.65,0.85 F,0,0,256,0 S,0,0,256,1 L,83023,1 F,0,0,192,1,0 S,0,0,192,0.65,0.85 F,0,0,256,0 S,0,0,256,1 L,83279,1 F,0,0,192,1,0 S,0,0,192,0.65,0.85 F,0,0,256,0 S,0,0,256,1 L,84045,2 F,0,0,129,1,0 S,0,0,129,0.65,0.85 M,0,78169,,454,381
//Storyboard Sound Samples
//Background Colour Transformations
3,100,163,162,255

[TimingPoints]
190,332.963374028857,4,1,0,100,1,0
6849,330.396475770925,4,1,0,100,1,0
8170,638.297872340426,4,1,0,100,1,0
9446,333.333333333333,4,1,0,100,1,0
9946,352.941176470588,4,1,0,100,1,0
10122,333.333333333333,4,1,0,100,1,0
10288,324.324324324324,4,1,0,100,1,0
10450,315.789473684211,4,1,0,100,1,0
10765,255.31914893617,4,1,0,100,1,0
84296,-100,4,1,0,100,0,1
100637,-100,4,1,0,100,0,0
116977,-100,4,1,0,100,0,1
141488,-100,4,1,0,100,0,0

[HitObjects]
256,192,190,1,4
256,192,1521,1,4
256,192,2687,5,8
256,192,2770,1,8
256,192,2853,5,0
256,192,4185,1,4
256,192,5517,1,4
256,192,6849,1,4
256,192,8005,5,8
256,192,8087,1,8
256,192,8170,5,0
256,192,9446,1,0
256,192,9612,1,0
256,192,9779,5,8
256,192,9946,5,0
256,192,10122,5,8
256,192,10205,1,8
256,192,10288,1,8
256,192,10369,1,8
256,192,10450,1,8
256,192,10528,1,8
256,192,10607,1,8
256,192,10765,5,0
256,192,10892,5,8
256,192,10956,1,8
256,192,11020,5,0
256,192,11147,5,8
256,192,11211,1,8
256,192,11275,1,8
256,192,11339,1,8
256,192,11403,5,0
256,192,11530,1,0
256,192,11658,5,8
256,192,11786,5,0
256,192,11850,1,0
256,192,11913,1,0
256,192,11977,1,0
256,192,12041,5,8
256,192,12169,1,8
256,192,12233,1,8
256,192,12296,1,8
256,192,12360,1,8
256,192,12424,5,0
256,192,12552,5,8
256,192,12679,1,8
256,192,12807,5,0
256,192,12935,5,8
256,192,12999,1,8
256,192,13062,5,0
256,192,13190,5,8
256,192,13254,1,8
256,192,13318,5,0
256,192,13445,1,0
256,192,13573,5,8
256,192,13701,1,8
256,192,13828,5,0
256,192,13892,1,0
256,192,13956,1,0
256,192,14020,1,0
256,192,14084,5,8
256,192,14147,1,8
256,192,14211,5,0
256,192,14275,1,0
256,192,14339,5,8
256,192,14403,5,0
256,192,14467,5,8
256,192,14530,1,8
256,192,14594,5,0
256,192,14722,1,0
256,192,14850,1,0
256,192,14977,5,8
256,192,15041,1,8
256,192,15105,5,0
256,192,15233,5,8
256,192,15296,1,8
256,192,15360,1,8
256,192,15424,1,8
256,192,15488,5,0
256,192,15616,5,8
256,192,15743,5,0
256,192,15807,5,8
256,192,15871,5,0
256,192,15999,1,0
256,192,16062,1,0
256,192,16126,5,8
256,192,16254,1,8
256,192,16318,1,8
256,192,16382,1,8
256,192,16445,1,8
256,192,16509,5,0
256,192,16637,5,8
256,192,16764,5,0
256,192,16892,1,0
256,192,17020,5,8
256,192,17084,1,8
256,192,17147,5,0
256,192,17211,5,8
256,192,17275,5,0
256,192,17339,1,0
256,192,17403,5,8
256,192,17467,5,0
256,192,17530,5,8
256,192,17594,1,8
256,192,17658,5,0
256,192,17786,1,0
256,192,17913,5,8
256,192,17977,1,8
256,192,18041,1,8
256,192,18105,1,8
256,192,18169,5,0
256,192,18233,1,0
256,192,18296,5,8
256,192,18360,1,8
256,192,18424,5,0
256,192,18552,5,8
256,192,18679,5,0
256,192,18807,1,0
256,192,18935,5,12
256,192,19062,5,0
256,192,19126,1,0
256,192,19190,5,8
256,192,19318,1,8
256,192,19382,1,8
256,192,19445,1,8
256,192,19509,1,8
256,192,19573,5,0
256,192,19701,5,8
256,192,19828,5,0
256,192,19892,5,8
256,192,19956,5,0
256,192,20084,1,0
256,192,20211,5,8
256,192,20275,5,0
256,192,20339,5,8
256,192,20403,1,8
256,192,20467,5,0
256,192,20530,1,0
256,192,20594,5,8
256,192,20722,1,8
256,192,20850,5,0
256,192,20913,5,8
256,192,20977,5,0
256,192,21105,5,8
256,192,21233,5,0
256,192,21360,5,8
256,192,21424,1,8
256,192,21488,5,0
256,192,21552,5,8
256,192,21616,5,0
256,192,21679,1,0
256,192,21743,5,8
256,192,21871,1,8
256,192,21999,5,4
256,192,22254,5,12
256,192,22382,5,4
256,192,22509,5,12
256,192,22637,1,12
256,192,22764,5,4
256,192,22892,5,12
256,192,23020,5,0
256,192,23147,5,8
256,192,23211,1,8
256,192,23275,5,0
256,192,23403,5,8
256,192,23467,1,8
256,192,23530,1,8
256,192,23594,1,8
256,192,23658,5,0
256,192,23786,5,8
256,192,23913,5,0
256,192,23977,1,0
256,192,24041,5,8
256,192,24169,1,8
256,192,24296,5,0
256,192,24360,1,0
256,192,24424,5,8
256,192,24488,1,8
256,192,24552,1,8
256,192,24616,1,8
256,192,24679,5,0
256,192,24807,5,8
256,192,24935,1,8
256,192,24999,1,8
256,192,25062,5,0
256,192,25190,5,8
256,192,25254,5,0
256,192,25318,5,8
256,192,25382,1,8
256,192,25445,5,0
256,192,25509,5,8
256,192,25573,5,0
256,192,25637,1,0
256,192,25701,5,8
256,192,25764,5,0
256,192,25828,5,8
256,192,25956,1,8
256,192,26084,5,4
256,192,26339,5,12
256,192,26467,1,12
256,192,26594,1,8
256,192,26722,1,8
256,192,26786,1,8
256,192,26850,1,8
256,192,26977,1,8
256,192,27105,5,0
256,192,27169,5,8
256,192,27233,5,0
256,192,27360,5,8
256,192,27424,5,0
256,192,27488,5,8
256,192,27616,1,8
256,192,27679,1,8
256,192,27743,1,8
256,192,27807,1,8
256,192,27871,5,0
256,192,27999,5,8
256,192,28126,5,0
256,192,28190,5,8
256,192,28318,1,8
256,192,28382,5,0
256,192,28509,5,8
256,192,28573,1,8
256,192,28637,5,0
256,192,28764,5,8
256,192,28892,5,0
256,192,28956,5,8
256,192,29020,5,0
256,192,29084,5,8
256,192,29147,5,0
256,192,29275,5,8
256,192,29403,5,0
256,192,29467,1,0
256,192,29530,5,8
256,192,29658,5,0
256,192,29786,5,8
256,192,29850,1,8
256,192,29913,5,0
256,192,30041,5,8
256,192,30169,5,0
256,192,30233,1,0
256,192,30296,1,0
256,192,30360,1,0
256,192,30424,5,8
256,192,30488,1,8
256,192,30552,5,0
256,192,30616,1,0
256,192,30679,1,0
256,192,30743,1,0
256,192,30807,5,8
256,192,30871,5,0
256,192,30935,5,8
256,192,31062,1,8
256,192,31126,1,8
256,192,31190,5,0
256,192,31254,5,8
256,192,31382,1,8
256,192,31445,5,0
256,192,31573,1,0
256,192,31701,5,8
256,192,31764,1,8
256,192,31828,1,8
256,192,31892,1,8
256,192,31956,5,0
256,192,32084,5,8
256,192,32211,5,0
256,192,32275,5,8
256,192,32339,5,0
256,192,32467,5,8
256,192,32594,1,8
256,192,32658,5,0
256,192,32722,5,8
256,192,32850,5,0
256,192,32977,5,8
256,192,33041,1,8
256,192,33105,5,0
256,192,33233,5,8
256,192,33360,5,0
256,192,33424,1,0
256,192,33488,1,0
256,192,33552,1,0
256,192,33616,5,8
256,192,33743,5,0
256,192,33807,1,0
256,192,33871,1,0
256,192,33935,1,0
256,192,33999,5,8
256,192,34126,1,8
256,192,34254,5,0
256,192,34318,1,0
256,192,34382,1,0
256,192,34445,1,0
256,192,34509,5,8
256,192,34573,1,8
256,192,34637,5,0
256,192,34701,1,0
256,192,34764,5,8
256,192,34828,5,0
256,192,34892,5,8
256,192,34956,1,8
256,192,35020,1,8
256,192,35147,1,8
256,192,35275,5,0
256,192,35403,5,8
256,192,35467,5,0
256,192,35530,5,8
256,192,35658,5,0
256,192,35722,1,0
256,192,35786,5,8
256,192,35913,1,8
256,192,36041,5,0
256,192,36169,5,8
256,192,36233,1,8
256,192,36296,5,0
256,192,36360,1,0
256,192,36424,5,8
256,192,36552,5,0
256,192,36679,5,8
256,192,36743,5,0
256,192,36807,5,8
256,192,36935,5,0
256,192,37062,5,8
256,192,37126,1,8
256,192,37190,5,0
256,192,37254,1,0
256,192,37318,5,8
256,192,37382,5,0
256,192,37445,5,8
256,192,37573,1,8
256,192,37701,1,8
256,192,37764,1,8
256,192,37828,5,0
256,192,37956,5,8
256,192,38084,1,8
256,192,38147,5,0
256,192,38211,5,8
256,192,38339,5,0
256,192,38403,5,8
256,192,38467,5,0
256,192,38530,5,8
256,192,38594,5,0
256,192,38658,1,0
256,192,38722,5,8
256,192,38786,1,8
256,192,38850,1,8
256,192,38913,1,8
256,192,38977,5,0
256,192,39041,1,0
256,192,39105,5,8
256,192,39233,1,8
256,192,39360,5,0
256,192,39488,5,8
256,192,39552,1,8
256,192,39616,1,8
256,192,39679,1,8
256,192,39743,5,0
256,192,39871,5,8
256,192,39999,5,0
256,192,40126,5,8
256,192,40190,5,0
256,192,40254,5,8
256,192,40382,5,0
256,192,40445,1,0
256,192,40509,5,8
256,192,40637,1,8
256,192,40764,1,8
256,192,40828,1,8
256,192,40892,5,0
256,192,41020,1,0
256,192,41084,1,0
256,192,41147,5,8
256,192,41275,1,8
256,192,41403,5,0
256,192,41530,5,8
256,192,41786,1,8
256,192,41913,1,8
256,192,42041,5,0
256,192,42169,5,8
256,192,42296,5,0
256,192,42360,1,0
256,192,42424,5,8
256,192,42552,1,12
256,192,42679,1,12
256,192,42807,1,12
256,192,42935,1,12
256,192,43062,1,8
256,192,43126,1,8
256,192,43190,1,8
256,192,43233,1,8
256,192,43275,1,8
256,192,43318,1,8
256,192,43445,5,0
256,192,43701,5,8
256,192,43956,5,0
256,192,44211,5,8
256,192,44467,5,0
256,192,44723,5,8
256,192,44978,5,0
256,192,45233,5,8
256,192,45488,5,0
256,192,45744,5,8
256,192,45999,5,0
256,192,46254,5,8
256,192,46510,5,0
256,192,46764,5,8
256,192,47021,5,0
256,192,47276,5,8
256,192,47403,1,8
256,192,47530,5,0
256,192,47786,5,8
256,192,48041,5,0
256,192,48296,5,8
256,192,48552,5,0
256,192,48807,5,8
256,192,49062,5,0
256,192,49318,5,8
256,192,49573,5,0
256,192,49829,5,8
256,192,50084,5,0
256,192,50339,5,8
256,192,50595,5,0
256,192,50850,5,8
256,192,51105,1,8
256,192,51233,1,8
256,192,51296,1,8
256,192,51360,1,8
256,192,51488,1,8
256,192,51616,5,0
256,192,51743,5,8
256,192,51871,5,0
256,192,51999,5,8
256,192,52126,5,0
256,192,52254,5,8
256,192,52382,5,0
256,192,52509,5,8
256,192,52637,5,0
256,192,52764,5,8
256,192,52892,5,0
256,192,53020,5,8
256,192,53147,5,0
256,192,53275,5,8
256,192,53403,5,0
256,192,53530,5,8
256,192,53658,5,0
256,192,53785,5,8
256,192,53913,5,0
256,192,54041,5,8
256,192,54168,5,0
256,192,54233,1,0
256,192,54296,5,8
256,192,54360,1,8
256,192,54424,5,0
256,192,54551,5,8
256,192,54679,5,0
256,192,54743,1,0
256,192,54807,1,0
256,192,54871,1,0
256,192,54935,5,8
256,192,55062,1,8
256,192,55190,5,0
256,192,55318,5,8
256,192,55445,1,8
256,192,55573,1,8
256,192,55701,5,0
256,192,55828,5,8
256,192,55956,5,0
256,192,56084,5,8
256,192,56211,5,0
256,192,56339,5,8
256,192,56403,1,8
256,192,56467,5,0
256,192,56594,5,8
256,192,56722,5,0
256,192,56849,5,8
256,192,56977,5,0
256,192,57105,5,8
256,192,57232,5,0
256,192,57360,5,8
256,192,57424,1,8
256,192,57488,5,0
256,192,57615,5,8
256,192,57743,5,0
256,192,57870,5,8
256,192,57998,5,0
256,192,58062,1,0
256,192,58126,5,8
256,192,58190,5,0
256,192,58254,5,8
256,192,58318,1,8
256,192,58381,5,0
256,192,58509,5,8
256,192,58636,5,0
256,192,58764,5,8
256,192,58828,1,8
256,192,58892,1,8
256,192,58956,1,8
256,192,59020,5,0
256,192,59147,5,8
256,192,59275,1,12
256,192,59403,1,12
256,192,59530,1,12
256,192,59658,1,12
256,192,59786,1,8
256,192,59850,5,0
256,192,59913,5,8
256,192,60041,5,0
256,192,60169,5,8
256,192,60233,1,8
256,192,60296,5,0
256,192,60424,5,8
256,192,60552,5,0
256,192,60616,1,0
256,192,60679,5,8
256,192,60743,1,8
256,192,60807,5,0
256,192,60871,5,8
256,192,60935,5,0
256,192,61062,5,8
256,192,61190,1,8
256,192,61254,5,0
256,192,61318,5,8
256,192,61445,1,8
256,192,61573,1,8
256,192,61637,1,8
256,192,61701,5,0
256,192,61764,5,8
256,192,61828,5,0
256,192,61956,1,0
256,192,62084,5,8
256,192,62211,1,8
256,192,62275,1,8
256,192,62339,5,0
256,192,62403,1,0
256,192,62467,1,0
256,192,62530,1,0
256,192,62594,5,8
256,192,62722,1,8
256,192,62850,5,0
256,192,62913,1,0
256,192,62977,1,0
256,192,63041,1,0
256,192,63105,5,8
256,192,63169,1,8
256,192,63233,5,0
256,192,63296,1,0
256,192,63360,1,0
256,192,63424,1,0
256,192,63488,5,8
256,192,63552,5,0
256,192,63616,5,8
256,192,63679,5,0
256,192,63743,5,8
256,192,63871,1,8
256,192,63935,5,0
256,192,64062,1,0
256,192,64126,5,8
256,192,64254,5,0
256,192,64318,1,0
256,192,64382,5,8
256,192,64509,5,0
256,192,64637,5,8
256,192,64701,5,0
256,192,64764,5,8
256,192,64892,5,0
256,192,64956,5,8
256,192,65084,1,8
256,192,65147,5,0
256,192,65275,5,8
256,192,65339,1,8
256,192,65403,5,0
256,192,65467,1,0
256,192,65530,5,8
256,192,65658,1,8
256,192,65722,5,0
256,192,65786,5,8
256,192,65913,5,0
256,192,65977,1,0
256,192,66041,5,8
256,192,66105,1,8
256,192,66169,1,8
256,192,66233,1,8
256,192,66296,5,0
256,192,66360,5,8
256,192,66424,5,0
256,192,66488,1,0
256,192,66552,1,0
256,192,66616,1,0
256,192,66679,5,8
256,192,66807,1,8
256,192,66935,5,4
256,192,67190,5,12
256,192,67318,5,0
256,192,67445,5,8
256,192,67573,1,8
256,192,67637,1,8
256,192,67701,1,8
256,192,67743,1,8
256,192,67786,1,8
256,192,67828,1,8
256,192,67871,1,8
256,192,67913,1,8
256,192,67956,5,0
256,192,68084,1,0
256,192,68211,5,8
256,192,68339,5,0
256,192,68403,1,0
256,192,68467,5,8
256,192,68594,1,8
256,192,68722,5,0
256,192,68786,1,0
256,192,68850,5,8
256,192,68913,1,8
256,192,68977,5,0
256,192,69105,5,8
256,192,69233,5,0
256,192,69360,5,8
256,192,69424,1,8
256,192,69488,5,0
256,192,69616,5,8
256,192,69743,1,8
256,192,69807,5,0
256,192,69871,5,8
256,192,69935,5,0
256,192,69999,5,8
256,192,70126,5,0
256,192,70190,1,0
256,192,70254,5,8
256,192,70382,5,0
256,192,70445,5,8
256,192,70509,5,0
256,192,70637,1,0
256,192,70764,5,8
256,192,70828,5,0
256,192,70892,5,8
256,192,70956,1,8
256,192,71020,5,0
256,192,71084,1,0
256,192,71147,1,0
256,192,71211,1,0
256,192,71275,5,8
256,192,71339,1,8
256,192,71403,5,0
256,192,71467,1,0
256,192,71530,1,0
256,192,71594,1,0
256,192,71658,5,8
256,192,71722,1,8
256,192,71786,5,0
256,192,71850,5,8
256,192,71913,5,0
256,192,72041,1,0
256,192,72169,5,8
256,192,72233,1,8
256,192,72296,1,8
256,192,72424,5,0
256,192,72552,5,8
256,192,72616,1,8
256,192,72679,1,8
256,192,72743,1,8
256,192,72807,5,0
256,192,72935,5,8
256,192,73062,5,0
256,192,73126,1,0
256,192,73190,5,8
256,192,73254,1,8
256,192,73318,1,8
256,192,73382,1,8
256,192,73445,5,0
256,192,73573,5,8
256,192,73637,1,8
256,192,73701,1,8
256,192,73764,1,8
256,192,73828,5,0
256,192,73956,5,8
256,192,74084,5,0
256,192,74211,5,8
256,192,74275,1,8
256,192,74339,1,8
256,192,74467,5,0
256,192,74594,5,8
256,192,74658,1,8
256,192,74722,1,8
256,192,74850,5,0
256,192,74913,5,8
256,192,74977,5,0
256,192,75105,5,8
256,192,75233,1,8
256,192,75360,1,8
256,192,75424,1,8
256,192,75488,1,8
256,192,75552,1,8
256,192,75616,1,8
256,192,75679,1,8
256,192,75743,1,8
256,192,75807,1,8
256,192,75871,1,8
256,192,75913,1,8
256,192,75956,1,8
256,192,75999,1,8
256,192,76041,1,8
256,192,76084,1,8
256,192,76126,5,0
256,192,76382,1,0
256,192,76637,1,0
256,192,76892,1,0
256,192,77147,1,0
256,192,77403,1,0
256,192,77658,1,0
256,192,77913,1,0
256,192,78041,1,0
256,192,78105,1,0
256,192,78169,5,8
256,192,78424,1,8
256,192,78679,1,8
256,192,78935,1,8
256,192,79190,1,8
256,192,79445,1,8
256,192,79701,1,8
256,192,79956,1,8
256,192,80084,1,8
256,192,80211,5,0
256,192,80467,1,0
256,192,80722,1,0
256,192,80977,1,0
256,192,81233,1,0
256,192,81488,1,0
256,192,81743,1,0
256,192,81999,1,0
256,192,82126,1,0
256,192,82190,1,0
256,192,82254,5,8
256,192,82509,1,8
256,192,82765,1,8
256,192,83020,1,8
256,192,83275,1,8
256,192,83403,1,8
256,192,83530,1,8
256,192,83658,1,8
256,192,83722,1,8
256,192,83786,1,8
256,192,83913,1,8
256,192,83977,1,8
256,192,84041,5,0
256,192,84169,1,0
256,192,84296,1,0
256,192,84360,1,0
256,192,84424,1,0
256,192,84552,5,8
256,192,84616,1,8
256,192,84679,1,8
256,192,84807,5,0
256,192,84871,1,0
256,192,84935,1,0
256,192,85062,5,8
256,192,85126,1,8
256,192,85190,1,8
256,192,85318,5,0
256,192,85445,5,8
256,192,85509,1,8
256,192,85573,5,0
256,192,85701,5,8
256,192,85828,5,0
256,192,85892,1,0
256,192,85956,5,8
256,192,86020,1,8
256,192,86084,5,0
256,192,86211,5,8
256,192,86275,1,8
256,192,86339,5,0
256,192,86403,1,0
256,192,86467,1,0
256,192,86594,5,8
256,192,86658,1,8
256,192,86722,1,8
256,192,86850,5,0
256,192,86913,1,0
256,192,86977,1,0
256,192,87105,5,8
256,192,87169,1,8
256,192,87233,1,8
256,192,87360,5,0
256,192,87488,5,8
256,192,87552,1,8
256,192,87616,5,0
256,192,87743,5,8
256,192,87871,5,0
256,192,87999,5,8
256,192,88062,1,8
256,192,88126,5,0
256,192,88190,5,8
256,192,88254,5,0
256,192,88318,5,8
256,192,88382,5,0
256,192,88509,5,8
256,192,88573,1,8
256,192,88637,5,0
256,192,88764,5,8
256,192,88892,5,0
256,192,88956,1,0
256,192,89020,5,8
256,192,89147,5,0
256,192,89275,5,8
256,192,89403,5,0
256,192,89467,1,0
256,192,89530,5,8
256,192,89594,1,8
256,192,89658,5,0
256,192,89786,5,8
256,192,89913,5,0
256,192,90041,5,8
256,192,90105,1,8
256,192,90169,5,0
256,192,90233,5,8
256,192,90296,5,0
256,192,90360,5,8
256,192,90424,5,0
256,192,90552,5,8
256,192,90616,5,0
256,192,90679,5,8
256,192,90807,5,0
256,192,90935,5,8
256,192,91062,5,0
256,192,91126,1,0
256,192,91190,5,8
256,192,91318,5,0
256,192,91445,5,8
256,192,91509,1,8
256,192,91573,1,8
256,192,91637,1,8
256,192,91701,1,8
256,192,91764,1,8
256,192,91828,1,8
256,192,91892,1,8
256,192,91956,5,0
256,192,92020,1,0
256,192,92084,1,0
256,192,92147,1,0
256,192,92211,5,8
256,192,92254,1,8
256,192,92296,1,8
256,192,92339,1,8
256,192,92382,1,8
256,192,92424,1,8
256,192,92467,5,0
256,192,92594,5,8
256,192,92658,1,8
256,192,92722,5,0
256,192,92850,5,8
256,192,92977,5,0
256,192,93041,5,8
256,192,93169,1,8
256,192,93233,5,0
256,192,93360,5,8
256,192,93488,5,0
256,192,93552,1,0
256,192,93616,5,8
256,192,93743,5,0
256,192,93807,1,0
256,192,93871,5,8
256,192,93999,1,8
256,192,94126,5,0
256,192,94190,1,0
256,192,94254,5,8
256,192,94382,1,8
256,192,94509,5,0
256,192,94637,5,8
256,192,94701,1,8
256,192,94764,5,0
256,192,94892,5,8
256,192,95020,5,0
256,192,95084,5,8
256,192,95211,1,8
256,192,95275,5,0
256,192,95403,5,8
256,192,95530,5,0
256,192,95594,1,0
256,192,95658,5,8
256,192,95786,5,0
256,192,95850,1,0
256,192,95913,5,8
256,192,96041,5,0
256,192,96169,5,8
256,192,96233,1,8
256,192,96296,5,0
256,192,96424,1,0
256,192,96552,1,0
256,192,96679,5,8
256,192,96743,1,8
256,192,96807,5,0
256,192,96935,1,0
256,192,96999,1,0
256,192,97062,5,8
256,192,97190,1,8
256,192,97254,1,8
256,192,97318,5,0
256,192,97445,1,0
256,192,97509,1,0
256,192,97573,5,8
256,192,97701,1,8
256,192,97828,5,0
256,192,97956,5,8
256,192,98020,1,8
256,192,98084,5,0
256,192,98211,5,8
256,192,98339,5,0
256,192,98403,5,8
256,192,98467,5,0
256,192,98530,5,8
256,192,98594,5,0
256,192,98722,5,8
256,192,98850,5,0
256,192,98977,5,8
256,192,99041,1,8
256,192,99105,5,0
256,192,99233,5,8
256,192,99360,5,0
256,192,99488,1,0
256,192,99616,5,8
256,192,99679,1,8
256,192,99743,1,8
256,192,99807,1,8
256,192,99871,1,8
256,192,99935,1,8
256,192,99999,1,8
256,192,100062,1,8
256,192,100126,5,0
256,192,100190,1,0
256,192,100254,5,8
256,192,100318,1,8
256,192,100382,1,8
256,192,100445,1,8
256,192,100509,5,0
256,192,100573,1,0
256,192,100637,5,8
256,192,100764,5,0
256,192,100828,1,0
256,192,100892,1,0
256,192,101020,5,8
256,192,101147,1,8
256,192,101211,1,8
256,192,101275,1,8
256,192,101339,1,8
256,192,101403,5,0
256,192,101530,5,8
256,192,101658,1,8
256,192,101722,1,8
256,192,101786,5,0
256,192,101913,1,0
256,192,102041,5,8
256,192,102105,1,8
256,192,102169,5,0
256,192,102296,5,8
256,192,102424,1,8
256,192,102488,1,8
256,192,102552,5,0
256,192,102616,1,0
256,192,102679,5,8
256,192,102807,5,0
256,192,102871,1,0
256,192,102935,1,0
256,192,102999,1,0
256,192,103062,5,8
256,192,103126,1,8
256,192,103190,5,0
256,192,103254,1,0
256,192,103318,1,0
256,192,103382,1,0
256,192,103445,5,8
256,192,103573,1,8
256,192,103701,5,0
256,192,103764,5,8
256,192,103892,1,8
256,192,103956,5,0
256,192,104084,5,8
256,192,104147,1,8
256,192,104211,1,8
256,192,104275,1,8
256,192,104339,5,0
256,192,104467,1,0
256,192,104594,5,8
256,192,104722,5,0
256,192,104786,5,8
256,192,104850,5,0
256,192,104977,5,8
256,192,105105,1,8
256,192,105169,5,0
256,192,105233,5,8
256,192,105360,5,0
256,192,105488,5,8
256,192,105552,5,0
256,192,105616,5,8
256,192,105743,5,0
256,192,105807,1,0
256,192,105871,5,8
256,192,105935,1,8
256,192,105999,5,0
256,192,106126,5,8
256,192,106190,1,8
256,192,106254,5,0
256,192,106382,5,8
256,192,106509,1,8
256,192,106573,1,8
256,192,106637,5,0
256,192,106701,1,0
256,192,106764,5,8
256,192,106892,1,8
256,192,107020,5,0
256,192,107084,1,0
256,192,107147,5,8
256,192,107275,5,0
256,192,107339,1,0
256,192,107403,1,0
256,192,107467,1,0
256,192,107530,5,8
256,192,107658,1,8
256,192,107786,5,0
256,192,107850,1,0
256,192,107913,1,0
256,192,107977,1,0
256,192,108041,5,8
256,192,108105,1,8
256,192,108169,5,0
256,192,108233,5,8
256,192,108296,5,0
256,192,108360,1,0
256,192,108424,5,8
256,192,108488,5,0
256,192,108552,5,8
256,192,108616,5,0
256,192,108679,5,8
256,192,108807,1,8
256,192,108871,1,8
256,192,108935,5,0
256,192,109062,1,0
256,192,109190,5,8
256,192,109254,5,0
256,192,109318,5,8
256,192,109445,1,8
256,192,109573,5,0
256,192,109637,1,0
256,192,109701,5,8
256,192,109764,1,8
256,192,109828,5,0
256,192,109892,5,8
256,192,109956,5,0
256,192,110084,5,8
256,192,110211,1,8
256,192,110275,1,8
256,192,110339,5,0
256,192,110467,1,0
256,192,110594,5,8
256,192,110658,1,8
256,192,110722,5,0
256,192,110786,1,0
256,192,110850,5,8
256,192,110977,1,8
256,192,111105,5,0
256,192,111169,1,0
256,192,111233,5,8
256,192,111360,5,0
256,192,111488,1,0
256,192,111616,5,8
256,192,111679,5,0
256,192,111743,5,8
256,192,111807,1,8
256,192,111871,5,0
256,192,111935,1,0
256,192,111999,1,0
256,192,112062,1,0
256,192,112126,5,8
256,192,112190,1,8
256,192,112254,5,0
256,192,112318,1,0
256,192,112382,1,0
256,192,112445,1,0
256,192,112509,5,8
256,192,112573,5,0
256,192,112637,5,8
256,192,112764,1,8
256,192,112892,1,8
256,192,112956,1,8
256,192,113020,5,0
256,192,113147,1,0
256,192,113211,1,0
256,192,113275,5,8
256,192,113403,1,8
256,192,113467,1,8
256,192,113530,1,8
256,192,113594,1,8
256,192,113658,5,0
256,192,113786,5,8
256,192,113913,5,0
256,192,113977,5,8
256,192,114041,5,0
256,192,114169,5,8
256,192,114296,1,8
256,192,114360,5,0
256,192,114424,5,8
256,192,114552,5,0
256,192,114679,5,8
256,192,114743,1,8
256,192,114807,5,0
256,192,114871,5,8
256,192,114935,5,0
256,192,114999,1,0
256,192,115062,5,8
256,192,115190,5,0
256,192,115318,5,8
256,192,115382,5,0
256,192,115445,1,0
256,192,115573,1,0
256,192,115701,5,8
256,192,115764,5,0
256,192,115828,5,8
256,192,115892,1,8
256,192,115956,5,0
256,192,116020,1,0
256,192,116084,1,0
256,192,116147,1,0
256,192,116211,5,8
256,192,116275,5,0
256,192,116339,1,0
256,192,116403,1,0
256,192,116467,5,8
256,192,116530,5,0
256,192,116594,5,8
256,192,116658,1,8
256,192,116722,5,0
256,192,116786,5,8
256,192,116850,5,0
256,192,116892,1,0
256,192,116935,1,0
256,192,116977,5,8
256,192,117105,5,0
256,192,117169,1,0
256,192,117233,5,8
256,192,117360,1,8
256,192,117424,5,0
256,192,117488,5,8
256,192,117616,5,0
256,192,117743,5,8
256,192,117807,5,0
256,192,117871,5,8
256,192,117935,5,0
256,192,117999,5,8
256,192,118062,1,8
256,192,118126,5,0
256,192,118254,5,8
256,192,118382,5,0
256,192,118445,5,8
256,192,118509,5,0
256,192,118573,1,0
256,192,118637,5,8
256,192,118764,5,0
256,192,118828,5,8
256,192,118956,1,8
256,192,119020,5,0
256,192,119147,5,8
256,192,119275,5,0
256,192,119339,1,0
256,192,119403,5,8
256,192,119530,5,0
256,192,119594,1,0
256,192,119658,1,0
256,192,119722,1,0
256,192,119786,5,8
256,192,119913,1,8
256,192,120041,5,0
256,192,120105,1,0
256,192,120169,1,0
256,192,120233,1,0
256,192,120296,5,8
256,192,120360,5,0
256,192,120424,5,8
256,192,120488,1,8
256,192,120552,1,8
256,192,120616,1,8
256,192,120679,5,0
256,192,120743,1,0
256,192,120807,5,8
256,192,120871,5,0
256,192,120935,5,8
256,192,121062,5,0
256,192,121126,1,0
256,192,121190,5,8
256,192,121318,1,8
256,192,121445,1,8
256,192,121509,1,8
256,192,121573,5,0
256,192,121701,5,8
256,192,121828,5,0
256,192,121892,5,8
256,192,121956,1,8
256,192,122020,1,8
256,192,122084,5,0
256,192,122211,1,0
256,192,122339,5,8
256,192,122403,1,8
256,192,122467,5,0
256,192,122530,5,8
256,192,122594,5,0
256,192,122658,1,0
256,192,122722,5,8
256,192,122850,1,8
256,192,122977,1,8
256,192,123041,1,8
256,192,123105,5,0
256,192,123233,5,8
256,192,123296,1,8
256,192,123360,1,8
256,192,123424,1,8
256,192,123488,5,0
256,192,123616,5,8
256,192,123679,1,8
256,192,123743,1,8
256,192,123807,1,8
256,192,123871,5,0
256,192,123999,1,0
256,192,124126,5,8
256,192,124190,5,0
256,192,124254,5,8
256,192,124318,5,0
256,192,124382,5,8
256,192,124445,5,0
256,192,124509,5,8
256,192,124573,5,0
256,192,124637,5,8
256,192,124701,1,8
256,192,124764,1,8
256,192,124828,1,8
256,192,124892,5,0
256,192,124956,5,8
256,192,125020,5,0
256,192,125062,1,0
256,192,125105,1,0
256,192,125147,5,8
256,192,125275,5,0
256,192,125339,1,0
256,192,125403,5,8
256,192,125530,1,8
256,192,125594,5,0
256,192,125658,5,8
256,192,125786,5,0
256,192,125850,1,0
256,192,125913,5,8
256,192,126041,5,0
256,192,126169,5,8
256,192,126233,1,8
256,192,126296,5,0
256,192,126424,5,8
256,192,126552,5,0
256,192,126616,1,0
256,192,126679,5,8
256,192,126807,5,0
256,192,126935,5,8
256,192,126999,5,0
256,192,127062,5,8
256,192,127126,5,0
256,192,127190,5,8
256,192,127318,5,0
256,192,127382,1,0
256,192,127445,5,8
256,192,127573,1,8
256,192,127637,1,8
256,192,127701,5,0
256,192,127828,1,0
256,192,127892,1,0
256,192,127956,5,8
256,192,128084,5,0
256,192,128211,5,8
256,192,128275,5,0
256,192,128339,1,0
256,192,128467,5,8
256,192,128594,5,0
256,192,128722,5,8
256,192,128786,1,8
256,192,128850,5,0
256,192,128913,1,0
256,192,128977,5,8
256,192,129105,1,8
256,192,129233,1,8
256,192,129360,5,0
256,192,129424,1,0
256,192,129488,5,8
256,192,129616,5,0
256,192,129679,1,0
256,192,129743,5,8
256,192,129871,5,0
256,192,129999,5,8
256,192,130062,5,0
256,192,130126,5,8
256,192,130254,1,8
256,192,130382,5,0
256,192,130445,1,0
256,192,130509,5,8
256,192,130637,5,0
256,192,130764,5,8
256,192,130828,1,8
256,192,130892,5,0
256,192,130956,1,0
256,192,131020,5,8
256,192,131147,1,8
256,192,131211,1,8
256,192,131275,1,8
256,192,131403,5,0
256,192,131467,1,0
256,192,131530,5,8
256,192,131658,5,0
256,192,131786,5,8
256,192,131850,5,0
256,192,131913,5,8
256,192,132041,1,8
256,192,132169,5,0
256,192,132233,1,0
256,192,132296,5,8
256,192,132360,1,8
256,192,132424,1,8
256,192,132488,1,8
256,192,132552,5,0
256,192,132616,1,0
256,192,132679,5,8
256,192,132743,1,8
256,192,132807,5,0
256,192,132871,5,8
256,192,132935,5,0
256,192,132999,5,8
256,192,133062,5,0
256,192,133126,1,0
256,192,133190,5,8
256,192,133254,5,0
256,192,133318,5,8
256,192,133573,1,8
256,192,133828,1,8
256,192,134084,1,8
256,192,134339,1,8
256,192,134594,1,8
256,192,134850,1,8
256,192,135105,1,8
256,192,135233,1,8
256,192,135296,1,8
256,192,135360,1,8
256,192,135616,1,8
256,192,135871,1,8
256,192,136126,1,8
256,192,136382,1,8
256,192,136637,1,8
256,192,136892,1,8
256,192,137147,1,8
256,192,137275,1,8
256,192,137403,5,0
256,192,137658,1,0
256,192,137913,1,0
256,192,138041,5,8
256,192,138169,5,0
256,192,138296,5,8
256,192,138424,5,0
256,192,138679,1,0
256,192,138935,1,0
256,192,139062,5,8
256,192,139190,5,0
256,192,139318,5,8
256,192,139445,5,0
256,192,139701,1,0
256,192,139956,1,0
256,192,140211,1,0
256,192,140467,5,8
256,192,140530,5,0
256,192,140594,5,8
256,192,140658,1,8
256,192,140722,5,0
256,192,140786,5,8
256,192,140850,5,0
256,192,140913,1,0
256,192,140977,5,8
256,192,141041,1,8
256,192,141105,1,8
256,192,141169,1,8
256,192,141233,1,8
256,192,141296,1,8
256,192,141360,1,8
256,192,141488,1,8
