osu file format v9

[General]
AudioFilename: goreshit - Satori De Pon!.mp3
AudioLeadIn: 2000
PreviewTime: 27059
Countdown: 0
SampleSet: Normal
StackLeniency: 0.7
Mode: 1
LetterboxInBreaks: 0

[Editor]
Bookmarks: 59667,84242,92412,116986,125154
DistanceSpacing: 0.2
BeatDivisor: 4
GridSize: 8

[Metadata]
Title:Satori De Pon!
Artist:goreshit
Creator:[CSGA]Ar3sgice
Version:Taikocalypse X
Source:
Tags:marisa lolicore hardcore Backfire Hyperhappyhardcore Dance Corps 2 Gasaiyuno-chan DCRPS018 breakcore OnosakiHito eldnl

[Difficulty]
HPDrainRate:5
CircleSize:5
OverallDifficulty:5
ApproachRate:5
SliderMultiplier:1.4
SliderTickRate:1

[Events]
//Background and Video events
0,0,"SatoriDePonTaikoBG3.png"
//Break Periods
//Storyboard Layer 0 (Background)
//Storyboard Layer 1 (Fail)
//Storyboard Layer 2 (Pass)
//Storyboard Layer 3 (Foreground)
//Storyboard Sound Samples
//Background Colour Transformations
3,100,163,162,255

[TimingPoints]
190,332.963374028857,4,1,0,70,1,0
6849,330.396475770925,4,1,0,70,1,0
8170,638.297872340426,4,1,0,70,1,0
9446,333.333333333333,4,1,0,70,1,0
9946,352.941176470588,4,1,0,70,1,0
10122,333.333333333333,4,1,0,70,1,0
10288,324.324324324324,4,1,0,70,1,0
10450,315.789473684211,4,1,0,70,1,0
10765,255.3191489,4,1,0,70,1,0
10765,-100,4,1,0,70,0,0
59786,-100,4,1,0,70,0,1
76126,-100,4,1,0,70,0,0
100637,-100,4,1,0,70,0,1
133318,-100,4,1,0,70,0,0

[Colours]
Combo1 : 255,150,0
Combo2 : 219,26,31
Combo3 : 5,5,240
Combo4 : 158,67,177
Combo5 : 233,12,227

[HitObjects]
256,168,190,1,4
240,200,1521,1,4
104,160,2687,1,8
104,160,2770,1,8
240,200,2853,1,4
240,200,4185,1,4
240,200,5517,1,4
240,200,6849,1,4
208,160,8005,5,8
208,160,8087,1,8
240,200,8170,5,4
320,144,9446,5,4
408,344,9612,5,12
192,96,9779,5,4
104,344,9946,1,12
192,56,10122,1,0
192,96,10205,1,8
192,96,10288,1,8
192,96,10369,1,0
192,96,10450,1,8
192,96,10528,1,0
192,96,10607,1,8
192,56,10765,1,4
256,240,10892,5,0
232,128,11019,5,0
232,128,11148,1,0
232,128,11211,1,0
232,128,11275,1,8
160,48,11402,1,0
312,152,11530,1,8
312,152,11593,1,0
312,152,11657,1,8
312,152,11785,1,0
352,48,11913,1,8
232,128,12040,1,0
232,128,12104,1,0
232,128,12168,1,0
232,128,12296,1,0
232,128,12359,1,0
232,128,12423,1,8
312,128,12551,1,2
216,64,12679,1,8
216,64,12742,1,8
216,64,12806,1,0
200,256,12934,1,0
216,64,13062,1,8
216,64,13126,1,8
216,64,13189,1,0
216,64,13317,1,8
448,112,13445,1,0
232,32,13573,1,8
216,64,13701,1,0
216,64,13765,1,0
216,64,13828,1,8
216,64,13956,1,8
216,64,14084,1,0
216,64,14148,1,0
448,112,14211,1,0
216,64,14339,1,8
216,64,14403,1,0
216,64,14467,1,8
216,64,14531,1,8
216,64,14594,1,0
216,64,14658,1,0
216,64,14722,1,8
216,64,14786,1,8
256,248,14850,5,0
256,104,14977,1,0
272,192,15105,1,8
272,192,15169,1,0
272,192,15233,1,8
272,192,15360,1,0
272,192,15424,1,0
224,120,15487,1,0
224,120,15616,1,8
224,120,15680,1,0
224,120,15743,1,0
224,120,15871,1,0
224,120,15935,1,0
224,120,15999,1,8
224,120,16126,1,0
224,120,16254,1,8
240,168,16382,1,0
240,168,16445,1,0
240,168,16509,1,0
240,168,16637,1,8
240,168,16765,1,0
240,168,16892,1,8
240,168,17020,1,0
240,168,17084,1,0
240,168,17148,1,8
240,168,17211,1,0
240,168,17339,1,8
240,168,17403,1,0
240,168,17531,1,0
240,168,17594,1,0
240,168,17658,1,8
240,168,17786,1,0
240,168,17914,1,12
240,168,18169,1,12
216,72,18424,1,12
240,168,18552,1,0
224,104,18680,1,4
240,168,18807,1,0
240,168,18871,1,0
240,168,18935,1,8
216,72,19062,1,8
224,104,19126,1,8
216,72,19190,1,0
216,72,19318,1,0
216,72,19445,1,8
216,72,19573,1,0
216,72,19637,1,0
216,72,19701,1,8
216,72,19765,1,0
216,72,19828,1,8
216,72,19956,1,8
216,72,20020,1,8
224,104,20084,1,0
184,144,20211,1,0
184,144,20275,1,0
184,144,20339,1,8
224,104,20467,1,0
224,104,20594,1,8
224,104,20722,1,0
224,104,20785,1,8
224,104,20849,1,0
224,104,20977,1,8
224,104,21105,1,0
224,104,21169,1,0
224,104,21233,1,8
224,104,21297,1,0
224,104,21360,1,8
224,104,21487,1,0
224,104,21615,1,8
224,104,21742,1,0
224,104,21806,1,0
224,104,21870,1,0
224,104,21998,1,8
224,104,22125,1,0
224,104,22189,1,0
224,104,22253,1,8
224,104,22381,1,0
224,104,22444,1,0
232,56,22508,1,8
232,56,22636,1,0
232,56,22700,1,0
224,104,22764,1,8
224,104,22827,1,0
224,104,22891,1,8
224,104,22955,1,8
224,104,23019,1,0
224,104,23147,1,0
200,80,23274,1,8
224,104,23338,1,0
224,104,23402,1,0
240,168,23530,1,0
240,168,23594,1,0
240,168,23658,1,0
216,72,23786,1,8
224,104,23849,1,8
216,72,23913,1,0
216,72,24041,1,0
216,72,24168,1,8
216,72,24296,1,0
216,72,24360,1,0
216,72,24424,1,8
216,72,24488,1,8
216,72,24551,1,0
216,72,24679,1,8
216,72,24743,1,8
224,104,24807,1,0
184,144,24934,1,0
184,144,24998,1,0
184,144,25062,1,8
224,104,25189,1,0
224,104,25318,1,8
200,168,25381,1,0
224,104,25444,1,0
224,104,25508,1,0
224,104,25572,1,8
224,104,25701,1,0
216,72,25763,1,0
224,104,25827,1,8
224,104,25892,1,8
224,104,25955,1,0
224,104,26019,1,0
224,104,26084,1,8
224,104,26210,1,0
224,104,26338,1,8
224,104,26466,1,8
224,104,26530,1,0
224,104,26594,1,8
224,104,26722,1,8
224,104,26849,1,8
224,104,26913,1,0
224,104,26977,1,8
224,104,27040,1,0
224,104,27105,1,8
224,104,27168,1,0
232,56,27232,1,0
232,56,27360,1,0
232,56,27424,1,0
224,104,27488,1,8
224,104,27615,1,0
224,104,27679,1,0
224,104,27743,1,8
224,104,27871,1,0
200,80,27998,1,8
224,104,28127,1,0
224,104,28190,1,0
224,152,28253,1,8
224,152,28382,1,8
224,152,28445,1,8
224,152,28509,1,0
224,152,28636,1,0
224,104,28700,1,0
224,104,28764,1,8
200,80,28891,1,0
200,80,28955,1,0
200,80,29019,1,8
200,80,29083,1,0
200,80,29147,1,0
200,80,29275,1,8
200,80,29402,1,8
200,80,29466,1,0
200,80,29530,1,0
168,88,29657,1,8
168,88,29721,1,8
168,88,29785,1,0
168,88,29913,1,8
168,88,29976,1,0
168,88,30040,1,0
168,88,30104,1,0
120,96,30168,1,8
120,96,30232,1,0
120,96,30296,1,0
120,96,30359,1,0
120,96,30423,1,8
120,96,30487,1,0
120,96,30551,1,0
160,128,30615,1,8
160,128,30679,1,0
168,88,30742,1,0
160,128,30806,1,8
168,88,30870,1,0
168,88,30934,1,8
168,88,31062,1,8
168,88,31126,1,8
200,80,31189,1,0
168,88,31317,1,0
232,80,31445,1,0
232,80,31509,1,8
224,144,31573,1,0
168,88,31700,1,0
224,144,31764,1,0
120,96,31828,1,8
120,96,31955,1,0
120,96,32083,1,8
232,80,32210,1,0
232,80,32274,1,0
232,80,32338,1,8
232,80,32466,1,8
232,80,32530,1,0
200,80,32593,1,8
232,80,32721,1,8
232,80,32785,1,8
200,80,32849,1,0
200,80,32976,1,8
200,80,33104,1,8
224,144,33233,1,8
248,120,33297,1,0
248,120,33360,1,0
248,120,33424,1,8
248,120,33488,1,8
248,120,33552,1,0
248,120,33616,1,0
248,120,33680,1,8
248,120,33743,1,8
232,80,33807,1,0
248,120,33871,1,0
232,80,33935,1,8
232,80,33999,1,8
232,80,34126,1,0
232,80,34254,1,8
200,80,34382,1,8
200,80,34445,1,8
248,120,34509,1,8
200,80,34637,1,8
232,80,34765,1,0
232,80,34828,1,0
232,80,34892,1,0
232,80,34956,1,0
232,80,35020,1,8
248,120,35084,1,8
248,120,35148,1,8
200,80,35211,1,8
248,120,35275,1,0
232,80,35402,1,0
232,80,35530,1,0
232,80,35593,1,8
232,80,35657,1,0
232,80,35785,1,0
232,80,35849,1,0
200,80,35913,1,0
200,80,36040,1,8
200,80,36168,1,8
200,80,36296,1,0
192,32,36359,1,0
192,32,36423,1,0
200,80,36551,1,8
200,80,36615,1,0
200,80,36679,1,8
200,80,36806,1,0
200,80,36870,1,0
200,80,36934,1,0
248,184,37062,1,8
248,184,37189,1,0
248,184,37253,1,8
248,184,37317,1,0
248,184,37381,1,0
248,184,37444,1,8
248,184,37572,1,8
248,184,37636,1,8
248,184,37700,1,0
248,184,37827,1,8
248,184,37891,1,0
248,184,37955,1,0
216,176,38083,1,8
216,176,38147,1,8
216,176,38210,1,0
216,176,38338,1,8
232,128,38466,1,0
232,128,38593,1,8
232,128,38657,1,0
232,128,38721,1,8
232,128,38849,1,8
232,128,38976,1,0
232,128,39040,1,0
232,128,39104,1,8
232,128,39168,1,8
232,128,39232,1,8
232,128,39296,1,8
232,128,39359,1,0
232,128,39487,1,0
232,128,39551,1,0
200,104,39615,1,8
200,104,39742,1,0
200,104,39870,1,8
200,104,39998,1,0
200,104,40062,1,0
200,104,40125,1,8
200,104,40253,1,8
200,104,40381,1,8
200,104,40445,1,0
200,104,40509,1,8
232,80,40636,1,0
232,80,40700,1,8
200,80,40764,1,0
200,80,40891,1,8
200,80,41019,1,0
200,80,41147,1,8
192,32,41211,1,8
192,32,41275,1,0
200,80,41402,1,0
200,80,41466,1,0
200,80,41530,1,8
200,80,41658,1,0
200,80,41721,1,0
200,80,41785,1,8
248,184,41912,1,8
248,184,42040,1,0
248,184,42104,1,0
248,184,42168,1,8
248,184,42232,1,0
248,184,42295,1,8
248,184,42423,1,8
248,184,42487,1,0
248,184,42551,1,8
248,184,42678,1,8
248,184,42742,1,8
248,184,42806,1,8
216,176,42934,1,8
216,176,42998,1,0
216,176,43061,1,8
216,176,43189,1,8
232,128,43317,1,8
232,128,43446,1,0
232,128,43509,1,0
232,128,43573,1,8
232,128,43701,1,8
232,128,43828,1,8
232,128,43892,1,0
232,128,43956,1,8
232,128,44020,1,8
232,128,44084,1,0
232,128,44148,1,0
232,128,44211,1,8
232,128,44339,1,8
232,128,44403,1,8
200,104,44467,1,0
200,104,44594,1,0
200,104,44722,1,8
200,104,44850,1,0
200,104,44914,1,0
200,104,44977,1,0
200,104,45105,1,8
200,104,45233,1,0
200,104,45296,1,0
200,104,45360,1,0
232,80,45488,1,0
232,80,45552,1,0
200,80,45616,1,8
200,80,45743,1,0
200,80,45871,1,8
200,80,45999,1,0
192,32,46062,1,0
192,32,46126,1,0
200,80,46254,1,8
200,80,46318,1,8
200,80,46382,1,0
200,80,46509,1,0
200,80,46573,1,0
200,80,46637,1,8
248,184,46765,1,0
248,184,46892,1,0
248,184,46956,1,0
248,184,47020,1,8
248,184,47084,1,8
248,184,47147,1,0
248,184,47211,1,0
248,184,47275,1,8
248,184,47403,1,8
248,184,47467,1,8
248,184,47530,1,0
248,184,47658,1,0
216,176,47786,1,8
216,176,47914,1,0
216,176,48041,1,0
216,176,48105,1,0
232,128,48169,1,0
232,128,48296,1,8
232,128,48360,1,8
232,128,48424,1,0
232,128,48552,1,0
232,128,48616,1,0
232,128,48679,1,0
232,128,48807,1,8
232,128,48871,1,0
232,128,48935,1,0
232,128,48999,1,0
232,128,49063,1,8
232,128,49190,1,0
232,128,49254,1,0
200,104,49318,1,8
200,104,49445,1,0
200,104,49573,1,8
200,104,49701,1,0
200,104,49828,1,8
200,104,49892,1,8
200,104,49956,1,0
200,104,50084,1,8
200,104,50147,1,0
200,104,50211,1,0
288,176,50339,1,8
288,176,50403,1,8
288,176,50467,1,0
232,80,50594,1,8
232,80,50658,1,0
200,80,50722,1,0
200,80,50849,1,8
200,80,50977,1,0
200,80,51041,1,8
192,32,51105,1,8
192,32,51232,1,8
200,80,51297,1,8
200,80,51360,1,0
200,80,51424,1,8
200,104,51488,1,0
200,80,51615,1,0
200,80,51679,1,0
200,80,51743,1,8
248,184,51871,1,8
248,184,51998,1,0
248,184,52062,1,0
248,184,52126,1,0
248,184,52190,1,8
248,184,52253,1,0
248,184,52381,1,8
248,184,52445,1,0
248,184,52509,1,0
248,184,52636,1,8
248,184,52700,1,8
248,184,52764,1,0
216,176,52892,1,0
216,176,52956,1,0
216,176,53019,1,8
216,176,53147,1,0
232,128,53275,1,8
232,128,53402,1,0
232,128,53466,1,0
232,128,53530,1,8
232,128,53658,1,8
232,128,53785,1,0
232,128,53849,1,0
232,128,53913,1,0
232,128,53977,1,0
232,128,54041,1,8
232,128,54105,1,8
232,128,54168,1,0
232,128,54296,1,8
232,128,54360,1,0
200,104,54424,1,8
200,104,54551,1,0
200,104,54679,1,8
200,104,54807,1,0
200,104,54871,1,0
200,104,54934,1,8
200,104,55062,1,8
200,104,55190,1,8
200,104,55253,1,0
200,104,55317,1,0
208,48,55382,1,0
208,48,55445,1,8
208,48,55509,1,8
208,48,55573,1,0
208,48,55637,1,0
208,48,55701,1,8
232,80,55828,1,0
232,80,55892,1,0
200,80,55956,1,8
200,80,56083,1,8
200,80,56211,1,0
200,80,56275,1,0
192,32,56339,1,0
192,32,56466,1,8
200,80,56531,1,0
200,80,56594,1,0
200,80,56658,1,0
200,104,56722,1,8
200,80,56850,1,8
200,80,56913,1,8
200,80,56977,1,0
248,184,57105,1,8
248,184,57232,1,0
248,184,57296,1,0
248,184,57360,1,0
248,184,57424,1,0
248,184,57487,1,8
248,184,57615,1,0
248,184,57679,1,0
248,184,57743,1,8
248,184,57870,1,0
248,184,57934,1,8
248,184,57998,1,0
216,176,58126,1,8
216,176,58190,1,8
216,176,58253,1,0
216,176,58381,1,0
232,128,58509,1,8
232,128,58636,1,0
232,128,58700,1,0
232,128,58764,1,0
208,72,58892,1,0
208,72,59020,1,8
232,128,59148,1,0
232,128,59211,1,0
232,128,59275,1,0
232,128,59403,1,8
232,128,59531,1,0
232,128,59594,1,0
232,128,59658,1,8
232,128,59722,1,8
224,104,59786,1,0
224,104,59849,1,0
232,56,59913,1,8
232,56,60041,1,8
232,56,60105,1,0
224,104,60169,1,0
224,104,60297,1,0
224,104,60360,1,0
224,104,60424,1,8
224,104,60552,1,0
200,80,60679,1,8
224,104,60807,1,0
224,104,60870,1,0
224,152,60934,1,8
224,152,61062,1,8
224,152,61125,1,0
224,152,61189,1,8
224,152,61317,1,0
224,104,61381,1,0
224,104,61445,1,8
200,80,61572,1,0
200,80,61636,1,0
200,80,61700,1,8
200,80,61765,1,8
200,80,61828,1,0
200,80,61891,1,0
200,80,61955,1,8
200,80,62083,1,8
200,80,62147,1,0
200,80,62211,1,8
168,88,62338,1,0
168,88,62402,1,0
168,88,62466,1,8
168,88,62594,1,0
168,88,62657,1,0
168,88,62721,1,0
168,88,62785,1,0
120,96,62849,1,8
120,96,62913,1,0
120,96,62977,1,0
120,96,63040,1,0
120,96,63104,1,8
120,96,63168,1,0
120,96,63232,1,0
160,128,63296,1,0
160,128,63360,1,8
168,88,63423,1,0
160,128,63487,1,8
168,88,63551,1,0
168,88,63615,1,8
168,88,63743,1,8
168,88,63870,1,0
200,80,63934,1,0
168,88,63998,1,8
232,80,64125,1,0
232,80,64189,1,0
224,144,64253,1,8
168,88,64381,1,0
224,144,64445,1,8
120,96,64508,1,0
120,96,64636,1,8
120,96,64764,1,0
232,80,64891,1,8
232,80,64955,1,8
232,80,65019,1,0
232,80,65147,1,0
232,80,65211,1,0
200,80,65274,1,0
232,80,65402,1,8
232,80,65466,1,8
200,80,65530,1,0
200,80,65657,1,0
200,80,65785,1,8
224,144,65913,1,0
248,120,65977,1,0
248,120,66041,1,8
248,120,66104,1,0
248,120,66168,1,8
248,120,66233,1,0
248,120,66296,1,0
248,120,66360,1,8
248,120,66423,1,0
232,80,66487,1,0
248,120,66551,1,8
232,80,66615,1,0
232,80,66680,1,8
232,80,66806,1,0
232,80,66935,1,8
200,80,67062,1,0
200,80,67125,1,0
248,120,67189,1,0
200,80,67317,1,8
232,80,67445,1,0
232,80,67509,1,0
232,80,67572,1,8
232,80,67636,1,8
232,80,67700,1,0
248,120,67765,1,0
248,120,67828,1,8
248,120,67955,1,0
200,80,68019,1,0
232,80,68083,1,0
232,80,68211,1,8
232,80,68274,1,8
232,80,68338,1,0
232,80,68466,1,0
232,80,68530,1,0
200,80,68594,1,0
200,80,68721,1,8
200,80,68849,1,8
200,80,68977,1,0
192,32,69040,1,0
192,32,69104,1,0
200,80,69233,1,8
200,80,69297,1,8
200,80,69360,1,0
200,80,69487,1,0
200,80,69551,1,0
200,80,69616,1,8
248,184,69743,1,8
248,184,69870,1,0
248,184,69934,1,0
248,184,69998,1,8
248,184,70062,1,0
248,184,70125,1,8
248,184,70253,1,0
248,184,70317,1,0
248,184,70381,1,8
248,184,70508,1,8
248,184,70572,1,8
248,184,70636,1,0
216,176,70764,1,0
216,176,70828,1,0
216,176,70891,1,0
216,176,71019,1,8
232,128,71147,1,0
232,128,71274,1,8
232,128,71339,1,8
232,128,71402,1,0
232,128,71530,1,0
232,128,71657,1,0
232,128,71721,1,0
232,128,71785,1,8
232,128,71849,1,8
232,128,71914,1,8
232,128,71977,1,8
232,128,72040,1,0
232,128,72168,1,0
232,128,72232,1,0
200,104,72296,1,8
200,104,72423,1,0
200,104,72551,1,8
200,104,72680,1,0
200,104,72743,1,0
200,104,72806,1,0
200,104,72934,1,0
200,104,73063,1,8
200,104,73126,1,8
200,104,73189,1,0
232,80,73317,1,0
232,80,73381,1,0
200,80,73445,1,0
200,80,73573,1,8
200,80,73700,1,8
200,80,73828,1,0
192,32,73891,1,0
192,32,73955,1,8
200,80,74083,1,0
200,80,74147,1,0
200,80,74211,1,8
200,80,74338,1,8
200,80,74403,1,8
200,80,74466,1,0
248,184,74594,1,8
248,184,74721,1,0
248,184,74785,1,0
248,184,74849,1,8
192,32,74914,1,0
248,184,74976,1,0
192,32,75041,1,0
248,184,75104,1,8
248,184,75168,1,0
248,184,75232,1,8
192,32,75297,1,0
248,184,75359,1,8
248,184,75423,1,0
248,184,75487,1,8
192,32,75552,1,0
216,176,75615,1,8
216,176,75680,1,8
216,176,75743,1,8
200,80,75807,1,8
216,176,75870,1,8
200,80,75935,1,8
232,128,75999,1,8
200,80,76063,1,8
224,104,76126,1,8
232,56,76253,1,0
232,56,76381,1,8
224,104,76509,1,0
224,104,76636,1,8
224,104,76764,1,0
224,104,76892,1,8
200,80,77019,1,0
224,104,77147,1,8
224,152,77274,1,0
224,152,77402,1,8
224,152,77531,1,0
224,152,77657,1,8
224,104,77785,1,0
200,80,77914,1,8
200,80,77977,1,8
200,80,78041,1,8
200,80,78105,1,8
200,80,78169,1,8
200,80,78297,1,0
200,80,78423,1,8
200,80,78551,1,0
168,88,78680,1,8
168,88,78806,1,0
168,88,78934,1,8
168,88,79063,1,0
168,88,79190,1,8
120,96,79317,1,0
120,96,79444,1,8
120,96,79572,1,0
160,128,79700,1,8
168,88,79765,1,8
160,128,79827,1,8
168,88,79955,1,8
168,88,80083,1,8
168,88,80210,1,8
168,88,80338,1,0
232,80,80467,1,8
224,144,80593,1,0
168,88,80721,1,8
120,96,80850,1,0
120,96,80976,1,8
120,96,81104,1,0
232,80,81233,1,8
232,80,81297,1,0
232,80,81359,1,0
232,80,81487,1,8
200,80,81616,1,0
232,80,81742,1,8
232,80,81806,1,0
200,80,81870,1,0
200,80,81999,1,8
200,80,82125,1,8
224,144,82190,1,8
224,144,82253,1,8
248,120,82382,1,0
248,120,82509,1,8
248,120,82636,1,0
248,120,82765,1,8
248,120,82891,1,0
232,80,83019,1,8
232,80,83148,1,0
232,80,83274,1,8
200,80,83402,1,0
200,80,83467,1,0
248,120,83531,1,0
200,80,83657,1,0
232,80,83785,1,0
232,80,83850,1,0
232,80,83914,1,0
232,80,83976,1,0
232,80,84040,1,8
248,120,84104,1,0
248,120,84168,1,8
248,120,84297,1,8
200,80,84359,1,0
232,80,84423,1,0
232,80,84551,1,0
232,80,84616,1,0
232,80,84680,1,0
232,80,84806,1,8
232,80,84870,1,0
200,80,84934,1,0
200,80,85063,1,0
208,120,85126,1,0
200,80,85189,1,0
200,80,85317,1,8
192,32,85382,1,8
192,32,85444,1,0
200,80,85572,1,0
200,80,85636,1,0
200,80,85700,1,0
200,80,85827,1,8
200,80,85891,1,8
200,80,85955,1,0
248,184,86083,1,8
208,120,86148,1,0
248,184,86210,1,8
240,144,86275,1,0
248,184,86339,1,8
248,184,86403,1,8
248,184,86467,1,0
248,184,86593,1,0
248,184,86657,1,0
248,184,86721,1,0
248,184,86850,1,8
248,184,86914,1,8
248,184,86976,1,0
216,176,87104,1,0
216,176,87168,1,0
216,176,87233,1,0
216,176,87359,1,8
208,120,87424,1,0
232,128,87487,1,0
232,128,87616,1,8
232,128,87680,1,0
232,128,87742,1,0
232,128,87870,1,8
224,96,87935,1,0
232,128,87999,1,0
232,128,88125,1,8
232,128,88189,1,0
232,128,88253,1,8
232,128,88317,1,8
232,128,88382,1,0
232,128,88445,1,0
232,128,88509,1,8
200,104,88636,1,0
232,56,88701,1,0
232,56,88765,1,0
200,104,88891,1,0
232,56,88956,1,0
200,104,89019,1,8
200,104,89148,1,0
224,96,89211,1,0
200,104,89274,1,0
200,104,89402,1,0
200,104,89467,1,0
200,104,89531,1,8
232,80,89657,1,0
232,80,89721,1,0
200,80,89785,1,0
200,80,89914,1,0
224,96,89977,1,0
200,80,90040,1,8
200,80,90168,1,0
192,32,90233,1,0
192,32,90297,1,8
224,96,90360,1,0
200,80,90423,1,0
200,80,90487,1,0
200,80,90551,1,8
200,80,90680,1,0
200,80,90742,1,0
200,80,90806,1,0
248,184,90934,1,0
232,80,90999,1,0
248,184,91063,1,8
248,184,91189,1,0
248,184,91253,1,0
248,184,91318,1,0
248,184,91444,1,0
248,184,91508,1,0
248,184,91572,1,8
264,128,91637,1,0
248,184,91701,1,8
248,184,91765,1,0
248,184,91827,1,8
264,128,91892,1,0
216,176,91956,1,8
216,176,92019,1,8
216,176,92084,1,8
264,128,92148,1,8
216,176,92211,1,8
168,152,92275,1,8
168,152,92339,1,0
168,152,92403,1,0
264,128,92467,1,8
232,128,92531,1,8
232,128,92594,1,0
232,128,92722,1,0
232,128,92787,1,0
232,128,92851,1,0
200,104,92978,1,8
232,56,93041,1,8
232,56,93105,1,0
200,104,93233,1,0
232,56,93296,1,0
200,104,93361,1,0
200,104,93488,1,8
224,96,93553,1,8
200,104,93616,1,0
200,104,93744,1,0
200,104,93807,1,0
200,104,93871,1,0
232,80,93999,1,8
232,80,94063,1,8
200,80,94127,1,0
200,80,94254,1,8
224,96,94319,1,0
200,80,94382,1,8
200,80,94445,1,8
192,32,94509,1,0
192,32,94573,1,0
224,96,94637,1,8
200,80,94765,1,8
200,80,94829,1,8
200,80,94893,1,8
200,80,95020,1,0
200,80,95084,1,0
200,80,95148,1,8
248,184,95276,1,8
232,80,95339,1,8
248,184,95403,1,8
248,184,95531,1,0
248,184,95595,1,0
248,184,95658,1,8
232,80,95786,1,8
232,80,95850,1,8
200,80,95914,1,8
200,80,96041,1,8
208,120,96106,1,8
200,80,96169,1,8
200,80,96297,1,8
192,32,96360,1,8
192,32,96424,1,8
352,176,96488,1,8
200,80,96552,1,8
160,0,96616,1,8
200,80,96680,1,0
232,80,96807,1,0
232,80,96871,1,0
200,80,96935,1,0
200,80,97063,1,8
208,120,97127,1,8
200,80,97190,1,0
200,80,97318,1,0
192,32,97381,1,0
192,32,97445,1,0
200,80,97573,1,8
200,80,97637,1,8
200,80,97701,1,0
200,80,97828,1,0
200,80,97892,1,0
200,80,97956,1,0
248,184,98084,1,8
232,80,98147,1,8
248,184,98211,1,0
216,152,98339,1,0
248,136,98403,1,8
200,80,98467,1,8
200,80,98531,1,8
200,80,98594,1,0
200,80,98658,1,8
200,80,98722,1,8
232,112,98850,1,0
232,112,98914,1,8
232,112,98977,1,8
232,112,99105,1,0
232,112,99169,1,8
232,112,99233,1,8
232,112,99360,1,8
232,112,99488,1,8
192,16,99616,1,0
192,16,99680,1,0
192,16,99743,1,0
192,16,99807,1,0
192,16,99871,1,0
192,16,99935,1,0
192,16,99999,1,0
192,16,100063,1,0
192,16,100126,1,8
192,16,100190,1,8
192,16,100254,1,8
192,16,100318,1,8
224,72,100382,1,8
192,16,100445,1,8
192,16,100509,1,8
224,104,100637,1,8
224,104,100700,1,8
232,56,100765,1,0
232,56,100892,1,8
232,56,100956,1,0
224,104,101020,1,0
224,104,101147,1,0
224,104,101211,1,0
224,104,101275,1,8
224,104,101403,1,8
200,80,101530,1,8
224,104,101658,1,0
224,104,101721,1,0
224,152,101785,1,0
224,152,101914,1,8
224,152,101977,1,8
224,152,102040,1,0
224,152,102168,1,0
224,104,102232,1,8
224,104,102296,1,0
200,80,102423,1,0
200,80,102487,1,0
200,80,102551,1,8
200,80,102616,1,8
200,80,102679,1,0
200,80,102742,1,0
200,80,102806,1,8
200,80,102935,1,8
200,80,102999,1,8
200,80,103062,1,0
168,88,103189,1,0
168,88,103253,1,0
168,88,103317,1,0
168,88,103445,1,8
168,88,103508,1,8
168,88,103572,1,0
168,88,103636,1,0
120,96,103700,1,8
120,96,103764,1,8
120,96,103828,1,0
120,96,103891,1,0
120,96,103955,1,8
120,96,104019,1,0
120,96,104083,1,8
160,128,104147,1,0
160,128,104211,1,8
168,88,104274,1,0
160,128,104338,1,0
168,88,104402,1,0
168,88,104466,1,8
168,88,104594,1,8
168,88,104721,1,0
200,80,104785,1,0
168,88,104849,1,0
232,80,104976,1,8
232,80,105040,1,8
224,144,105105,1,8
168,88,105232,1,0
224,144,105296,1,0
120,96,105359,1,8
120,96,105487,1,8
120,96,105615,1,0
232,80,105742,1,8
232,80,105807,1,8
232,80,105870,1,0
232,80,105998,1,0
232,80,106062,1,0
200,80,106125,1,8
232,80,106253,1,0
232,80,106317,1,0
200,80,106381,1,0
200,80,106508,1,8
200,80,106636,1,8
224,144,106764,1,0
248,120,106828,1,0
248,120,106892,1,0
248,120,106955,1,0
248,120,107019,1,8
248,120,107084,1,0
248,120,107147,1,0
248,120,107211,1,0
248,120,107274,1,0
232,80,107338,1,0
248,120,107402,1,0
232,80,107466,1,0
232,80,107530,1,8
232,80,107657,1,0
232,80,107786,1,8
200,80,107913,1,8
200,80,107976,1,8
248,120,108040,1,8
200,80,108168,1,0
232,80,108297,1,8
232,80,108360,1,8
232,80,108423,1,0
232,80,108487,1,0
232,80,108551,1,8
248,120,108616,1,8
248,120,108679,1,0
248,120,108806,1,0
200,80,108870,1,0
232,80,108934,1,0
232,80,109063,1,8
232,80,109125,1,8
232,80,109189,1,0
232,80,109317,1,0
232,80,109381,1,0
200,80,109445,1,8
200,80,109572,1,0
200,80,109700,1,8
200,80,109828,1,0
192,32,109891,1,0
192,32,109955,1,0
200,80,110083,1,8
200,80,110147,1,8
200,80,110211,1,0
200,80,110338,1,0
200,80,110402,1,0
200,80,110467,1,8
248,184,110594,1,8
248,184,110721,1,0
248,184,110786,1,8
248,184,110849,1,8
248,184,110913,1,0
248,184,110976,1,8
248,184,111105,1,8
248,184,111168,1,0
248,184,111233,1,8
248,184,111359,1,0
248,184,111423,1,0
248,184,111487,1,8
216,176,111616,1,8
216,176,111680,1,8
216,176,111742,1,0
216,176,111870,1,0
232,128,111998,1,8
232,128,112125,1,0
232,128,112189,1,0
232,128,112253,1,8
232,128,112381,1,0
232,128,112509,1,8
232,128,112572,1,0
232,128,112636,1,8
232,128,112700,1,0
232,128,112764,1,0
232,128,112828,1,0
232,128,112892,1,8
232,128,113019,1,8
232,128,113083,1,8
200,104,113147,1,0
200,104,113274,1,0
200,104,113402,1,8
200,104,113531,1,0
200,104,113594,1,0
200,104,113657,1,0
200,104,113785,1,8
200,104,113913,1,0
200,104,113976,1,0
200,104,114040,1,8
232,80,114169,1,0
232,80,114232,1,0
200,80,114296,1,0
200,80,114423,1,8
200,80,114551,1,0
200,80,114679,1,8
192,32,114743,1,8
192,32,114806,1,0
200,80,114934,1,0
200,80,114998,1,8
200,80,115062,1,0
200,80,115190,1,8
200,80,115253,1,8
200,80,115317,1,0
248,184,115445,1,0
248,184,115572,1,8
248,184,115636,1,0
248,184,115700,1,8
192,32,115765,1,0
248,184,115827,1,0
192,32,115892,1,0
248,184,115955,1,8
248,184,116019,1,8
248,184,116083,1,0
192,32,116148,1,0
248,184,116210,1,8
248,184,116274,1,0
248,184,116339,1,0
192,32,116403,1,0
216,176,116466,1,8
216,176,116530,1,8
216,176,116593,1,0
200,80,116658,1,0
216,176,116721,1,8
200,80,116786,1,0
232,128,116849,1,8
200,80,116914,1,8
224,104,116977,1,0
224,104,117040,1,0
232,56,117105,1,8
232,56,117232,1,0
232,56,117296,1,0
224,104,117360,1,8
224,104,117487,1,0
224,104,117551,1,0
224,104,117615,1,0
224,104,117743,1,8
200,80,117870,1,8
224,104,117998,1,0
224,104,118063,1,0
224,152,118125,1,0
224,152,118253,1,8
224,152,118318,1,0
224,152,118382,1,8
224,152,118508,1,8
224,104,118572,1,8
224,104,118636,1,0
200,80,118765,1,8
200,80,118827,1,8
200,80,118891,1,0
200,80,118955,1,0
200,80,119020,1,8
200,80,119084,1,0
200,80,119148,1,8
200,80,119274,1,0
200,80,119339,1,8
200,80,119402,1,0
168,88,119531,1,0
168,88,119593,1,0
168,88,119657,1,8
168,88,119785,1,8
168,88,119850,1,0
168,88,119914,1,0
168,88,119976,1,0
120,96,120040,1,8
120,96,120104,1,0
120,96,120168,1,0
120,96,120233,1,0
120,96,120297,1,8
120,96,120360,1,0
120,96,120423,1,0
160,128,120487,1,8
160,128,120551,1,8
168,88,120616,1,0
160,128,120680,1,8
168,88,120742,1,0
168,88,120807,1,8
168,88,120935,1,0
168,88,121063,1,8
200,80,121125,1,0
168,88,121189,1,8
232,80,121318,1,0
232,80,121382,1,0
224,144,121444,1,8
168,88,121573,1,8
224,144,121636,1,8
120,96,121701,1,0
120,96,121827,1,8
120,96,121955,1,0
232,80,122084,1,8
232,80,122148,1,0
232,80,122210,1,0
232,80,122338,1,8
232,80,122402,1,8
200,80,122467,1,0
232,80,122593,1,8
232,80,122657,1,0
200,80,122721,1,0
200,80,122850,1,8
200,80,122976,1,8
224,144,123104,1,8
248,120,123168,1,8
248,120,123232,1,0
248,120,123297,1,8
248,120,123359,1,8
248,120,123424,1,0
248,120,123487,1,8
248,120,123551,1,0
248,120,123616,1,0
232,80,123680,1,8
248,120,123742,1,8
232,80,123806,1,0
232,80,123870,1,8
232,80,123999,1,0
224,144,124126,1,8
224,144,124190,1,8
200,80,124254,1,8
200,80,124318,1,8
248,120,124382,1,8
224,144,124445,1,8
200,80,124509,1,8
224,144,124573,1,8
232,80,124636,1,8
232,80,124700,1,8
232,80,124765,1,8
232,80,124827,1,8
232,80,124891,1,8
248,120,124956,1,8
248,120,125019,1,8
224,144,125084,1,8
248,120,125148,1,8
200,80,125210,1,8
232,80,125274,1,0
232,80,125402,1,8
232,80,125467,1,0
232,80,125531,1,8
232,80,125657,1,8
232,80,125721,1,8
200,80,125785,1,0
200,80,125914,1,8
200,80,125977,1,0
200,80,126041,1,8
200,80,126168,1,8
192,32,126233,1,8
192,32,126297,1,0
200,80,126423,1,8
200,80,126487,1,8
200,80,126551,1,0
200,80,126680,1,8
200,80,126742,1,8
200,80,126807,1,0
248,184,126934,1,8
200,80,126999,1,0
248,184,127063,1,8
248,184,127126,1,0
248,184,127190,1,8
296,160,127318,1,0
248,184,127444,1,8
248,184,127509,1,8
248,184,127572,1,0
248,184,127701,1,8
248,184,127765,1,0
248,184,127827,1,8
216,176,127955,1,8
216,176,128019,1,8
216,176,128084,1,0
216,176,128210,1,8
248,56,128275,1,0
232,128,128338,1,8
232,128,128467,1,8
232,128,128531,1,8
232,128,128593,1,8
232,128,128721,1,8
248,56,128786,1,8
232,128,128850,1,0
232,128,128914,1,0
232,128,128977,1,8
232,128,129040,1,0
232,128,129104,1,8
232,128,129168,1,0
232,128,129233,1,8
232,128,129297,1,0
232,128,129360,1,0
200,104,129487,1,8
200,104,129552,1,8
248,56,129616,1,0
200,104,129742,1,8
200,104,129807,1,0
200,104,129871,1,0
200,104,129999,1,8
200,104,130063,1,8
200,104,130125,1,0
248,56,130254,1,8
200,104,130318,1,0
200,104,130382,1,0
232,80,130508,1,8
232,80,130572,1,8
200,80,130636,1,0
200,80,130765,1,8
248,56,130828,1,8
200,80,130891,1,0
200,80,131019,1,8
192,32,131084,1,8
192,32,131148,1,0
248,56,131211,1,0
200,80,131274,1,8
200,80,131338,1,0
200,80,131402,1,0
200,80,131531,1,8
200,80,131593,1,8
200,80,131657,1,0
248,184,131785,1,8
248,184,131850,1,0
248,184,131914,1,0
248,184,132040,1,8
192,32,132105,1,8
248,184,132169,1,0
248,184,132297,1,8
248,184,132359,1,0
248,184,132423,1,0
192,32,132488,1,0
248,184,132552,1,8
248,184,132616,1,0
248,184,132680,1,0
192,32,132743,1,0
216,176,132806,1,8
320,136,132850,1,0
320,136,132892,1,0
320,136,132935,1,0
320,136,132977,1,0
320,136,133020,1,0
320,136,133063,1,0
320,136,133105,1,0
320,136,133148,1,0
320,136,133190,1,0
320,136,133233,1,0
320,136,133275,1,0
224,104,133318,1,8
280,176,133573,1,8
224,104,133828,1,8
248,184,134084,1,8
224,104,134339,1,8
224,104,134594,1,8
224,104,134850,1,8
224,104,135105,1,8
224,104,135233,1,8
224,104,135297,1,8
224,104,135360,1,8
224,104,135616,1,8
224,104,135871,1,8
224,104,136126,1,8
224,104,136382,1,8
208,72,136637,1,8
208,72,136892,1,8
224,104,137148,1,8
224,104,137275,1,8
224,104,137403,1,8
256,152,137658,1,8
256,152,137914,1,8
256,152,138169,1,8
256,152,138424,1,8
248,200,138680,1,8
248,200,138935,1,8
208,192,139190,1,8
184,168,139318,1,8
184,168,139445,1,8
184,168,139701,1,8
184,168,139956,1,8
184,168,140211,1,8
184,168,140467,1,0
184,128,140531,1,0
184,168,140594,1,8
184,128,140658,1,0
184,128,140722,1,8
184,128,140786,1,0
184,128,140850,1,8
184,128,140914,1,8
256,192,140977,12,0,141424
256,192,141488,5,4
