osu file format v9

[General]
AudioFilename: goreshit - Satori De Pon!.mp3
AudioLeadIn: 0
PreviewTime: 27059
Countdown: 0
SampleSet: Soft
StackLeniency: 0.7
Mode: 0
LetterboxInBreaks: 0

[Editor]
Bookmarks: 59667,84242,92412,116986,125154
DistanceSpacing: 0.8
BeatDivisor: 4
GridSize: 4

[Metadata]
Title:Satori De Pon!
Artist:goreshit
Creator:[CSGA]Ar3sgice
Version:Standard
Source:
Tags:marisa lolicore hardcore Backfire Hyperhappyhardcore Dance Corps 2 Gasaiyuno-chan DCRPS018 breakcore OnosakiHito eldnl

[Difficulty]
HPDrainRate:2
CircleSize:3
OverallDifficulty:2
ApproachRate:3
SliderMultiplier:0.8
SliderTickRate:1

[Events]
//Background and Video events
0,0,"BG.png"
//Break Periods
2,76326,82856
2,92666,99197
//Storyboard Layer 0 (Background)
//Storyboard Layer 1 (Fail)
//Storyboard Layer 2 (Pass)
//Storyboard Layer 3 (Foreground)
//Storyboard Sound Samples
//Background Colour Transformations
3,100,163,162,255

[TimingPoints]
190,332.963374028857,4,1,1,71,1,0
6849,330.396475770925,4,1,1,71,1,0
8170,638.297872340426,4,1,1,71,1,0
9446,333.333333333333,4,1,1,71,1,0
9946,352.941176470588,4,1,1,71,1,0
10122,333.333333333333,4,1,1,71,1,0
10288,324.324324324324,4,1,1,71,1,0
10450,315.789473684211,4,1,1,71,1,0
10765,255.31914893617,4,2,1,75,1,0
27105,-100,4,2,1,75,0,1
42935,-100,4,2,1,75,0,0
59786,-100,4,2,1,75,0,1
76126,-100,4,2,1,75,0,0
108807,-100,4,2,1,75,0,1
125147,-100,4,2,1,75,0,0

[Colours]
Combo1 : 255,150,0
Combo2 : 219,26,31
Combo3 : 5,5,240
Combo4 : 158,67,177
Combo5 : 233,12,227

[HitObjects]
440,80,10765,6,0,B|376:80|376:80|352:56|304:56|288:80,2,160,4|8|0
496,192,12296,1,8
448,312,12807,1,0
344,240,13318,6,0,B|320:272|320:320,2,80,8|0|0
216,248,14339,1,8
136,144,14850,6,0,B|96:176|80:224|80:272|88:304,2,160,0|8|0
216,248,16382,2,0,B|256:216|272:168|272:120|264:88,1,160,8|0
368,32,17403,5,8
368,32,17913,2,0,B|416:40|456:64|472:112|464:168,1,160,0|8
480,272,18935,6,0,B|424:304|384:304,1,80,4|0
344,296,19445,2,0,B|312:320|264:328,1,80,8|0
208,312,19956,2,0,B|152:320|112:304|88:264|80:216,1,160,0|8
72,112,20977,6,0,B|128:112|160:136,2,80,0|0|8
176,40,21999,2,0,B|216:48|248:88|256:144|224:192,1,160,0|8
344,240,23020,6,0,B|384:248|408:280|408:280|432:248|480:240,1,160,0|8
416,128,24041,1,0
320,40,24552,6,0,B|288:80|288:128|288:128|224:152,1,160,8|0
112,192,25573,2,0,B|48:224|48:224|88:256|88:296|72:328,1,160,8|0
208,312,26594,2,0,B|248:328|288:328,1,80,8|0
344,296,27105,6,0,B|384:272|424:272|424:272|416:232|424:192,1,160,4|8
368,80,28126,2,0,B|288:88,2,80,0|0|8
288,184,29147,6,0,B|232:176|200:144|192:104|200:64,2,160,0|8|0
408,224,30679,1,8
408,224,31190,6,0,B|408:312,2,80,4|0|8
296,288,32211,2,0,B|296:368,2,80,0|0|8
168,280,33233,6,0,B|120:288|72:272|40:232|32:200,2,160,0|8|0
152,152,34764,1,8
232,48,35275,6,0,B|272:72|288:112|288:112|312:80|368:80,1,160,4|8
456,152,36296,2,0,B|424:192|392:200|392:200|416:232|416:280,1,160,0|8
400,336,37062,1,0
344,312,37318,6,0,B|304:296|264:288|208:296|184:312,1,160,0|8
88,232,38339,2,0,B|128:192|176:192,2,80,0|0|8
104,104,39360,6,0,B|168:68|232:84|264:144|264:180|256:228,2,240,0|0|8
136,224,41403,2,0,B|144:312|232:344,1,160,0|8
352,304,42424,2,0,B|432:280|432:280|472:212,1,160
448,88,43445,6,0,B|360:96|280:56,2,160,4|8|0
392,200,44977,2,0,B|288:192|224:160,2,160,8|0|8
304,296,46509,2,0,B|216:296,1,80,0|0
160,296,47020,1,8
72,200,47530,6,0,B|48:112|88:40,1,160,0|8
216,52,48552,2,0,B|248:132|208:212,1,160,0|8
256,320,49573,6,0,B|296:312|320:272|320:272|344:312|384:320,1,160,0|8
432,200,50594,1,0
360,96,51105,1,8
232,80,51616,6,0,B|160:124|72:88,2,160,4|8|0
200,208,53147,2,0,B|128:248|36:224,2,160,8|0|8
320,248,54679,2,0,B|296:304|256:320,2,80,0|0|8
432,320,55701,6,0,B|472:248|432:160,1,160,0|8
405,108,56467,1,0
344,96,56722,2,0,B|304:72|256:72,2,80,0|0|8
272,204,57743,5,0
160,144,58254,1,8
48,80,58764,2,0,B|16:160|64:232,1,160,0|8
184,288,59786,6,0,B|240:304|256:328|256:328|272:304|328:296,1,160,4|8
400,192,60807,2,0,B|448:232|456:264|456:304,2,120,0|0|0
352,152,61828,5,0
232,96,62339,1,8
112,56,62850,2,0,B|96:104|108:144|128:184|160:200,2,160,0|8|4
232,96,64382,5,8
360,88,64892,1,0
472,152,65403,1,8
360,216,65913,5,0
440,320,66424,2,0,B|400:352|320:352|272:312,2,160,8|0|0
472,192,67956,6,0,B|464:152|440:112|400:96|352:96,1,160,4|8
248,40,68977,2,0,B|232:80|240:128,2,80,0|0|8
136,96,69999,6,0,B|120:168|160:208|200:224|232:224,2,160,4|8|0
28,164,71530,1,8
44,292,72041,5,4
148,220,72552,1,8
152,348,73062,1,0
236,252,73573,1,8
320,348,74084,5,0
316,220,74594,1,8
436,260,75105,2,0,B|436:132|436:132|404:132|372:100|404:68|436:68,1,240,4|0
500,68,76126,1,4
168,56,84296,6,0,B|136:144|64:176,1,160,4|8
192,208,85318,2,0,B|168:288|96:336,1,160,0|8
224,336,86339,6,0,B|312:312|392:336,1,160,0|8
472,240,87360,2,0,B|400:208|376:112,1,160,0|8
256,72,88382,5,0
256,72,88892,1,8
128,88,89403,1,0
128,88,89913,1,8
24,160,90424,6,0,B|48:200|88:224|144:224|192:200,2,160,0|8|0
128,88,91956,2,0,B|216:80,2,80,0|0|4
432,208,100637,6,0,B|352:200|272:240,1,160,4|8
184,320,101658,2,0,B|152:280|160:240|160:240|112:236|80:212,1,160,0|8
72,88,102679,6,0,B|112:88|152:112,2,80,0|0|8
192,32,103701,2,0,B|240:56|248:104|240:144|216:176,1,160,0|8
336,128,104722,6,0,B|416:144,2,80,0|0|8
384,248,105743,2,0,B|464:280,2,80,0|0|8
264,296,106764,6,0,B|192:336,1,80,0|0
136,360,107275,1,8
88,240,107786,2,0,B|80:192|48:168|48:168|80:152|88:104,1,160,0|8
208,56,108807,5,4
320,112,109318,1,8
432,48,109828,1,0
416,176,110339,2,0,B|416:256,1,80,8|0
416,320,110850,5,0
288,320,111360,1,8
216,216,111871,2,0,B|184:240|160:288|164:320,2,120,0|0|0
272,192,112892,5,0
400,192,113403,1,8
328,88,113913,2,0,B|280:72|240:80|208:96,2,120,0|0|0
368,128,114935,5,0
400,248,115445,1,8
280,280,115956,1,0
168,208,116467,2,0,B|136:248|152:304,2,80,8|0|4
80,112,117488,5,8
208,88,117999,1,0
336,64,118509,1,8
464,88,119020,2,0,B|456:144|424:168|400:192|352:192,1,160,0|8
296,304,120041,2,0,B|368:344,2,80,0|0|8
176,272,121062,6,0,B|88:256,2,80,4|0|8
224,232,121828,1,0
192,176,122084,2,0,B|112:160,2,80,4|0|8
240,136,122850,1,0
288,96,123105,6,0,B|328:96|368:88|400:56|400:56|432:80,1,160,4|8
472,128,123871,1,0
472,192,124126,2,0,B|472:272|472:272|448:304|416:336,1,160,4|8
296,304,125147,6,0,B|224:272|224:272|144:304,1,160,4|8
56,216,126169,1,0
56,88,126679,1,8
176,40,127190,6,0,B|176:120,2,80,0|0|8
296,88,128211,1,0
296,88,128722,1,8
416,40,129233,6,0,B|416:128,1,80,0|0
416,184,129743,2,0,B|416:264,1,80,8|0
416,328,130254,1,0
288,336,130764,1,8
160,328,131275,5,0
232,224,131786,1,8
288,336,132296,1,0
288,336,133318,5,4
360,232,133828,2,0,B|408:168,1,80,8|0
448,112,134339,1,0
328,80,134850,6,0,B|248:56,1,80,8|0
192,40,135360,1,0
96,120,135871,2,0,B|96:200,2,80,8|0|0
208,184,136892,1,8
288,288,137403,5,0
288,288,137913,1,8
400,224,138424,5,0
400,224,138935,1,8
328,120,139445,5,0
328,120,139956,1,8
208,88,140467,5,0
144,88,140722,1,0
96,128,140977,1,8
68,252,141488,1,12
