osu file format v10

[General]
AudioFilename: goreshit - Satori De Pon!.mp3
AudioLeadIn: 0
PreviewTime: 117108
Countdown: 0
SampleSet: None
StackLeniency: 0.9
Mode: 0
LetterboxInBreaks: 0

[Editor]
Bookmarks: 59667,84242,92412,116986,125154
DistanceSpacing: 0.6
BeatDivisor: 4
GridSize: 4

[Metadata]
Title:Satori De Pon!
TitleUnicode:Satori De Pon!
Artist:goreshit
ArtistUnicode:goreshit
Creator:[CSGA]Ar3sgice
Version:no u
Source:
Tags:marisa lolicore hardcore Backfire Hyperhappyhardcore Dance Corps 2 Gasaiyuno-chan DCRPS018 breakcore OnosakiHito eldnl
BeatmapID:201523
BeatmapSetID:46502

[Difficulty]
HPDrainRate:8
CircleSize:4
OverallDifficulty:5
ApproachRate:7
SliderMultiplier:2
SliderTickRate:1

[Events]
//Background and Video events
0,0,"BG.png"
//Break Periods
//Storyboard Layer 0 (Background)
//Storyboard Layer 1 (Fail)
//Storyboard Layer 2 (Pass)
//Storyboard Layer 3 (Foreground)
//Storyboard Sound Samples
//Background Colour Transformations
3,100,163,162,255

[TimingPoints]
190,332.963374028857,4,1,1,71,1,0
6849,330.396475770925,4,1,1,71,1,0
8170,638.297872340426,4,1,1,71,1,0
9446,333.333333333333,4,1,1,71,1,0
9946,352.941176470588,4,1,1,71,1,0
10122,333.333333333333,4,1,1,71,1,0
10288,324.324324324324,4,1,1,71,1,0
10450,315.789473684211,4,1,1,71,1,0
10765,255.31914893617,4,1,1,71,1,0
14339,-100,4,2,1,71,0,0
14977,-100,4,1,1,71,0,0
17403,-100,4,2,1,71,0,0
17913,-100,4,1,0,76,0,0
18041,-100,4,1,1,76,0,0
18424,-100,4,2,1,76,0,0
18935,-100,4,1,1,82,0,0
22509,-100,4,2,1,82,0,0
23020,-100,4,1,1,82,0,0
26594,-100,4,2,1,82,0,0
27105,-100,4,1,1,82,0,1
30169,-100,4,2,1,82,0,1
30679,-100,4,1,0,48,0,1
30935,-100,4,1,1,82,0,1
34892,-100,4,1,0,48,0,1
35275,-100,4,1,1,82,0,1
38722,-100,4,1,0,48,0,1
39233,-100,4,1,1,82,0,1
42424,-100,4,1,0,48,0,1
42935,-100,4,1,1,82,0,0
45999,-100,4,2,1,82,0,0
46254,-100,4,1,1,82,0,0
47020,-100,4,2,1,82,0,0
47913,-100,4,1,1,82,0,0
48807,-100,4,2,1,82,0,0
48935,-100,4,1,1,82,0,0
50084,-100,4,2,1,82,0,0
50339,-100,4,1,1,82,0,0
50594,-100,4,1,0,60,0,0
50850,-100,4,1,1,82,0,0
51105,-100,4,2,1,82,0,0
51616,-100,4,1,1,82,0,0
55190,-100,4,2,1,82,0,0
56211,-100,4,1,1,82,0,0
57233,-100,4,2,1,82,0,0
57488,-100,4,1,1,82,0,0
58254,-100,4,2,1,82,0,0
58509,-100,4,1,1,82,0,0
58764,-100,4,1,0,60,0,0
59147,-100,4,2,1,82,0,0
59275,-100,4,1,1,91,0,0
59786,-100,4,1,1,82,0,1
62850,-100,4,1,0,60,0,1
63616,-100,4,1,1,82,0,1
67445,-100,4,1,0,48,0,1
67956,-100,4,1,1,82,0,1
71403,-100,4,1,0,48,0,1
72041,-100,4,1,1,82,0,1
75105,-100,4,1,0,42,0,1
76126,-100,4,1,1,82,0,0
103701,-100,4,1,0,60,0,0
104467,-100,4,1,1,82,0,0
107850,-100,4,1,0,60,0,0
108807,-100,4,1,1,82,0,1
112254,-100,4,1,0,48,0,1
112892,-100,4,1,1,82,0,1
116339,-100,4,1,0,48,0,1
116594,-100,4,1,0,42,0,1
116977,-100,4,1,1,82,0,1
117999,-100,4,1,1,86,0,1
120424,-100,4,1,0,48,0,1
121062,-100,4,1,1,60,0,1
121190,-100,4,1,1,86,0,1
124126,-100,4,1,0,42,0,1
124764,-100,4,1,0,48,0,1
125147,-100,4,1,1,82,0,0
132807,-100,4,1,0,42,0,0
133318,-100,4,2,0,55,0,0
140403,-100,4,2,0,5,0,0
140467,-100,4,2,0,55,0,0

[Colours]
Combo1 : 213,43,69
Combo2 : 228,29,143
Combo3 : 171,31,87
Combo4 : 42,46,110
Combo5 : 9,222,193
Combo6 : 175,0,150
Combo7 : 110,127,149
Combo8 : 77,47,151

[HitObjects]
272,304,10765,1,0,0:0:0
300,292,10828,1,0,0:0:0
341,289,10893,1,0,0:0:0
364,307,10956,2,0,B|387:294|391:267,1,50,0|14,0:0|0:0,0:0:0
411,244,11084,2,0,B|427:218|427:218|436:210|445:213,1,50,0|0,0:0|0:0,0:0:0
440,183,11212,1,10,0:0:0
434,153,11276,1,2,0:0:0
421,125,11339,1,0,0:0:0
399,103,11403,1,0,0:0:0
369,105,11467,2,0,B|364:78|340:66,1,50,0|4,0:0|0:0,0:0:0
310,66,11595,5,0,0:0:0
282,78,11659,5,8,0:0:0
259,58,11722,2,0,B|262:28|262:28|260:16|252:12,3,50,0|0|0|0,0:0|0:0|0:0|0:0,0:0:0
224,0,11978,2,0,B|200:12|195:38,1,50,0|10,0:0|0:0,0:0:0
221,51,12105,1,8,0:0:0
250,48,12169,2,0,B|263:25|290:22,1,50,6|0,0:0|0:0,0:0:0
319,17,12297,2,0,B|362:42,1,50,0|12,0:0|0:0,0:0:0
337,59,12425,2,0,B|307:54|307:54|296:49|294:40,3,50,0|0|2|0,0:0|0:0|0:0|0:0,0:0:0
264,33,12680,1,0,0:0:0
235,25,12744,5,0,0:0:0
213,3,12808,2,0,B|187:-7|165:8,1,50,0|0,0:0|0:0,0:0:0
183,31,12935,1,0,0:0:0
204,10,12999,1,2,0:0:0
230,23,13063,2,0,B|229:53|229:53|225:64|216:66,1,50,0|0,0:0|0:0,0:0:0
242,79,13191,1,0,0:0:0
258,104,13254,2,0,B|251:153,1,50,8|2,0:0|0:0,0:0:0
274,171,13382,2,0,B|282:181|280:194|280:194|277:207|286:217,1,50,0|0,0:0|0:0,0:0:0
294,245,13510,1,0,0:0:0
316,264,13574,1,0,0:0:0
345,265,13637,2,0,B|360:269|370:287|370:287|366:302,1,50,0|0,0:0|0:0,0:0:0
394,312,13765,2,0,B|394:310|394:310|396:311|396:311|395:309|395:309|397:310|397:310|397:308|397:308|399:309|399:309|398:306|398:306|400:307|400:307|400:305|400:305|402:306|402:306|402:304|402:304|404:305|404:305|403:303|403:303|405:304|405:304|405:301|405:301|407:302|407:302|406:300|406:300|408:301|408:301|408:299|408:299|410:300|410:300|409:298|409:298|411:299|411:299|412:297,1,50,0|0,0:0|0:0,0:0:0
408,267,13893,5,0,0:0:0
431,248,13956,1,8,0:0:0
455,230,14020,2,0,B|456:256|479:271,3,50,0|0|0|0,0:0|0:0|0:0|0:0,0:0:0
508,276,14276,2,0,B|459:265,1,50,2|8,0:0|0:0,0:0:0
454,294,14403,1,4,0:0:0
459,323,14467,2,0,B|441:369,1,50,0|2,0:0|0:0,0:0:0
421,346,14594,1,0,0:0:0
403,321,14658,5,0,0:0:0
385,296,14722,1,0,0:0:0
390,266,14786,1,0,0:0:0
402,238,14850,2,0,B|428:241|447:222,1,50,8|0,0:0|0:0,0:0:0
468,200,14977,1,0,0:0:0
467,170,15041,2,0,B|418:181,1,50,0|0,0:0|0:0,0:0:0
394,200,15168,2,0,B|381:203|370:195|370:195|359:187|346:191,1,50,0|0,0:0|0:0,0:0:0
332,164,15296,1,2,0:0:0
332,134,15360,2,0,B|339:122|335:110|335:110|331:97|338:86,1,50,0|12,0:0|0:0,0:0:0
344,56,15488,6,0,B|335:30|310:21,1,50,0|8,0:0|0:0,0:0:0
280,20,15615,5,8,0:0:0
250,22,15679,2,0,B|224:46|224:46|209:44,1,50,8|2,0:0|0:0,0:0:0
234,28,15807,1,8,0:0:0
261,39,15871,2,0,B|300:69,1,50,12|0,0:0|0:0,0:0:0
299,98,15998,1,2,0:0:0
325,112,16062,1,8,0:0:0
333,83,16126,1,8,0:0:0
361,74,16190,1,2,0:0:0
387,59,16254,5,8,0:0:0
416,54,16317,2,0,B|443:12,1,50,8|8,0:0|0:0,0:0:0
464,33,16445,6,0,B|505:60,3,50,0|0|0|0,0:0|0:0|0:0|0:0,0:0:0
486,83,16700,1,0,0:0:0
459,97,16764,1,0,0:0:0
434,113,16828,1,2,0:0:0
421,140,16892,1,0,0:0:0
443,159,16956,1,0,0:0:0
467,176,17020,5,0,0:0:0
476,204,17083,5,0,0:0:0
462,230,17147,1,8,0:0:0
449,257,17211,2,0,B|476:298,1,50,8|8,0:0|0:0,0:0:0
492,322,17339,1,0,0:0:0
511,344,17403,2,0,B|500:356|480:357|480:357|468:348,1,50,0|0,0:0|0:0,0:0:0
445,327,17531,1,0,0:0:0
419,311,17594,1,0,0:0:0
409,282,17658,1,0,0:0:0
407,252,17722,2,0,B|413:226|397:204,1,50,0|0,0:0|0:0,0:0:0
373,222,17850,2,0,B|397:211|404:186,3,50,4|8|2|0,0:0|0:0|0:0|0:0,0:0:0
419,160,18105,5,4,0:0:0
440,139,18169,1,8,0:0:0
457,114,18232,1,0,0:0:0
481,131,18296,5,2,0:0:0
506,146,18360,1,0,0:0:0
507,116,18424,6,0,B|494:92|505:68,1,50,0|8,0:0|0:0,0:0:0
478,54,18552,1,2,0:0:0
449,62,18615,1,0,0:0:0
426,42,18679,1,12,0:0:0
454,32,18743,1,0,0:0:0
461,2,18807,1,0,0:0:0
490,8,18871,1,0,0:0:0
511,29,18935,2,0,B|501:77,1,50,8|0,0:0|0:0,0:0:0
499,107,19063,1,4,0:0:0
470,116,19126,1,2,0:0:0
440,115,19190,2,0,B|416:127|412:154,1,50,0|0,0:0|0:0,0:0:0
422,182,19318,2,0,B|429:193|429:193|437:205|450:210|460:209,1,50,0|0,0:0|0:0,0:0:0
476,234,19446,1,0,0:0:0
472,263,19509,1,4,0:0:0
450,284,19573,1,8,0:0:0
431,307,19637,1,0,0:0:0
420,335,19701,1,0,0:0:0
449,342,19765,1,0,0:0:0
478,339,19829,1,4,0:0:0
501,357,19892,2,0,B|500:358|500:358|502:358|502:358|500:360|500:360|502:360|502:360|501:362|501:362|503:362|503:362|501:364|501:364|503:364|503:364|501:366|501:366|504:366|504:366|502:367|502:367|504:368|504:368|502:369|502:369|504:370|504:370|503:371|503:371|505:372|505:372|503:373|503:373|505:374|505:374|503:375|503:375|506:376|506:376|504:377|504:377|506:378|506:378|505:379,1,50,0|0,0:0|0:0,0:0:0
475,373,20020,5,4,0:0:0
446,362,20084,1,0,0:0:0
431,335,20148,2,0,B|433:305|433:305|431:293|422:289,1,50,8|8,0:0|0:0,0:0:0
394,301,20275,1,0,0:0:0
381,328,20339,6,0,B|372:362|372:362|381:373,3,50,8|8|2|8,0:0|0:0|0:0|0:0,0:0:0
369,345,20595,1,4,0:0:0
339,341,20658,1,0,0:0:0
321,316,20722,2,0,B|355:279,1,50,0|2,0:0|0:0,0:0:0
363,250,20850,2,0,B|345:229|351:203,1,50,4|0,0:0|0:0,0:0:0
324,189,20978,2,0,B|297:202|297:202|288:210|289:219,1,50,2|8,0:0|0:0,0:0:0
295,248,21105,6,0,B|278:269|286:295,1,50,4|8,0:0|0:0,0:0:0
303,319,21233,2,0,B|324:339|324:339|335:345|343:341,3,50,8|0|8|8,0:0|0:0|0:0|0:0,0:0:0
364,319,21488,5,0,0:0:0
346,294,21552,1,0,0:0:0
325,271,21616,1,8,0:0:0
295,274,21680,1,0,0:0:0
274,252,21744,1,0,0:0:0
245,242,21807,1,0,0:0:0
215,248,21871,2,0,B|201:221|201:221|199:209|206:202,1,50,0|0,0:0|0:0,0:0:0
221,176,21999,1,8,0:0:0
223,146,22063,1,2,0:0:0
194,136,22126,6,0,B|180:135|180:135|166:134|154:125|151:116,3,50,4|8|4|8,0:0|0:0|0:0|0:0,0:0:0
138,88,22382,1,0,0:0:0
148,59,22446,1,8,0:0:0
135,31,22509,1,0,0:0:0
105,26,22573,1,0,0:0:0
75,23,22637,1,8,0:0:0
65,51,22700,1,0,0:0:0
79,77,22764,5,0,0:0:0
105,63,22828,2,0,B|95:49|98:29|98:29|111:20,1,50,8|0,0:0|0:0,0:0:0
139,11,22956,2,0,B|155:31|182:30,1,50,0|0,0:0|0:0,0:0:0
212,33,23084,6,0,B|259:18,1,50,0|0,0:0|0:0,0:0:0
285,32,23211,1,2,0:0:0
314,35,23275,1,0,0:0:0
338,52,23339,1,0,0:0:0
363,35,23403,1,8,0:0:0
391,44,23467,5,0,0:0:0
376,70,23531,1,2,0:0:0
346,73,23594,2,0,B|331:79|312:72|312:72|305:58,1,50,8|8,0:0|0:0,0:0:0
278,44,23722,1,4,0:0:0
250,31,23786,2,0,B|236:29|236:29|222:27|211:17|208:8,1,50,2|0,0:0|0:0,0:0:0
178,9,23914,1,4,0:0:0
187,37,23977,1,2,0:0:0
174,64,24041,1,0,0:0:0
201,75,24105,5,0,0:0:0
226,59,24169,1,0,0:0:0
203,38,24233,1,8,0:0:0
179,56,24297,1,0,0:0:0
159,79,24360,1,0,0:0:0
166,108,24424,1,2,0:0:0
162,137,24488,2,0,B|169:186,1,50,8|8,0:0|0:0,0:0:0
184,160,24616,2,0,B|215:121,1,50,0|0,0:0|0:0,0:0:0
215,91,24743,2,0,B|214:64|192:48,1,50,10|0,0:0|0:0,0:0:0
167,31,24871,1,0,0:0:0
144,11,24935,2,0,B|131:17|131:17|118:23|104:21|97:15,1,50,0|0,0:0|0:0,0:0:0
78,38,25063,1,0,0:0:0
86,66,25126,1,4,0:0:0
105,88,25190,2,0,B|111:137,1,50,0|2,0:0|0:0,0:0:0
109,166,25318,1,0,0:0:0
107,195,25382,1,0,0:0:0
95,222,25446,1,4,0:0:0
119,238,25509,1,8,0:0:0
140,259,25573,1,0,0:0:0
153,285,25637,1,0,0:0:0
139,311,25701,1,0,0:0:0
114,328,25765,1,0,0:0:0
91,347,25829,1,0,0:0:0
61,341,25892,1,0,0:0:0
32,348,25956,1,2,0:0:0
9,327,26020,1,0,0:0:0
30,347,26084,2,0,B|78:336,1,50,0|0,0:0|0:0,0:0:0
79,365,26211,1,0,0:0:0
104,380,26275,1,8,0:0:0
133,377,26339,1,0,0:0:0
162,377,26403,1,0,0:0:0
185,357,26467,1,8,0:0:0
197,329,26531,1,0,0:0:0
182,302,26594,1,0,0:0:0
153,293,26658,1,0,0:0:0
136,267,26722,2,0,B|119:245|126:219,1,50,0|0,0:0|0:0,0:0:0
150,202,26849,5,0,0:0:0
177,214,26913,5,0,0:0:0
206,220,26977,2,0,B|198:194|214:172,1,50,0|10,0:0|0:0,0:0:0
185,162,27105,1,8,0:0:0
175,133,27169,2,0,B|162:109|135:105,1,50,0|0,0:0|0:0,0:0:0
120,78,27296,2,0,B|91:37,1,50,0|0,0:0|0:0,0:0:0
72,13,27424,2,0,B|37:49,1,50,4|0,0:0|0:0,0:0:0
7,45,27552,5,0,0:0:0
36,37,27616,2,0,B|49:34|49:34|63:31|73:21|75:11,1,50,8|8,0:0|0:0,0:0:0
104,11,27743,1,0,0:0:0
130,24,27807,6,0,B|121:49|136:71,1,50,0|2,0:0|0:0,0:0:0
135,100,27935,1,0,0:0:0
150,125,27999,1,0,0:0:0
136,152,28062,2,0,B|111:153|111:153|126:173,3,50,2|0|0|8,0:0|0:0|0:0|0:0,0:0:0
104,194,28318,1,8,0:0:0
75,204,28382,1,8,0:0:0
46,195,28445,2,0,B|41:179|23:169|23:169|8:173,1,50,0|0,0:0|0:0,0:0:0
5,143,28573,1,0,0:0:0
34,144,28637,1,0,0:0:0
63,142,28701,2,0,B|66:166|66:166|85:150,3,50,8|0|8|8,0:0|0:0|0:0|0:0,0:0:0
107,170,28956,1,0,0:0:0
134,181,29020,1,0,0:0:0
161,192,29084,1,8,0:0:0
187,205,29148,1,0,0:0:0
164,225,29211,1,0,0:0:0
161,254,29275,1,12,0:0:0
174,280,29339,1,0,0:0:0
146,292,29403,5,8,0:0:0
116,285,29467,2,0,B|104:309|77:314,1,50,0|0,0:0|0:0,0:0:0
49,325,29594,1,8,0:0:0
32,349,29658,1,0,0:0:0
2,351,29722,1,0,0:0:0
11,322,29786,5,0,0:0:0
35,304,29850,1,0,0:0:0
64,298,29914,1,8,0:0:0
48,272,29977,1,0,0:0:0
42,242,30041,1,0,0:0:0
17,224,30105,2,0,B|31:250|31:250|40:258|49:256,1,50,4|0,0:0|0:0,0:0:0
71,276,30233,5,0,0:0:0
87,301,30297,2,0,B|112:291|134:306,1,50,8|0,0:0|0:0,0:0:0
155,285,30424,1,0,0:0:0
146,313,30488,1,0,0:0:0
133,340,30552,1,0,0:0:0
157,356,30616,1,0,0:0:0
185,365,30679,2,0,B|209:354|232:368,3,50,0|0|8|0,0:0|0:0|0:0|0:0,0:0:0
261,371,30934,1,0,0:0:0
285,352,30999,6,0,B|282:338|282:338|279:324|284:311|292:305,3,50,0|0|0|0,0:0|0:0|0:0|0:0,0:0:0
300,276,31254,1,2,0:0:0
301,246,31318,1,0,0:0:0
290,217,31382,5,0,0:0:0
260,209,31446,1,8,0:0:0
262,238,31509,1,0,0:0:0
274,265,31573,2,0,B|287:267|297:258|297:258|307:249|320:251,1,50,0|0,0:0|0:0,0:0:0
322,280,31701,5,0,0:0:0
309,307,31765,1,0,0:0:0
315,277,31829,2,0,B|308:247|308:247|308:235|316:231,1,50,0|0,0:0|0:0,0:0:0
298,206,31956,6,0,B|248:196,1,50,4|0,0:0|0:0,0:0:0
230,171,32084,1,0,0:0:0
209,148,32148,2,0,B|183:132|183:132|171:128|164:134,1,50,0|0,0:0|0:0,0:0:0
137,119,32275,1,0,0:0:0
107,123,32339,1,0,0:0:0
85,143,32403,1,10,0:0:0
55,136,32467,1,0,0:0:0
32,115,32531,1,0,0:0:0
2,118,32595,1,8,0:0:0
27,102,32658,1,0,0:0:0
39,74,32722,2,0,B|68:92|68:92|70:107,1,50,0|2,0:0|0:0,0:0:0
98,117,32850,1,0,0:0:0
79,140,32914,1,10,0:0:0
49,139,32978,1,0,0:0:0
27,118,33041,1,12,0:0:0
14,145,33105,2,0,B|43:148|43:148|55:152|56:161,3,50,0|8|8|0,0:0|0:0|0:0|0:0,0:0:0
84,151,33361,1,0,0:0:0
86,121,33424,6,0,B|82:94|59:81,1,50,0|10,0:0|0:0,0:0:0
39,103,33552,1,12,0:0:0
67,95,33616,6,0,B|114:80,1,50,0|0,0:0|0:0,0:0:0
143,79,33744,1,0,0:0:0
159,53,33807,2,0,B|146:42|143:22|143:22|152:10,1,50,0|0,0:0|0:0,0:0:0
164,37,33935,1,0,0:0:0
188,19,33999,1,0,0:0:0
217,22,34063,1,2,0:0:0
246,26,34126,1,0,0:0:0
275,30,34190,2,0,B|225:26,3,50,12|0|0|0,0:0|0:0|0:0|0:0,0:0:0
228,55,34446,6,0,B|245:75|271:74,3,50,0|8|0|8,0:0|0:0|0:0|0:0,0:0:0
278,44,34701,2,0,B|297:20|297:20|302:10|297:2,1,50,0|14,0:0|0:0,0:0:0
269,13,34829,1,2,0:0:0
239,17,34892,2,0,B|212:30|212:30|200:33|193:26,1,50,4|0,0:0|0:0,0:0:0
176,50,35020,5,6,0:0:0
146,51,35083,2,0,B|101:28,1,50,8|8,0:0|0:0,0:0:0
72,37,35211,1,0,0:0:0
43,28,35275,1,0,0:0:0
12,28,35339,1,0,0:0:0
26,54,35403,2,0,B|52:54|68:76,1,50,0|0,0:0|0:0,0:0:0
97,69,35530,2,0,B|146:68,3,50,0|0|0|0,0:0|0:0|0:0|0:0,0:0:0
166,46,35786,2,0,B|139:49|120:30,1,50,8|0,0:0|0:0,0:0:0
95,12,35913,1,8,0:0:0
65,6,35977,1,8,0:0:0
40,23,36041,2,0,B|24:29|16:47|16:47|21:61,1,50,0|0,0:0|0:0,0:0:0
37,86,36169,1,8,0:0:0
54,110,36232,1,0,0:0:0
44,138,36296,1,0,0:0:0
57,164,36360,6,0,B|46:172|47:185|47:185|47:199|37:207,1,50,0|0,0:0|0:0,0:0:0
41,177,36488,1,0,0:0:0
42,147,36552,1,0,0:0:0
30,119,36615,1,8,0:0:0
3,104,36679,5,0,0:0:0
24,83,36743,1,0,0:0:0
53,80,36807,2,0,B|50:50|50:50|52:38|61:34,1,50,0|2,0:0|0:0,0:0:0
37,52,36935,6,0,B|14:66|13:93,3,50,0|8|8|0,0:0|0:0|0:0|0:0,0:0:0
41,103,37190,1,0,0:0:0
57,78,37254,1,12,0:0:0
73,52,37318,1,0,0:0:0
60,24,37381,2,0,B|34:32|12:17,1,50,0|0,0:0|0:0,0:0:0
12,46,37509,1,0,0:0:0
34,65,37573,5,0,0:0:0
35,94,37637,1,8,0:0:0
45,121,37701,2,0,B|65:166,1,50,8|0,0:0|0:0,0:0:0
73,194,37828,1,0,0:0:0
57,219,37892,1,0,0:0:0
86,217,37956,1,4,0:0:0
114,225,38020,1,0,0:0:0
137,206,38084,2,0,B|186:213,1,50,0|0,0:0|0:0,0:0:0
212,198,38211,1,0,0:0:0
237,181,38275,1,0,0:0:0
238,210,38339,2,0,B|225:214|220:226|220:226|216:239|203:243,3,50,0|0|0|0,0:0|0:0|0:0|0:0,0:0:0
185,267,38594,1,0,0:0:0
163,287,38658,2,0,B|175:296|179:316|179:316|170:329,1,50,0|12,0:0|0:0,0:0:0
149,351,38786,1,8,0:0:0
144,380,38850,1,2,0:0:0
152,351,38913,1,2,0:0:0
179,339,38977,2,0,B|154:328|147:302,3,50,0|0|6|0,0:0|0:0|0:0|0:0,0:0:0
144,272,39233,1,2,0:0:0
151,242,39297,1,8,0:0:0
175,259,39361,5,0,0:0:0
200,242,39424,1,0,0:0:0
226,255,39488,1,0,0:0:0
231,225,39552,1,8,0:0:0
216,198,39616,1,0,0:0:0
244,189,39680,1,0,0:0:0
259,163,39744,1,6,0:0:0
275,138,39807,1,0,0:0:0
299,154,39871,1,0,0:0:0
328,159,39935,5,0,0:0:0
354,144,39999,1,10,0:0:0
350,114,40063,1,0,0:0:0
357,84,40127,2,0,B|377:38,1,50,10|8,0:0|0:0,0:0:0
371,8,40254,2,0,B|370:34|391:51,1,50,0|0,0:0|0:0,0:0:0
408,75,40382,1,0,0:0:0
378,80,40446,1,0,0:0:0
349,70,40510,1,0,0:0:0
328,91,40573,1,0,0:0:0
313,64,40637,1,8,0:0:0
308,34,40701,1,0,0:0:0
282,18,40765,1,0,0:0:0
252,12,40829,2,0,B|253:38|275:53,1,50,0|0,0:0|0:0,0:0:0
266,81,40956,1,2,0:0:0
275,109,41020,2,0,B|279:138|279:138|278:150|270:154,3,50,0|0|0|0,0:0|0:0|0:0|0:0,0:0:0
299,146,41276,1,10,0:0:0
299,175,41339,5,10,0:0:0
299,204,41403,1,0,0:0:0
290,232,41467,2,0,B|275:224|256:229|256:229|248:242,1,50,0|0,0:0|0:0,0:0:0
233,268,41595,2,0,B|255:283|256:309,1,50,0|8,0:0|0:0,0:0:0
282,295,41722,1,6,0:0:0
287,265,41786,2,0,B|255:280|255:280|241:274,1,50,0|0,0:0|0:0,0:0:0
212,263,41914,5,0,0:0:0
188,244,41978,1,8,0:0:0
158,249,42042,2,0,B|145:254|145:254|132:260|124:272|125:282,1,50,0|0,0:0|0:0,0:0:0
131,311,42169,2,0,B|168:344,1,50,0|0,0:0|0:0,0:0:0
197,341,42297,1,12,0:0:0
223,355,42361,2,0,B|173:362,1,50,8|4,0:0|0:0,0:0:0
143,363,42488,1,8,0:0:0
121,341,42552,1,8,0:0:0
107,314,42615,2,0,B|133:319|153:301,1,50,0|0,0:0|0:0,0:0:0
174,322,42743,1,0,0:0:0
176,351,42807,1,8,0:0:0
174,380,42871,2,0,B|223:380,1,50,8|0,0:0|0:0,0:0:0
253,378,42999,5,8,0:0:0
268,352,43063,1,0,0:0:0
297,344,43126,2,0,B|333:309,1,50,0|4,0:0|0:0,0:0:0
362,310,43254,2,0,B|358:283|335:269,1,50,0|8,0:0|0:0,0:0:0
309,253,43382,2,0,B|301:203,1,50,0|0,0:0|0:0,0:0:0
286,176,43509,1,8,0:0:0
260,192,43573,1,0,0:0:0
250,220,43637,1,0,0:0:0
243,249,43701,1,0,0:0:0
216,262,43765,1,0,0:0:0
232,286,43829,2,0,B|273:313,1,50,0|0,0:0|0:0,0:0:0
276,342,43956,1,0,0:0:0
303,330,44020,2,0,B|319:351|346:350,1,50,0|10,0:0|0:0,0:0:0
373,338,44148,1,0,0:0:0
391,314,44212,2,0,B|407:266,1,50,0|2,0:0|0:0,0:0:0
418,238,44339,1,0,0:0:0
441,219,44403,5,0,0:0:0
452,191,44467,1,0,0:0:0
444,161,44531,1,0,0:0:0
417,175,44595,1,0,0:0:0
387,176,44658,1,0,0:0:0
365,197,44722,1,0,0:0:0
355,168,44786,1,4,0:0:0
364,196,44850,1,8,0:0:0
343,217,44914,2,0,B|293:223,1,50,0|8,0:0|0:0,0:0:0
264,214,45041,2,0,B|252:206|252:206|240:198|235:185|236:175,1,50,0|0,0:0|0:0,0:0:0
206,181,45169,1,0,0:0:0
177,173,45233,5,0,0:0:0
201,155,45297,2,0,B|211:147|224:151|224:151|237:155|248:147,1,50,2|0,0:0|0:0,0:0:0
277,152,45424,1,0,0:0:0
306,154,45488,5,0,0:0:0
321,128,45552,5,0,0:0:0
316,98,45616,1,10,0:0:0
286,91,45680,2,0,B|256:94|256:94|245:99|243:108,1,50,8|0,0:0|0:0,0:0:0
224,131,45807,1,8,0:0:0
253,136,45871,1,0,0:0:0
223,142,45935,1,8,0:0:0
223,112,45999,1,4,0:0:0
242,89,46063,5,4,0:0:0
239,59,46127,2,0,B|205:21,1,50,8|2,0:0|0:0,0:0:0
228,3,46254,2,0,B|248:19|274:13,3,50,8|8|8|2,0:0|0:0|0:0|0:0,0:0:0
301,24,46509,2,0,B|321:2|321:2|332:-4|340:0,1,50,0|0,0:0|0:0,0:0:0
368,8,46637,1,8,0:0:0
391,27,46701,1,8,0:0:0
419,37,46765,1,0,0:0:0
441,57,46828,1,0,0:0:0
470,49,46892,2,0,B|475:98,1,50,8|0,0:0|0:0,0:0:0
458,123,47020,1,2,0:0:0
471,149,47084,1,4,0:0:0
441,147,47148,1,0,0:0:0
412,136,47211,5,12,0:0:0
404,106,47275,1,0,0:0:0
377,119,47339,1,0,0:0:0
406,118,47403,2,0,B|397:132|402:151|402:151|415:159,3,50,8|8|0|10,0:0|0:0|0:0|0:0,0:0:0
443,169,47658,1,8,0:0:0
468,153,47722,1,8,0:0:0
454,126,47786,1,0,0:0:0
465,98,47850,2,0,B|486:52,3,50,8|10|0|0,0:0|0:0|0:0|0:0,0:0:0
511,36,48104,2,0,B|485:28|463:43,3,50,0|0|8|8,0:0|0:0|0:0|0:0,0:0:0
433,50,48360,1,0,0:0:0
410,30,48424,2,0,B|455:9,1,50,8|8,0:0|0:0,0:0:0
484,16,48551,2,0,B|510:58,1,50,0|8,0:0|0:0,0:0:0
493,82,48679,1,8,0:0:0
480,109,48743,1,0,0:0:0
497,133,48807,1,8,0:0:0
488,161,48871,2,0,B|509:176|510:203,1,50,0|8,0:0|0:0,0:0:0
484,218,48999,1,8,0:0:0
486,247,49063,1,0,0:0:0
502,272,49126,2,0,B|499:285|499:285|497:299|503:312|512:317,1,50,8|0,0:0|0:0,0:0:0
501,345,49254,2,0,B|487:345|487:345|473:346|461:355|458:364,1,50,0|4,0:0|0:0,0:0:0
487,364,49382,1,10,0:0:0
458,374,49446,5,0,0:0:0
428,373,49509,1,0,0:0:0
426,343,49573,5,0,0:0:0
444,319,49637,2,0,B|447:306|460:301|460:301|473:297|477:284,1,50,0|0,0:0|0:0,0:0:0
498,263,49765,1,0,0:0:0
470,251,49829,2,0,B|444:243|434:218,1,50,0|0,0:0|0:0,0:0:0
460,204,49956,1,0,0:0:0
483,185,50020,1,0,0:0:0
511,176,50084,1,8,0:0:0
494,150,50148,1,0,0:0:0
498,120,50212,1,0,0:0:0
488,148,50275,1,12,0:0:0
474,174,50339,2,0,B|498:191|498:191|505:201|502:209,3,50,0|2|12|8,0:0|0:0|0:0|0:0,0:0:0
505,238,50594,2,0,B|481:256|481:256|474:266|478:275,3,50,0|8|0|0,0:0|0:0|0:0|0:0,0:0:0
470,304,50849,1,0,0:0:0
456,330,50914,5,8,0:0:0
427,338,50978,6,0,B|433:326|427:314|427:314|421:301|427:290,1,50,0|0,0:0|0:0,0:0:0
437,261,51105,2,0,B|463:258|477:235,1,50,0|0,0:0|0:0,0:0:0
506,229,51233,1,2,0:0:0
503,258,51296,1,12,0:0:0
486,282,51360,2,0,B|459:296|459:296|451:304|453:314,1,50,0|0,0:0|0:0,0:0:0
451,343,51488,1,0,0:0:0
422,353,51552,1,8,0:0:0
449,364,51616,1,2,0:0:0
472,382,51680,2,0,B|465:356|482:335,1,50,0|8,0:0|0:0,0:0:0
511,334,51807,5,0,0:0:0
488,353,51871,1,0,0:0:0
482,382,51935,1,0,0:0:0
452,383,51999,1,4,0:0:0
435,357,52063,1,0,0:0:0
447,329,52127,2,0,B|447:327|447:327|445:327|445:327|446:325|446:325|443:326|443:326|445:324|445:324|442:324|442:324|443:322|443:322|441:322|441:322|442:320|442:320|440:321|440:321|441:319|441:319|439:319|439:319|440:317|440:317|438:317|438:317|439:315|439:315|437:316|437:316|438:314|438:314|436:314|436:314|437:312|437:312|435:312|435:312|436:310|436:310|433:311|433:311|434:309,1,50,8|2,0:0|0:0,0:0:0
423,281,52254,1,0,0:0:0
395,293,52318,1,4,0:0:0
378,318,52382,1,12,0:0:0
397,341,52446,2,0,B|423:383,3,50,2|0|0|0,0:0|0:0|0:0|0:0,0:0:0
433,354,52701,1,2,0:0:0
461,344,52765,1,0,0:0:0
478,319,52829,5,0,0:0:0
487,290,52893,1,0,0:0:0
506,266,52956,1,8,0:0:0
506,236,53020,1,8,0:0:0
503,206,53084,1,0,0:0:0
501,176,53148,1,0,0:0:0
509,147,53212,1,0,0:0:0
487,126,53276,5,4,0:0:0
471,100,53339,2,0,B|447:112|423:100,1,50,0|0,0:0|0:0,0:0:0
415,70,53467,1,0,0:0:0
424,41,53531,1,0,0:0:0
452,31,53595,5,0,0:0:0
465,3,53659,1,0,0:0:0
435,3,53722,1,8,0:0:0
413,23,53786,1,0,0:0:0
383,20,53850,1,0,0:0:0
353,20,53914,1,8,0:0:0
334,43,53978,2,0,B|330:55|317:60|317:60|304:65|301:77,1,50,0|10,0:0|0:0,0:0:0
330,84,54105,2,0,B|379:86,1,50,2|0,0:0|0:0,0:0:0
406,98,54233,1,8,0:0:0
423,122,54297,5,0,0:0:0
452,121,54361,1,0,0:0:0
473,141,54425,1,8,0:0:0
445,153,54488,5,0,0:0:0
418,139,54552,1,0,0:0:0
402,113,54616,1,0,0:0:0
413,85,54680,1,0,0:0:0
418,55,54744,1,8,0:0:0
445,67,54807,5,0,0:0:0
473,76,54871,1,8,0:0:0
487,49,54935,2,0,B|445:20,1,50,0|0,0:0|0:0,0:0:0
415,25,55063,6,0,B|419:74,1,50,8|0,0:0|0:0,0:0:0
421,103,55190,2,0,B|470:106,1,50,8|8,0:0|0:0,0:0:0
484,132,55318,1,0,0:0:0
486,161,55381,2,0,B|463:176|438:167,1,50,0|0,0:0|0:0,0:0:0
409,158,55509,5,8,0:0:0
379,159,55573,2,0,B|366:169|346:169|346:169|336:158,3,50,0|0|8|0,0:0|0:0|0:0|0:0,0:0:0
317,134,55828,1,8,0:0:0
302,107,55892,1,0,0:0:0
276,91,55956,1,0,0:0:0
253,71,56020,2,0,B|252:57|252:57|251:43|258:30|267:26,3,50,0|0|0|2,0:0|0:0|0:0|0:0,0:0:0
282,0,56275,2,0,B|296:22|323:23,1,50,0|0,0:0|0:0,0:0:0
319,52,56402,1,12,0:0:0
307,79,56466,2,0,B|322:100|349:101,1,50,0|12,0:0|0:0,0:0:0
378,105,56594,1,0,0:0:0
401,86,56658,2,0,B|427:83|441:61,1,50,0|8,0:0|0:0,0:0:0
469,70,56785,2,0,B|469:71|469:71|471:69|471:69|471:71|471:71|473:70|473:70|473:72|473:72|475:70|475:70|475:72|475:72|476:71|476:71|477:73|477:73|478:71|478:71|479:74|479:74|480:72|480:72|481:74|481:74|482:73|482:73|483:75|483:75|484:73|484:73|484:75|484:75|486:74|486:74|486:76|486:76|488:74|488:74|488:77|488:77|490:75|490:75|491:76,1,50,4|8,0:0|0:0,0:0:0
506,101,56913,1,0,0:0:0
506,130,56977,1,0,0:0:0
480,145,57041,1,0,0:0:0
456,163,57105,2,0,B|431:173|425:199,1,50,0|8,0:0|0:0,0:0:0
454,205,57232,1,0,0:0:0
482,216,57297,5,0,0:0:0
506,233,57361,1,2,0:0:0
478,220,57424,2,0,B|468:233|448:236|448:236|435:228,3,50,0|0|0|0,0:0|0:0|0:0|0:0,0:0:0
415,250,57679,1,0,0:0:0
385,248,57743,2,0,B|371:256|366:276|366:276|374:289,3,50,0|0|8|2,0:0|0:0|0:0|0:0,0:0:0
369,318,57999,1,2,0:0:0
398,314,58062,1,0,0:0:0
413,288,58126,2,0,B|429:240,1,50,0|0,0:0|0:0,0:0:0
428,210,58254,1,8,0:0:0
450,190,58318,1,0,0:0:0
473,171,58382,1,10,0:0:0
482,142,58445,1,14,0:0:0
489,113,58509,2,0,B|475:112|475:112|461:112|448:119|444:128,1,50,14|8,0:0|0:0,0:0:0
414,133,58637,1,0,0:0:0
387,118,58700,5,0,0:0:0
377,146,58764,1,0,0:0:0
385,174,58828,1,0,0:0:0
355,178,58892,1,2,0:0:0
334,156,58955,2,0,B|345:144|346:124|346:124|336:113,1,50,0|0,0:0|0:0,0:0:0
343,83,59083,1,0,0:0:0
360,58,59147,1,0,0:0:0
385,41,59211,2,0,B|397:17|423:12,1,50,0|4,0:0|0:0,0:0:0
452,7,59339,6,0,B|460:20|480:25|480:25|493:17,3,50,8|2|8|0,0:0|0:0|0:0|0:0,0:0:0
512,39,59594,5,8,0:0:0
509,68,59658,1,0,0:0:0
490,91,59722,1,0,0:0:0
461,101,59786,1,8,0:0:0
451,129,59850,1,0,0:0:0
421,130,59914,2,0,B|395:120|373:135,1,50,0|8,0:0|0:0,0:0:0
344,144,60041,1,0,0:0:0
320,162,60105,1,8,0:0:0
307,189,60169,1,8,0:0:0
282,206,60233,1,8,0:0:0
252,209,60297,1,0,0:0:0
225,223,60360,1,8,0:0:0
202,242,60424,1,0,0:0:0
207,271,60488,1,8,0:0:0
204,300,60552,1,0,0:0:0
180,318,60616,1,0,0:0:0
174,347,60680,1,4,0:0:0
167,376,60743,2,0,B|172:341|172:341|186:334,1,50,0|8,0:0|0:0,0:0:0
209,315,60871,6,0,B|211:301|223:295|223:295|235:289|237:276,1,50,0|8,0:0|0:0,0:0:0
264,263,60999,6,0,B|280:215,1,50,8|0,0:0|0:0,0:0:0
272,186,61126,6,0,B|263:151|263:151|273:140,1,50,8|8,0:0|0:0,0:0:0
294,119,61254,1,8,0:0:0
316,99,61318,1,0,0:0:0
342,85,61382,1,0,0:0:0
370,74,61446,1,0,0:0:0
381,101,61509,1,10,0:0:0
408,88,61573,6,0,B|433:79|441:53,1,50,8|0,0:0|0:0,0:0:0
461,31,61701,5,0,0:0:0
458,1,61765,1,0,0:0:0
428,0,61829,2,0,B|426:30|426:30|423:41|414:43,1,50,0|8,0:0|0:0,0:0:0
389,25,61956,1,0,0:0:0
359,32,62020,2,0,B|348:19|329:16|329:16|316:25,3,50,8|0|2|4,0:0|0:0|0:0|0:0,0:0:0
289,38,62275,1,2,0:0:0
318,45,62339,5,0,0:0:0
346,55,62403,1,0,0:0:0
373,67,62467,1,0,0:0:0
396,48,62531,1,8,0:0:0
379,22,62595,6,0,B|348:20|348:20|337:17|335:7,1,50,0|4,0:0|0:0,0:0:0
314,28,62722,2,0,B|347:65,1,50,0|0,0:0|0:0,0:0:0
375,72,62850,1,0,0:0:0
392,96,62914,1,0,0:0:0
384,124,62978,1,8,0:0:0
364,147,63041,1,0,0:0:0
335,137,63105,1,0,0:0:0
308,151,63169,5,8,0:0:0
278,156,63233,1,4,0:0:0
255,135,63297,2,0,B|237:117|237:117|232:141,1,50,2|8,0:0|0:0,0:0:0
203,149,63424,1,0,0:0:0
173,144,63488,1,4,0:0:0
161,116,63552,1,8,0:0:0
170,87,63616,1,4,0:0:0
168,57,63680,2,0,B|189:11,1,50,0|0,0:0|0:0,0:0:0
218,4,63807,1,10,0:0:0
196,24,63871,1,0,0:0:0
196,53,63935,1,0,0:0:0
182,79,63999,1,0,0:0:0
163,102,64063,2,0,B|136:97|116:115,1,50,0|0,0:0|0:0,0:0:0
91,97,64190,1,0,0:0:0
69,75,64254,1,8,0:0:0
47,54,64318,1,0,0:0:0
17,49,64382,1,0,0:0:0
6,20,64446,2,0,B|17:11|17:11|28:3|43:3|51:8,1,50,0|8,0:0|0:0,0:0:0
80,1,64573,1,0,0:0:0
109,4,64637,1,0,0:0:0
132,23,64701,1,8,0:0:0
147,48,64765,2,0,B|161:70|188:72,1,50,8|0,0:0|0:0,0:0:0
206,95,64893,2,0,B|229:82|253:93,3,50,4|0|8|0,0:0|0:0|0:0|0:0,0:0:0
282,94,65148,1,2,0:0:0
305,112,65212,2,0,B|308:125|308:125|312:138|308:152|300:158,1,50,8|8,0:0|0:0,0:0:0
289,129,65339,2,0,B|314:120|322:94,1,50,0|0,0:0|0:0,0:0:0
306,68,65467,2,0,B|278:26,1,50,0|0,0:0|0:0,0:0:0
254,6,65595,2,0,B|240:8|235:21|235:21|229:33|216:36,1,50,4|0,0:0|0:0,0:0:0
187,25,65722,2,0,B|176:37|156:38|156:38|144:29,1,50,0|0,0:0|0:0,0:0:0
115,36,65850,1,0,0:0:0
101,63,65914,6,0,B|104:112,1,50,0|0,0:0|0:0,0:0:0
96,140,66042,1,0,0:0:0
70,123,66105,2,0,B|39:120|39:120|28:116|26:107,1,50,0|0,0:0|0:0,0:0:0
2,125,66233,2,0,B|14:148|2:172,1,50,12|0,0:0|0:0,0:0:0
19,147,66361,1,0,0:0:0
41,127,66425,2,0,B|37:97|37:97|38:85|47:81,1,50,0|0,0:0|0:0,0:0:0
27,58,66552,1,0,0:0:0
17,29,66616,2,0,B|43:25|62:45,3,50,8|0|0|8,0:0|0:0|0:0|0:0,0:0:0
83,24,66871,1,0,0:0:0
108,39,66935,2,0,B|126:19|153:23,1,50,0|0,0:0|0:0,0:0:0
174,1,67063,1,8,0:0:0
202,11,67127,1,0,0:0:0
231,8,67190,1,0,0:0:0
260,6,67254,1,8,0:0:0
289,2,67318,1,0,0:0:0
314,17,67382,1,0,0:0:0
343,13,67445,2,0,B|347:42|347:42|353:53|362:54,1,50,0|0,0:0|0:0,0:0:0
384,34,67573,5,0,0:0:0
412,23,67636,2,0,B|402:48|417:70,1,50,0|0,0:0|0:0,0:0:0
399,94,67764,1,8,0:0:0
427,85,67828,1,0,0:0:0
456,83,67892,1,8,0:0:0
483,94,67956,2,0,B|470:101|470:101|458:108|452:120|453:130,1,50,0|0,0:0|0:0,0:0:0
459,159,68084,2,0,B|435:146|411:158,1,50,0|0,0:0|0:0,0:0:0
381,156,68211,1,8,0:0:0
367,183,68275,2,0,B|343:195|339:222,1,50,0|0,0:0|0:0,0:0:0
309,221,68403,2,0,B|296:224|285:216|285:216|274:208|261:212,1,50,8|4,0:0|0:0,0:0:0
244,186,68530,2,0,B|245:172|236:163|236:163|227:153|228:140,1,50,0|8,0:0|0:0,0:0:0
233,110,68658,1,0,0:0:0
240,81,68722,1,2,0:0:0
227,53,68786,1,0,0:0:0
237,25,68850,1,8,0:0:0
216,46,68913,6,0,B|205:54|205:54|194:63|190:77|192:86,3,50,0|2|8|8,0:0|0:0|0:0|0:0,0:0:0
203,113,69169,6,0,B|242:143,1,50,0|8,0:0|0:0,0:0:0
258,168,69296,2,0,B|259:194|282:209,1,50,0|8,0:0|0:0,0:0:0
252,214,69424,2,0,B|253:240|275:255,3,50,0|8|0|0,0:0|0:0|0:0|0:0,0:0:0
284,283,69679,1,0,0:0:0
277,312,69743,2,0,B|270:324|270:324|264:336|251:343|241:343,3,50,2|0|0|0,0:0|0:0|0:0|0:0,0:0:0
218,363,69999,6,0,B|198:344|171:349,3,50,0|0|8|0,0:0|0:0|0:0|0:0,0:0:0
174,378,70254,1,0,0:0:0
203,379,70318,2,0,B|230:367|230:367|242:366|248:373,3,50,8|0|0|0,0:0|0:0|0:0|0:0,0:0:0
275,384,70573,6,0,B|288:385|297:376|297:376|307:366|320:368,1,50,0|0,0:0|0:0,0:0:0
349,368,70701,2,0,B|373:324,1,50,0|8,0:0|0:0,0:0:0
402,322,70828,1,0,0:0:0
390,349,70892,1,0,0:0:0
362,337,70956,1,12,0:0:0
333,327,71020,1,8,0:0:0
331,356,71084,1,0,0:0:0
342,383,71147,1,2,0:0:0
371,384,71211,1,2,0:0:0
382,356,71275,2,0,B|389:330|373:308,3,50,8|0|0|0,0:0|0:0|0:0|0:0,0:0:0
346,293,71531,2,0,B|355:267|340:245,3,50,2|4|0|8,0:0|0:0|0:0|0:0,0:0:0
363,225,71786,1,0,0:0:0
391,216,71850,2,0,B|413:189|413:189|410:174,1,50,4|0,0:0|0:0,0:0:0
405,144,71977,2,0,B|384:161|358:156,1,50,8|0,0:0|0:0,0:0:0
331,143,72105,1,0,0:0:0
304,156,72169,2,0,B|287:177|260:176,1,50,0|0,0:0|0:0,0:0:0
230,174,72296,2,0,B|216:165|196:169|196:169|187:181,1,50,8|8,0:0|0:0,0:0:0
171,155,72424,1,0,0:0:0
141,153,72488,2,0,B|110:135|110:135|107:121,1,50,0|0,0:0|0:0,0:0:0
99,92,72615,2,0,B|98:90|98:90|96:91|96:91|97:89|97:89|95:90|95:90|95:88|95:88|93:89|93:89|93:87|93:87|91:88|91:88|92:85|92:85|90:86|90:86|90:84|90:84|88:85|88:85|89:83|89:83|87:84|87:84|87:82|87:82|85:83|85:83|85:81|85:81|83:82|83:82|84:79|84:79|82:80|82:80|82:78|82:78|80:79|80:79|80:78,1,50,0|2,0:0|0:0,0:0:0
64,52,72743,5,0,0:0:0
69,22,72807,2,0,B|80:33|100:34|100:34|111:24,3,50,0|8|0|0,0:0|0:0|0:0|0:0,0:0:0
107,53,73062,1,0,0:0:0
102,82,73126,1,0,0:0:0
87,108,73190,1,8,0:0:0
60,94,73254,2,0,B|44:115|17:116,1,50,2|0,0:0|0:0,0:0:0
30,142,73381,6,0,B|19:190,1,50,0|8,0:0|0:0,0:0:0
34,215,73509,1,4,0:0:0
61,202,73573,5,0,0:0:0
76,176,73637,2,0,B|89:179|89:179|102:183|112:194|113:204,1,50,0|4,0:0|0:0,0:0:0
92,226,73764,1,0,0:0:0
92,255,73828,1,0,0:0:0
93,284,73892,2,0,B|45:269,1,50,0|4,0:0|0:0,0:0:0
34,240,74020,1,0,0:0:0
30,210,74084,2,0,B|14:204|5:186|5:186|10:171,1,50,2|0,0:0|0:0,0:0:0
24,144,74211,2,0,B|48:127|48:127|60:123|67:129,1,50,2|0,0:0|0:0,0:0:0
90,147,74339,2,0,B|114:141|114:141|97:124,1,50,0|8,0:0|0:0,0:0:0
125,115,74467,2,0,B|149:125|172:112,1,50,2|8,0:0|0:0,0:0:0
200,121,74594,1,0,0:0:0
199,91,74658,1,0,0:0:0
172,76,74722,1,0,0:0:0
151,54,74786,2,0,B|128:38|127:11,3,50,2|0|0|0,0:0|0:0|0:0|0:0,0:0:0
98,20,75041,1,0,0:0:0
84,46,75105,1,0,0:0:0
113,53,75169,1,8,0:0:0
95,28,75233,1,8,0:0:0
65,20,75296,1,0,0:0:0
35,12,75360,1,8,0:0:0
49,38,75424,2,0,B|98:47,1,50,0|0,0:0|0:0,0:0:0
91,76,75552,1,0,0:0:0
116,60,75616,1,2,0:0:0
145,66,75679,5,0,0:0:0
150,36,75743,2,0,B|161:29|173:34|173:34|186:39|197:32,3,50,0|0|8|0,0:0|0:0|0:0|0:0,0:0:0
203,2,75999,1,8,0:0:0
232,8,76062,1,0,0:0:0
242,36,76126,1,0,0:0:0
231,64,76190,1,8,0:0:0
228,93,76254,2,0,B|270:66,3,50,0|0|2|0,0:0|0:0|0:0|0:0,0:0:0
293,84,76509,1,8,0:0:0
322,80,76573,1,0,0:0:0
347,63,76637,1,0,0:0:0
375,73,76700,2,0,B|376:99|399:114,3,50,2|8|0|0,0:0|0:0|0:0|0:0,0:0:0
397,143,76956,1,0,0:0:0
375,164,77020,2,0,B|379:179|370:197|370:197|355:202,3,50,0|8|0|4,0:0|0:0|0:0|0:0,0:0:0
344,230,77275,1,0,0:0:0
348,200,77339,1,2,0:0:0
372,182,77403,2,0,B|355:202|328:202,1,50,8|0,0:0|0:0,0:0:0
332,172,77530,1,0,0:0:0
361,167,77594,2,0,B|354:178|359:190|359:190|364:203|357:214,3,50,0|0|0|0,0:0|0:0|0:0|0:0,0:0:0
327,207,77849,2,0,B|325:190|310:177|310:177|295:177,3,50,0|4|8|0,0:0|0:0|0:0|0:0,0:0:0
292,147,78105,2,0,B|268:102,1,50,0|0,0:0|0:0,0:0:0
239,92,78232,1,0,0:0:0
217,71,78296,2,0,B|188:29,1,50,0|0,0:0|0:0,0:0:0
163,12,78424,1,0,0:0:0
137,27,78488,1,0,0:0:0
109,14,78552,1,0,0:0:0
87,34,78615,1,0,0:0:0
110,52,78679,2,0,B|138:30|138:30|152:34,3,50,8|8|8|0,0:0|0:0|0:0|0:0,0:0:0
122,38,78935,6,0,B|118:53|102:65|102:65|86:62,3,50,8|8|0|0,0:0|0:0|0:0|0:0,0:0:0
57,53,79190,1,8,0:0:0
28,62,79254,1,4,0:0:0
4,43,79317,6,0,B|-9:32|-10:12|-10:12|0:0,1,50,8|8,0:0|0:0,0:0:0
29,6,79445,1,0,0:0:0
42,33,79509,6,0,B|35:82,1,50,8|0,0:0|0:0,0:0:0
37,111,79637,1,0,0:0:0
33,140,79700,1,8,0:0:0
52,162,79764,1,2,0:0:0
74,181,79828,2,0,B|102:171|102:171|112:165|112:156,1,50,0|0,0:0|0:0,0:0:0
98,129,79956,1,0,0:0:0
121,110,80020,2,0,B|128:95|147:88|147:88|161:95,3,50,0|4|0|0,0:0|0:0|0:0|0:0,0:0:0
186,110,80275,1,2,0:0:0
199,136,80339,1,10,0:0:0
204,165,80403,1,0,0:0:0
196,193,80466,1,0,0:0:0
222,206,80530,2,0,B|239:252,3,50,0|8|4|0,0:0|0:0|0:0|0:0,0:0:0
240,281,80786,1,8,0:0:0
257,305,80849,1,0,0:0:0
284,316,80913,2,0,B|315:354,1,50,8|8,0:0|0:0,0:0:0
316,383,81041,1,8,0:0:0
286,380,81105,1,0,0:0:0
269,355,81169,1,0,0:0:0
244,337,81232,2,0,B|225:306|225:306|231:292,1,50,12|0,0:0|0:0,0:0:0
201,292,81360,2,0,B|215:269|242:267,1,50,0|10,0:0|0:0,0:0:0
244,237,81488,5,10,0:0:0
244,207,81552,2,0,B|223:184|223:184|213:178|205:182,1,50,0|0,0:0|0:0,0:0:0
182,201,81679,1,0,0:0:0
165,226,81743,1,8,0:0:0
148,250,81807,1,0,0:0:0
175,238,81871,1,2,0:0:0
200,222,81935,1,0,0:0:0
199,192,81998,1,0,0:0:0
192,162,82062,1,0,0:0:0
173,138,82126,1,4,0:0:0
152,115,82190,2,0,B|169:94|162:68,1,50,0|0,0:0|0:0,0:0:0
190,57,82317,2,0,B|237:41,1,50,8|0,0:0|0:0,0:0:0
226,12,82445,1,8,0:0:0
197,2,82509,1,0,0:0:0
220,20,82573,5,8,0:0:0
249,21,82637,2,0,B|248:22|248:22|251:21|251:21|250:23|250:23|252:23|252:23|251:25|251:25|253:24|253:24|252:26|252:26|255:26|255:26|254:28|254:28|256:27|256:27|255:29|255:29|257:29|257:29|257:31|257:31|259:30|259:30|258:32|258:32|260:32|260:32|259:34|259:34|261:33|261:33|261:35|261:35|263:35|263:35|262:37|262:37|264:36|264:36|264:37,1,50,0|0,0:0|0:0,0:0:0
257,66,82764,1,0,0:0:0
235,87,82828,1,0,0:0:0
208,72,82892,1,0,0:0:0
181,86,82956,1,0,0:0:0
154,71,83020,6,0,B|155:54|170:41|170:41|186:42,1,50,8|8,0:0|0:0,0:0:0
215,39,83147,6,0,B|240:48|262:34,3,50,0|6|12|0,0:0|0:0|0:0|0:0,0:0:0
232,30,83403,1,8,0:0:0
218,3,83466,2,0,B|226:13|223:26|223:26|219:39|228:49,1,50,0|8,0:0|0:0,0:0:0
216,76,83594,1,0,0:0:0
216,105,83658,1,0,0:0:0
244,96,83722,5,0,0:0:0
273,89,83786,1,0,0:0:0
287,115,83849,1,8,0:0:0
283,144,83913,2,0,B|238:121,3,50,0|10|2|2,0:0|0:0|0:0|0:0,0:0:0
208,127,84169,6,0,B|184:140|182:167,1,50,0|0,0:0|0:0,0:0:0
158,185,84296,2,0,B|131:182|113:202,1,50,8|0,0:0|0:0,0:0:0
103,230,84424,1,0,0:0:0
129,243,84488,6,0,B|161:255|161:255|174:248,1,50,8|0,0:0|0:0,0:0:0
196,228,84615,1,0,0:0:0
225,228,84679,2,0,B|273:217,1,50,0|0,0:0|0:0,0:0:0
288,191,84807,2,0,B|307:209|303:236,1,50,4|2,0:0|0:0,0:0:0
331,226,84935,1,8,0:0:0
356,241,84998,2,0,B|368:264|394:269,1,50,0|0,0:0|0:0,0:0:0
423,262,85126,1,0,0:0:0
450,274,85190,1,0,0:0:0
433,298,85254,1,2,0:0:0
431,327,85317,2,0,B|420:339|400:341|400:341|388:331,1,50,0|4,0:0|0:0,0:0:0
358,336,85445,1,0,0:0:0
332,319,85509,1,8,0:0:0
327,348,85573,1,0,0:0:0
355,357,85637,1,0,0:0:0
384,359,85700,1,0,0:0:0
356,347,85764,2,0,B|389:309,1,50,0|4,0:0|0:0,0:0:0
409,287,85892,1,0,0:0:0
420,259,85956,5,2,0:0:0
395,241,86020,2,0,B|365:235|365:235|353:236|349:245,1,50,0|2,0:0|0:0,0:0:0
325,263,86147,1,0,0:0:0
295,263,86211,1,0,0:0:0
286,291,86275,2,0,B|302:293|314:309|314:309|312:325,1,50,0|0,0:0|0:0,0:0:0
282,330,86403,1,8,0:0:0
259,309,86466,1,8,0:0:0
230,300,86530,2,0,B|217:296|212:283|212:283|207:271|194:267,3,50,8|8|0|0,0:0|0:0|0:0|0:0,0:0:0
169,249,86786,1,0,0:0:0
172,219,86849,1,0,0:0:0
197,203,86913,1,0,0:0:0
219,183,86977,1,0,0:0:0
190,172,87041,1,0,0:0:0
174,146,87105,2,0,B|148:153|126:137,1,50,2|0,0:0|0:0,0:0:0
120,166,87232,2,0,B|106:156|86:158|86:158|77:170,1,50,8|14,0:0|0:0,0:0:0
50,156,87360,1,0,0:0:0
38,128,87424,5,0,0:0:0
67,121,87488,2,0,B|67:137|82:151|82:151|97:151,3,50,0|0|0|8,0:0|0:0|0:0|0:0,0:0:0
120,169,87743,2,0,B|134:146|124:121,1,50,0|0,0:0|0:0,0:0:0
126,91,87871,1,12,0:0:0
126,61,87935,2,0,B|153:19,3,50,0|0|0|0,0:0|0:0|0:0|0:0,0:0:0
182,13,88190,2,0,B|229:28,1,50,8|0,0:0|0:0,0:0:0
258,21,88317,1,8,0:0:0
285,33,88381,1,0,0:0:0
314,35,88445,1,10,0:0:0
336,15,88509,1,0,0:0:0
365,15,88573,1,0,0:0:0
394,19,88637,6,0,B|419:28|441:14,1,50,0|0,0:0|0:0,0:0:0
470,18,88764,1,4,0:0:0
465,47,88828,2,0,B|476:19|476:19|483:9|492:10,1,50,8|0,0:0|0:0,0:0:0
512,31,88956,2,0,B|487:56|487:56|489:71,1,50,0|8,0:0|0:0,0:0:0
461,82,89083,6,0,B|431:88|431:88|419:88|415:80,3,50,0|2|8|8,0:0|0:0|0:0|0:0,0:0:0
385,76,89339,2,0,B|341:100,1,50,0|10,0:0|0:0,0:0:0
339,129,89466,1,0,0:0:0
368,135,89530,6,0,B|345:149|342:175,1,50,8|8,0:0|0:0,0:0:0
313,184,89658,2,0,B|275:150,3,50,0|0|8|0,0:0|0:0|0:0|0:0,0:0:0
245,146,89913,2,0,B|238:131|219:123|219:123|205:128,3,50,8|0|0|0,0:0|0:0|0:0|0:0,0:0:0
187,103,90169,2,0,B|195:77|180:55,1,50,4|0,0:0|0:0,0:0:0
192,27,90296,1,10,0:0:0
175,2,90360,2,0,B|197:17|222:8,3,50,12|2|2|0,0:0|0:0|0:0|0:0,0:0:0
243,29,90615,1,0,0:0:0
269,14,90679,1,0,0:0:0
239,11,90743,2,0,B|246:60,1,50,8|0,0:0|0:0,0:0:0
275,52,90871,2,0,B|288:3,1,50,0|0,0:0|0:0,0:0:0
314,17,90998,1,0,0:0:0
288,32,91062,2,0,B|275:36|271:49|271:49|267:62|254:66,1,50,4|0,0:0|0:0,0:0:0
281,78,91190,1,8,0:0:0
310,82,91254,6,0,B|336:75|346:50,1,50,0|12,0:0|0:0,0:0:0
375,52,91381,1,0,0:0:0
392,27,91445,1,8,0:0:0
407,1,91509,1,0,0:0:0
431,17,91573,1,0,0:0:0
431,46,91637,1,0,0:0:0
449,22,91700,2,0,B|472:65,1,50,0|12,0:0|0:0,0:0:0
482,92,91828,5,2,0:0:0
467,118,91892,2,0,B|479:128|499:128|499:128|509:117,1,50,8|0,0:0|0:0,0:0:0
511,146,92020,1,12,0:0:0
489,167,92083,2,0,B|448:196,3,50,8|0|0|0,0:0|0:0|0:0|0:0,0:0:0
426,217,92339,2,0,B|386:248,1,50,12|0,0:0|0:0,0:0:0
374,220,92466,1,2,0:0:0
358,194,92530,2,0,B|374:195|390:183|390:183|392:168,3,50,0|8|8|0,0:0|0:0|0:0|0:0,0:0:0
421,162,92786,5,4,0:0:0
449,153,92849,5,2,0:0:0
456,182,92913,5,0,0:0:0
461,211,92977,1,8,0:0:0
452,239,93041,2,0,B|427:229|404:242,1,50,0|8,0:0|0:0,0:0:0
412,270,93169,5,0,0:0:0
386,285,93232,2,0,B|366:307|366:307|356:314|348:310,1,50,0|8,0:0|0:0,0:0:0
334,337,93360,1,6,0:0:0
338,366,93424,1,0,0:0:0
366,356,93488,1,0,0:0:0
350,381,93552,6,0,B|308:352,3,50,2|0|0|0,0:0|0:0|0:0|0:0,0:0:0
291,376,93807,2,0,B|265:367|243:381,1,50,0|6,0:0|0:0,0:0:0
217,364,93935,1,8,0:0:0
187,356,93998,1,0,0:0:0
158,346,94062,1,0,0:0:0
146,373,94126,1,0,0:0:0
174,381,94190,1,0,0:0:0
200,366,94254,1,0,0:0:0
206,336,94317,2,0,B|201:323|209:312|209:312|216:301|212:288,1,50,0|0,0:0|0:0,0:0:0
187,271,94445,2,0,B|164:250|164:250|154:245|146:250,1,50,8|0,0:0|0:0,0:0:0
137,278,94573,1,14,0:0:0
114,297,94637,1,2,0:0:0
100,270,94700,1,0,0:0:0
70,275,94764,6,0,B|36:237,3,50,0|0|8|0,0:0|0:0|0:0|0:0,0:0:0
12,218,95020,1,0,0:0:0
37,202,95083,1,4,0:0:0
48,174,95147,1,0,0:0:0
73,159,95211,1,0,0:0:0
76,129,95275,2,0,B|102:128|118:107,1,50,10|8,0:0|0:0,0:0:0
123,77,95403,1,0,0:0:0
137,50,95466,1,0,0:0:0
164,37,95530,1,0,0:0:0
188,20,95594,1,10,0:0:0
215,31,95658,2,0,B|239:41|246:67,1,50,2|0,0:0|0:0,0:0:0
247,96,95786,2,0,B|271:113|271:113|279:122|276:131,1,50,0|0,0:0|0:0,0:0:0
266,159,95913,1,0,0:0:0
243,178,95977,6,0,B|222:223,1,50,0|0,0:0|0:0,0:0:0
215,252,96105,1,0,0:0:0
186,261,96169,1,0,0:0:0
178,290,96232,6,0,B|207:309|207:309|208:324,1,50,0|0,0:0|0:0,0:0:0
191,298,96360,2,0,B|207:276|200:250,1,50,2|0,0:0|0:0,0:0:0
200,220,96488,2,0,B|180:238|154:234,1,50,0|4,0:0|0:0,0:0:0
128,218,96615,2,0,B|121:242|121:242|104:223,1,50,0|0,0:0|0:0,0:0:0
75,212,96743,2,0,B|59:233|32:234,1,50,8|0,0:0|0:0,0:0:0
18,260,96871,2,0,B|3:266|-5:285|-5:285|1:299,1,50,8|0,0:0|0:0,0:0:0
11,327,96998,5,0,0:0:0
2,355,97062,5,0,0:0:0
26,372,97126,1,0,0:0:0
52,358,97190,1,12,0:0:0
56,328,97254,1,8,0:0:0
84,319,97317,1,8,0:0:0
110,304,97381,1,0,0:0:0
136,290,97445,1,0,0:0:0
106,293,97509,1,10,0:0:0
104,263,97573,1,0,0:0:0
89,236,97637,2,0,B|49:205,1,50,8|0,0:0|0:0,0:0:0
45,175,97764,2,0,B|13:135,1,50,0|0,0:0|0:0,0:0:0
38,118,97892,1,10,0:0:0
59,138,97956,5,8,0:0:0
43,112,98020,1,0,0:0:0
25,87,98083,1,4,0:0:0
52,99,98147,1,0,0:0:0
75,117,98211,1,8,0:0:0
74,146,98275,1,0,0:0:0
68,175,98339,5,2,0:0:0
94,160,98403,2,0,B|142:172,1,50,4|0,0:0|0:0,0:0:0
163,151,98530,5,0,0:0:0
168,180,98594,2,0,B|170:169|170:169|189:203,1,50,8|0,0:0|0:0,0:0:0
190,173,98722,1,4,0:0:0
216,158,98786,1,0,0:0:0
242,143,98849,1,0,0:0:0
243,113,98913,1,0,0:0:0
255,140,98977,1,0,0:0:0
251,169,99041,1,0,0:0:0
256,198,99105,1,0,0:0:0
285,190,99169,2,0,B|295:214|281:237,1,50,0|0,0:0|0:0,0:0:0
261,259,99296,1,0,0:0:0
255,288,99360,2,0,B|208:305,3,50,0|0|0|8,0:0|0:0|0:0|0:0,0:0:0
187,282,99615,1,8,0:0:0
181,252,99679,1,0,0:0:0
163,227,99743,1,0,0:0:0
149,200,99807,1,0,0:0:0
137,172,99871,1,8,0:0:0
115,151,99935,2,0,B|132:130|126:104,1,50,4|8,0:0|0:0,0:0:0
137,76,100062,6,0,B|149:65|153:46|153:46|144:33,1,50,8|0,0:0|0:0,0:0:0
125,9,100190,5,4,0:0:0
106,32,100254,1,4,0:0:0
108,61,100317,1,0,0:0:0
80,49,100381,1,0,0:0:0
72,78,100445,1,0,0:0:0
46,93,100509,1,0,0:0:0
27,69,100573,1,0,0:0:0
22,39,100637,2,0,B|37:32|45:14|45:14|40:0,1,50,8|0,0:0|0:0,0:0:0
37,29,100764,1,10,0:0:0
25,56,100828,2,0,B|44:101,1,50,4|4,0:0|0:0,0:0:0
15,109,100956,1,0,0:0:0
9,138,101020,1,8,0:0:0
15,167,101083,1,0,0:0:0
42,154,101147,6,0,B|54:130|80:125,1,50,0|0,0:0|0:0,0:0:0
104,107,101275,1,0,0:0:0
130,92,101339,2,0,B|123:77|129:58|129:58|142:50,3,50,8|0|6|0,0:0|0:0|0:0|0:0,0:0:0
149,20,101594,1,0,0:0:0
121,9,101658,2,0,B|107:12|107:12|94:16|80:11|74:4,1,50,10|8,0:0|0:0,0:0:0
44,0,101786,1,0,0:0:0
65,20,101849,1,0,0:0:0
37,31,101913,2,0,B|38:30|38:30|37:33|37:33|39:32|39:32|39:34|39:34|41:33|41:33|40:35|40:35|43:34|43:34|42:36|42:36|44:35|44:35|44:38|44:38|46:37|46:37|45:39|45:39|47:38|47:38|47:40|47:40|49:39|49:39|48:41|48:41|50:41|50:41|50:43|50:43|52:42|52:42|51:44|51:44|53:43|53:43|53:45|53:45|54:45,1,50,0|0,0:0|0:0,0:0:0
74,67,102041,5,8,0:0:0
103,62,102105,1,10,0:0:0
103,32,102169,1,0,0:0:0
77,16,102232,1,0,0:0:0
47,19,102296,2,0,B|4:45,1,50,0|2,0:0|0:0,0:0:0
10,74,102424,2,0,B|59:67,1,50,0|0,0:0|0:0,0:0:0
88,67,102552,1,0,0:0:0
104,41,102615,1,0,0:0:0
133,40,102679,5,2,0:0:0
153,61,102743,1,8,0:0:0
169,85,102807,1,0,0:0:0
158,113,102871,1,0,0:0:0
128,120,102935,2,0,B|124:133|124:133|120:146|109:156|100:157,1,50,8|0,0:0|0:0,0:0:0
123,175,103062,1,0,0:0:0
123,204,103126,1,2,0:0:0
152,207,103190,1,0,0:0:0
176,224,103254,5,0,0:0:0
173,253,103317,2,0,B|166:279|183:299,1,50,8|0,0:0|0:0,0:0:0
172,327,103445,2,0,B|155:374,1,50,8|0,0:0|0:0,0:0:0
131,355,103573,1,8,0:0:0
119,327,103637,2,0,B|74:305,1,50,8|0,0:0|0:0,0:0:0
80,275,103765,1,8,0:0:0
107,262,103829,1,0,0:0:0
135,271,103892,2,0,B|157:259|157:259|154:284,1,50,2|0,0:0|0:0,0:0:0
172,260,104020,6,0,B|187:237|213:236,3,50,0|4|2|8,0:0|0:0|0:0|0:0,0:0:0
213,206,104275,6,0,B|246:168,1,50,12|8,0:0|0:0,0:0:0
263,192,104403,2,0,B|273:216|259:239,1,50,0|0,0:0|0:0,0:0:0
252,268,104531,1,0,0:0:0
229,287,104595,5,8,0:0:0
217,314,104658,1,0,0:0:0
190,327,104722,1,0,0:0:0
160,325,104786,1,0,0:0:0
134,340,104850,1,8,0:0:0
107,353,104914,2,0,B|91:349|74:360|74:360|70:375,1,50,10|8,0:0|0:0,0:0:0
74,345,105041,2,0,B|71:320|71:320|93:331,1,50,0|0,0:0|0:0,0:0:0
120,342,105169,1,0,0:0:0
148,333,105233,1,0,0:0:0
177,327,105297,1,0,0:0:0
202,311,105361,1,0,0:0:0
231,310,105424,5,8,0:0:0
251,288,105488,1,2,0:0:0
236,261,105552,2,0,B|257:245|258:218,3,50,4|8|0|0,0:0|0:0|0:0|0:0,0:0:0
256,188,105807,1,0,0:0:0
285,181,105871,2,0,B|265:134,1,50,0|0,0:0|0:0,0:0:0
243,113,105999,2,0,B|217:119|206:144,1,50,0|8,0:0|0:0,0:0:0
176,147,106127,1,0,0:0:0
182,117,106190,2,0,B|164:70,3,50,10|4|0|8,0:0|0:0|0:0|0:0,0:0:0
175,42,106446,1,0,0:0:0
185,13,106510,1,0,0:0:0
212,25,106573,2,0,B|230:5|257:9,1,50,2|0,0:0|0:0,0:0:0
285,0,106701,2,0,B|329:21,1,50,4|0,0:0|0:0,0:0:0
331,50,106829,1,0,0:0:0
356,65,106893,1,0,0:0:0
385,68,106956,1,12,0:0:0
356,58,107020,1,0,0:0:0
327,65,107084,2,0,B|329:35|329:35|327:23|318:19,1,50,2|8,0:0|0:0,0:0:0
288,13,107212,1,8,0:0:0
258,5,107276,1,0,0:0:0
228,2,107339,1,2,0:0:0
244,26,107403,1,0,0:0:0
214,29,107467,1,0,0:0:0
194,6,107531,5,2,0:0:0
175,29,107595,5,0,0:0:0
151,47,107658,1,0,0:0:0
125,63,107722,2,0,B|159:99,1,50,8|0,0:0|0:0,0:0:0
186,110,107850,2,0,B|184:110|184:110|184:108|184:108|182:110|182:110|182:108|182:108|180:110|180:110|180:108|180:108|178:110|178:110|178:108|178:108|176:110|176:110|176:108|176:108|174:110|174:110|174:108|174:108|172:110|172:110|172:108|172:108|170:110|170:110|170:108|170:108|168:110|168:110|168:108|168:108|166:110|166:110|166:108|166:108|164:110|164:110|164:108|164:108|163:109,1,50,0|8,0:0|0:0,0:0:0
135,122,107978,1,10,0:0:0
116,145,108041,1,0,0:0:0
98,169,108105,1,10,0:0:0
68,170,108169,2,0,B|47:187|21:181,3,50,2|0|0|0,0:0|0:0|0:0|0:0,0:0:0
12,152,108424,1,0,0:0:0
18,122,108488,1,0,0:0:0
44,136,108552,1,0,0:0:0
57,109,108616,1,10,0:0:0
83,123,108680,1,0,0:0:0
58,105,108744,2,0,B|57:69|57:69|45:60,1,50,0|4,0:0|0:0,0:0:0
31,33,108871,1,0,0:0:0
20,5,108935,2,0,B|5:13|-1:32|-1:32|6:45,1,50,8|0,0:0|0:0,0:0:0
2,74,109062,1,12,0:0:0
20,97,109126,1,8,0:0:0
44,114,109190,2,0,B|39:140|15:152,1,50,8|2,0:0|0:0,0:0:0
19,181,109318,1,0,0:0:0
22,210,109381,2,0,B|28:236|11:256,3,50,0|2|0|8,0:0|0:0|0:0|0:0,0:0:0
1,284,109637,1,8,0:0:0
20,306,109701,2,0,B|6:315|2:335|2:335|11:348,1,50,0|0,0:0|0:0,0:0:0
12,377,109828,1,0,0:0:0
41,374,109892,1,8,0:0:0
68,384,109956,1,0,0:0:0
95,371,110020,1,0,0:0:0
124,369,110084,1,0,0:0:0
150,354,110147,1,0,0:0:0
126,335,110211,1,12,0:0:0
118,306,110275,1,10,0:0:0
89,298,110339,2,0,B|62:302|50:326,1,50,0|0,0:0|0:0,0:0:0
21,317,110467,1,0,0:0:0
5,291,110530,1,0,0:0:0
34,289,110594,2,0,B|36:302|36:302|39:316|48:326|58:329,3,50,8|4|0|2,0:0|0:0|0:0|0:0,0:0:0
83,345,110850,1,8,0:0:0
112,349,110913,1,2,0:0:0
129,324,110977,2,0,B|129:310|140:303|140:303|151:295|152:282,1,50,0|0,0:0|0:0,0:0:0
139,254,111105,1,0,0:0:0
117,233,111169,1,0,0:0:0
142,217,111233,1,8,0:0:0
152,188,111296,1,0,0:0:0
155,158,111360,1,2,0:0:0
126,168,111424,1,0,0:0:0
105,189,111488,2,0,B|57:204,1,50,0|12,0:0|0:0,0:0:0
30,189,111616,6,0,B|33:238,1,50,0|8,0:0|0:0,0:0:0
60,226,111743,1,0,0:0:0
89,227,111807,2,0,B|100:238|120:238|120:238|131:227,1,50,0|4,0:0|0:0,0:0:0
158,215,111935,1,8,0:0:0
187,216,111998,1,0,0:0:0
215,207,112062,2,0,B|215:208|215:208|213:208|213:208|214:210|214:210|212:210|212:210|214:212|214:212|211:212|211:212|213:213|213:213|211:214|211:214|212:215|212:215|210:215|210:215|211:217|211:217|209:217|209:217|211:219|211:219|208:219|208:219|210:221|210:221|208:221|208:221|209:223|209:223|207:223|207:223|209:225|209:225|206:225|206:225|208:226|208:226|206:227|206:227|206:228,1,50,2|0,0:0|0:0,0:0:0
181,244,112190,1,12,0:0:0
157,262,112254,1,0,0:0:0
128,252,112318,2,0,B|118:265|98:269|98:269|85:260,1,50,0|8,0:0|0:0,0:0:0
66,236,112445,2,0,B|72:224|66:212|66:212|60:199|66:188,1,50,0|0,0:0|0:0,0:0:0
66,158,112573,1,0,0:0:0
57,129,112637,2,0,B|28:88,3,50,0|0|8|0,0:0|0:0|0:0|0:0,0:0:0
6,67,112892,1,0,0:0:0
5,96,112956,1,0,0:0:0
34,92,113020,1,0,0:0:0
60,105,113083,1,10,0:0:0
69,133,113147,1,0,0:0:0
87,156,113211,2,0,B|90:205,3,50,0|8|0|4,0:0|0:0|0:0|0:0,0:0:0
60,204,113466,2,0,B|24:169,1,50,4|0,0:0|0:0,0:0:0
2,147,113594,1,0,0:0:0
30,155,113658,2,0,B|47:185|47:185|62:187,1,50,0|0,0:0|0:0,0:0:0
91,184,113786,1,12,0:0:0
120,182,113849,1,8,0:0:0
148,172,113913,1,8,0:0:0
171,153,113977,1,0,0:0:0
196,137,114041,1,0,0:0:0
213,112,114105,1,0,0:0:0
242,107,114169,1,8,0:0:0
267,122,114232,1,0,0:0:0
295,112,114296,2,0,B|290:99|297:88|297:88|305:76|300:64,3,50,8|8|8|10,0:0|0:0|0:0|0:0,0:0:0
270,61,114552,2,0,B|270:59|270:59|267:60|267:60|268:58|268:58|266:58|266:58|267:56|267:56|265:57|265:57|266:55|266:55|263:55|263:55|264:53|264:53|262:54|262:54|263:52|263:52|261:52|261:52|262:50|262:50|259:51|259:51|260:49|260:49|258:49|258:49|259:47|259:47|257:48|257:48|258:46|258:46|255:46|255:46|256:44|256:44|254:45|254:45|254:43,1,50,0|0,0:0|0:0,0:0:0
235,19,114679,1,8,0:0:0
205,14,114743,1,0,0:0:0
176,5,114807,2,0,B|160:-1|142:6|142:6|135:20,1,50,6|0,0:0|0:0,0:0:0
105,26,114935,1,0,0:0:0
81,45,114998,5,0,0:0:0
55,28,115062,2,0,B|26:18|26:18|16:11|17:2,1,50,8|0,0:0|0:0,0:0:0
9,31,115190,5,0,0:0:0
21,58,115254,2,0,B|15:87|15:87|9:98|0:99,3,50,8|0|0|2,0:0|0:0|0:0|0:0,0:0:0
20,121,115509,1,0,0:0:0
49,127,115573,5,0,0:0:0
77,118,115637,1,0,0:0:0
77,147,115701,1,0,0:0:0
75,117,115764,1,2,0:0:0
98,98,115828,1,8,0:0:0
113,72,115892,2,0,B|133:54|131:27,3,50,2|8|8|0,0:0|0:0|0:0|0:0,0:0:0
104,12,116147,6,0,B|80:24|56:13,1,50,0|0,0:0|0:0,0:0:0
45,41,116275,2,0,B|33:65|45:88,1,50,8|8,0:0|0:0,0:0:0
15,83,116403,1,0,0:0:0
0,109,116467,1,8,0:0:0
24,92,116530,1,8,0:0:0
49,76,116594,2,0,B|71:61|73:34,1,50,10|2,0:0|0:0,0:0:0
49,15,116722,1,8,0:0:0
22,1,116785,1,0,0:0:0
10,28,116849,2,0,B|19:38|19:38|29:48|43:51|52:47,1,50,0|0,0:0|0:0,0:0:0
80,56,116977,2,0,B|57:76|57:76|51:86|55:94,1,50,0|0,0:0|0:0,0:0:0
37,118,117105,6,0,B|46:143|31:165,1,50,0|0,0:0|0:0,0:0:0
15,190,117232,1,0,0:0:0
27,217,117296,1,12,0:0:0
47,238,117360,2,0,B|59:248|61:268|61:268|51:280,1,50,2|0,0:0|0:0,0:0:0
70,302,117488,1,0,0:0:0
52,326,117551,2,0,B|39:320|39:320|26:315|12:317|5:324,3,50,0|0|0|0,0:0|0:0|0:0|0:0,0:0:0
0,294,117807,1,0,0:0:0
13,267,117871,1,0,0:0:0
42,261,117934,1,4,0:0:0
60,237,117998,1,8,0:0:0
52,207,118063,1,8,0:0:0
80,196,118127,5,8,0:0:0
108,206,118190,2,0,B|118:230|144:237,1,50,2|0,0:0|0:0,0:0:0
163,260,118318,1,0,0:0:0
182,282,118382,1,0,0:0:0
211,286,118446,2,0,B|224:287|230:299|230:299|237:311|250:313,1,50,8|8,0:0|0:0,0:0:0
248,342,118573,1,0,0:0:0
222,357,118637,2,0,B|172:360,1,50,2|0,0:0|0:0,0:0:0
148,341,118765,2,0,B|138:307|138:307|146:295,1,50,8|4,0:0|0:0,0:0:0
165,272,118893,6,0,B|170:259|163:248|163:248|156:236|161:224,1,50,0|0,0:0|0:0,0:0:0
172,196,119020,5,0,0:0:0
194,215,119084,1,0,0:0:0
223,211,119148,1,0,0:0:0
252,205,119212,1,0,0:0:0
279,193,119276,2,0,B|264:166|264:166|256:157|247:159,3,50,0|0|0|0,0:0|0:0|0:0|0:0,0:0:0
252,129,119531,2,0,B|228:116|223:90,3,50,8|0|8|0,0:0|0:0|0:0|0:0,0:0:0
199,71,119786,1,0,0:0:0
170,63,119850,1,0,0:0:0
163,33,119914,1,0,0:0:0
149,6,119978,1,4,0:0:0
119,0,120042,1,0,0:0:0
100,23,120105,2,0,B|116:70,1,50,0|0,0:0|0:0,0:0:0
110,99,120233,2,0,B|94:146,3,50,0|8|0|0,0:0|0:0|0:0|0:0,0:0:0
96,175,120488,1,4,0:0:0
94,204,120552,1,2,0:0:0
114,225,120615,2,0,B|105:199|120:177,1,50,4|0,0:0|0:0,0:0:0
128,148,120743,2,0,B|121:122|96:111,1,50,0|8,0:0|0:0,0:0:0
84,83,120871,1,2,0:0:0
92,54,120935,1,0,0:0:0
96,24,120998,1,2,0:0:0
77,0,121062,1,8,0:0:0
51,16,121126,6,0,B|59:41|44:63,3,50,0|0|2|0,0:0|0:0|0:0|0:0,0:0:0
72,72,121381,1,0,0:0:0
101,65,121445,2,0,B|141:35,1,50,0|0,0:0|0:0,0:0:0
170,33,121573,2,0,B|196:26|216:43,3,50,0|0|2|0,0:0|0:0|0:0|0:0,0:0:0
234,66,121828,2,0,B|262:75|262:75|272:82|271:92,1,50,8|0,0:0|0:0,0:0:0
241,98,121956,1,0,0:0:0
257,123,122020,1,4,0:0:0
235,102,122084,1,0,0:0:0
216,125,122147,1,8,0:0:0
186,130,122211,1,0,0:0:0
169,104,122275,5,2,0:0:0
144,86,122339,2,0,B|107:51,3,50,0|0|0|10,0:0|0:0|0:0|0:0,0:0:0
106,21,122594,1,2,0:0:0
77,10,122658,1,4,0:0:0
49,23,122722,1,12,0:0:0
20,13,122786,5,6,0:0:0
19,42,122850,1,0,0:0:0
6,69,122913,1,0,0:0:0
10,98,122977,5,8,0:0:0
11,127,123041,5,0,0:0:0
6,156,123105,2,0,B|49:131,1,50,0|0,0:0|0:0,0:0:0
78,126,123233,1,2,0:0:0
99,105,123296,2,0,B|100:105|100:105|99:107|99:107|101:107|101:107|100:108|100:108|102:108|102:108|101:110|101:110|103:110|103:110|102:112|102:112|104:112|104:112|103:114|103:114|105:114|105:114|104:115|104:115|106:115|106:115|105:117|105:117|107:117|107:117|106:119|106:119|108:119|108:119|107:121|107:121|109:121|109:121|108:122|108:122|110:122|110:122|109:124|109:124|110:124,1,50,0|0,0:0|0:0,0:0:0
128,147,123424,5,10,0:0:0
151,128,123488,1,0,0:0:0
163,100,123552,1,8,0:0:0
182,76,123616,1,12,0:0:0
153,67,123679,5,0,0:0:0
123,63,123743,1,0,0:0:0
94,54,123807,2,0,B|104:29|90:6,1,50,0|0,0:0|0:0,0:0:0
61,13,123935,2,0,B|15:33,1,50,0|8,0:0|0:0,0:0:0
24,61,124062,1,2,0:0:0
51,71,124126,1,12,0:0:0
76,86,124190,1,0,0:0:0
54,65,124254,1,8,0:0:0
25,57,124317,2,0,B|54:61|54:61|66:60|70:52,1,50,0|0,0:0|0:0,0:0:0
82,24,124445,1,2,0:0:0
103,2,124509,1,0,0:0:0
132,2,124573,1,8,0:0:0
118,28,124637,1,0,0:0:0
88,24,124700,2,0,B|72:27|54:17|54:17|50:2,1,50,0|2,0:0|0:0,0:0:0
20,7,124828,2,0,B|24:22|15:40|15:40|0:45,1,50,0|0,0:0|0:0,0:0:0
28,54,124955,1,8,0:0:0
37,25,125019,2,0,B|63:25|79:47,1,50,0|8,0:0|0:0,0:0:0
88,75,125147,5,8,0:0:0
106,51,125211,1,8,0:0:0
76,43,125275,1,2,0:0:0
56,65,125338,1,10,0:0:0
27,74,125402,2,0,B|12:26,1,50,0|0,0:0|0:0,0:0:0
8,55,125530,2,0,B|57:46,1,50,0|2,0:0|0:0,0:0:0
84,58,125658,2,0,B|100:105,1,50,8|0,0:0|0:0,0:0:0
127,115,125785,2,0,B|151:158,3,50,0|0|0|8,0:0|0:0|0:0|0:0,0:0:0
179,147,126041,1,4,0:0:0
208,139,126104,1,0,0:0:0
230,119,126168,1,8,0:0:0
259,116,126232,6,0,B|248:67,3,50,8|0|0|2,0:0|0:0|0:0|0:0,0:0:0
218,70,126487,1,8,0:0:0
188,73,126551,1,0,0:0:0
158,76,126615,1,8,0:0:0
129,66,126679,6,0,B|102:70|83:51,1,50,0|4,0:0|0:0,0:0:0
58,34,126807,5,0,0:0:0
29,44,126870,1,0,0:0:0
17,71,126934,1,0,0:0:0
15,100,126998,1,0,0:0:0
17,129,127062,5,0,0:0:0
23,158,127126,1,0,0:0:0
52,164,127190,1,0,0:0:0
23,154,127253,2,0,B|35:186|35:186|27:199,1,50,0|0,0:0|0:0,0:0:0
39,226,127381,2,0,B|44:241|37:259|37:259|22:265,1,50,4|0,0:0|0:0,0:0:0
11,293,127509,5,0,0:0:0
17,322,127573,1,0,0:0:0
16,351,127636,1,8,0:0:0
2,377,127700,1,0,0:0:0
31,377,127764,6,0,B|40:367|53:368|53:368|66:370|76:360,1,50,4|0,0:0|0:0,0:0:0
104,349,127892,1,4,0:0:0
74,341,127956,1,2,0:0:0
52,362,128019,6,0,B|52:363|52:363|49:362|49:362|50:364|50:364|48:364|48:364|49:366|49:366|47:365|47:365|47:367|47:367|45:366|45:366|46:369|46:369|44:368|44:368|44:370|44:370|42:369|42:369|43:371|43:371|41:371|41:371|42:373|42:373|39:372|39:372|40:374|40:374|38:374|38:374|39:376|39:376|37:375|37:375|37:377|37:377|35:376|35:376|35:378,3,50,0|8|0|0,0:0|0:0|0:0|0:0,0:0:0
5,374,128275,2,0,B|-3:348|14:326,1,50,0|0,0:0|0:0,0:0:0
10,296,128402,5,0,0:0:0
18,267,128466,6,0,B|65:282,1,50,0|0,0:0|0:0,0:0:0
93,292,128594,1,12,0:0:0
119,306,128658,1,0,0:0:0
119,276,128721,1,6,0:0:0
102,251,128785,1,0,0:0:0
72,248,128849,1,8,0:0:0
68,277,128913,2,0,B|77:278|77:278|98:300|98:300|100:309,3,50,0|8|0|2,0:0|0:0|0:0|0:0,0:0:0
129,311,129168,2,0,B|148:333|148:333|158:340|167:336,3,50,0|0|2|2,0:0|0:0|0:0|0:0,0:0:0
194,323,129424,6,0,B|208:275,1,50,10|8,0:0|0:0,0:0:0
203,245,129551,1,0,0:0:0
223,222,129615,1,0,0:0:0
237,195,129679,1,0,0:0:0
230,165,129743,1,0,0:0:0
225,135,129807,1,0,0:0:0
236,107,129870,1,0,0:0:0
245,78,129934,2,0,B|238:63|244:44|244:44|258:37,1,50,0|0,0:0|0:0,0:0:0
275,61,130062,2,0,B|243:100,3,50,0|0|0|0,0:0|0:0|0:0|0:0,0:0:0
232,128,130317,5,0,0:0:0
222,156,130381,5,8,0:0:0
194,168,130445,1,0,0:0:0
164,161,130509,2,0,B|120:185,1,50,0|0,0:0|0:0,0:0:0
133,157,130636,1,0,0:0:0
122,128,130700,2,0,B|131:118|128:104|128:104|125:91|134:81,3,50,0|0|0|0,0:0|0:0|0:0|0:0,0:0:0
148,54,130956,1,0,0:0:0
137,25,131019,2,0,B|124:35|104:35|104:35|94:23,1,50,12|0,0:0|0:0,0:0:0
101,52,131147,1,4,0:0:0
92,80,131211,2,0,B|107:83|119:99|119:99|116:115,3,50,0|0|0|0,0:0|0:0|0:0|0:0,0:0:0
124,143,131466,1,8,0:0:0
149,159,131530,5,8,0:0:0
171,178,131594,2,0,B|201:177|201:177|212:173|215:164,3,50,0|12|0|0,0:0|0:0|0:0|0:0,0:0:0
231,189,131849,1,0,0:0:0
234,218,131913,1,0,0:0:0
206,229,131977,5,0,0:0:0
201,258,132041,1,8,0:0:0
212,285,132104,1,8,0:0:0
238,299,132168,1,0,0:0:0
256,322,132232,1,0,0:0:0
285,319,132296,1,0,0:0:0
310,303,132360,6,0,B|324:302|334:293|334:293|347:293|355:285,1,50,0|10,0:0|0:0,0:0:0
384,282,132487,1,0,0:0:0
408,299,132551,2,0,B|358:300,1,50,0|0,0:0|0:0,0:0:0
328,299,132679,2,0,B|324:285|333:275|333:275|341:265|338:252,1,50,0|0,0:0|0:0,0:0:0
351,225,132807,2,0,B|377:221|396:239,1,50,0|0,0:0|0:0,0:0:0
411,264,132935,2,0,B|371:295,1,50,0|0,0:0|0:0,0:0:0
357,322,133062,1,2,0:0:0
370,348,133126,1,0,0:0:0
399,350,133190,1,0,0:0:0
421,370,133254,2,0,B|469:356,1,50,0|0,0:0|0:0,0:0:0
478,327,133382,1,8,0:0:0
483,297,133446,1,8,0:0:0
492,268,133509,1,8,0:0:0
496,238,133573,1,8,0:0:0
473,217,133637,1,0,0:0:0
498,201,133701,1,8,0:0:0
505,229,133765,2,0,B|505:179,1,50,0|0,0:0|0:0,0:0:0
508,149,133892,1,0,0:0:0
478,155,133956,6,0,B|454:167|430:156,3,50,0|2|0|8,0:0|0:0|0:0|0:0,0:0:0
444,182,134212,5,0,0:0:0
468,165,134275,1,8,0:0:0
497,160,134339,2,0,B|490:174|496:193|496:193|510:200,1,50,8|0,0:0|0:0,0:0:0
502,229,134467,5,0,0:0:0
511,257,134531,1,8,0:0:0
508,286,134595,2,0,B|483:290|483:290|500:308,1,50,0|0,0:0|0:0,0:0:0
497,337,134722,1,0,0:0:0
510,363,134786,1,0,0:0:0
492,338,134850,1,8,0:0:0
462,331,134914,2,0,B|442:347|442:347|439:322,1,50,0|0,0:0|0:0,0:0:0
437,351,135041,1,0,0:0:0
460,369,135105,1,0,0:0:0
430,369,135169,1,0,0:0:0
400,375,135233,1,0,0:0:0
423,356,135297,2,0,B|436:364|456:361|456:361|465:348,1,50,2|2,0:0|0:0,0:0:0
478,321,135424,2,0,B|451:325|431:307,1,50,2|0,0:0|0:0,0:0:0
402,317,135552,1,4,0:0:0
378,298,135616,1,2,0:0:0
407,305,135680,1,10,0:0:0
420,331,135744,1,10,0:0:0
448,322,135807,1,2,0:0:0
427,300,135871,1,8,0:0:0
407,276,135935,1,0,0:0:0
379,263,135999,1,8,0:0:0
397,239,136063,1,8,0:0:0
426,241,136127,2,0,B|427:254|427:254|429:268|439:279|448:282,1,50,0|8,0:0|0:0,0:0:0
456,310,136254,1,0,0:0:0
482,323,136318,1,8,0:0:0
486,352,136382,1,0,0:0:0
484,381,136446,2,0,B|470:381|470:381|456:382|443:375|439:366,1,50,10|0,0:0|0:0,0:0:0
422,341,136573,5,8,0:0:0
427,311,136637,1,8,0:0:0
450,292,136701,2,0,B|496:272,3,50,0|0|0|0,0:0|0:0|0:0|0:0,0:0:0
494,242,136956,1,8,0:0:0
504,213,137020,2,0,B|504:198|496:188|496:188|497:175|489:166,3,50,8|0|0|0,0:0|0:0|0:0|0:0,0:0:0
474,139,137275,1,0,0:0:0
452,117,137339,1,0,0:0:0
443,145,137403,1,4,0:0:0
466,163,137467,1,0,0:0:0
481,188,137531,5,0,0:0:0
500,210,137595,1,0,0:0:0
505,239,137658,2,0,B|491:266|491:266|484:275|474:273,1,50,0|0,0:0|0:0,0:0:0
474,302,137786,1,8,0:0:0
469,331,137850,2,0,B|449:312|423:316,1,50,0|0,0:0|0:0,0:0:0
403,293,137978,1,8,0:0:0
400,263,138041,1,8,0:0:0
389,235,138105,6,0,B|391:221|391:221|393:207|403:196|412:194,1,50,0|0,0:0|0:0,0:0:0
411,164,138233,5,0,0:0:0
409,134,138297,1,0,0:0:0
433,117,138361,1,0,0:0:0
410,97,138424,1,0,0:0:0
402,126,138488,1,0,0:0:0
422,147,138552,2,0,B|447:156|454:182,1,50,8|0,0:0|0:0,0:0:0
483,186,138680,1,8,0:0:0
475,215,138744,1,8,0:0:0
449,230,138807,2,0,B|422:236|402:219,3,50,0|0|0|0,0:0|0:0|0:0|0:0,0:0:0
378,200,139063,1,0,0:0:0
348,193,139127,2,0,B|321:178|321:178|310:175|303:182,1,50,2|0,0:0|0:0,0:0:0
273,188,139254,1,8,0:0:0
252,209,139318,1,2,0:0:0
222,202,139382,1,0,0:0:0
224,172,139446,1,0,0:0:0
235,144,139509,1,8,0:0:0
226,115,139573,1,8,0:0:0
225,85,139637,1,0,0:0:0
233,56,139701,1,12,0:0:0
234,26,139765,5,0,0:0:0
259,10,139829,2,0,B|288:5|288:5|300:7|304:16,3,50,0|8|0|2,0:0|0:0|0:0|0:0,0:0:0
332,8,140084,2,0,B|326:21|330:33|330:33|324:45|329:56,1,50,8|0,0:0|0:0,0:0:0
303,71,140212,1,8,0:0:0
314,98,140275,1,0,0:0:0
285,107,140339,2,0,B|236:97,3,50,0|0|8|0,0:0|0:0|0:0|0:0,0:0:0
210,81,140595,1,4,0:0:0
204,51,140658,2,0,B|184:32|187:5,3,50,8|0|0|0,0:0|0:0|0:0|0:0,0:0:0
159,17,140914,1,12,0:0:0
141,41,140978,1,8,0:0:0
161,62,141041,1,0,0:0:0
190,67,141105,2,0,B|197:92|222:102,1,50,0|0,0:0|0:0,0:0:0
243,80,141233,2,0,B|233:54|207:47,1,50,8|0,0:0|0:0,0:0:0
178,37,141361,2,0,B|167:61|140:67,1,50,12|6,0:0|0:0,0:0:0
127,94,141488,1,0,0:0:0
