osu file format v9

[General]
AudioFilename: goreshit - Satori De Pon!.mp3
AudioLeadIn: 0
PreviewTime: 27059
Countdown: 0
SampleSet: Normal
StackLeniency: 0.7
Mode: 1
LetterboxInBreaks: 0

[Editor]
DistanceSpacing: 0.8
BeatDivisor: 4
GridSize: 8

[Metadata]
Title:Satori De Pon!
Artist:goreshit
Creator:[CSGA]Ar3sgice
Version:Taiko Oni
Source:
Tags:marisa lolicore hardcore Backfire Hyperhappyhardcore Dance Corps 2 Gasaiyuno-chan DCRPS018 breakcore OnosakiHito eldnl

[Difficulty]
HPDrainRate:5
CircleSize:5
OverallDifficulty:5
ApproachRate:5
SliderMultiplier:1.4
SliderTickRate:2

[Events]
//Background and Video events
0,0,"SatoriDePonTaikoBG233.jpg"
//Break Periods
//Storyboard Layer 0 (Background)
//Storyboard Layer 1 (Fail)
//Storyboard Layer 2 (Pass)
//Storyboard Layer 3 (Foreground)
//Storyboard Sound Samples
//Background Colour Transformations
3,100,163,162,255

[TimingPoints]
190,332.963374028857,4,1,1,71,1,0
6849,330.396475770925,4,1,1,71,1,0
8170,638.297872340426,4,1,1,71,1,0
9446,333.333333333333,4,1,1,71,1,0
9946,352.941176470588,4,1,1,71,1,0
10122,333.333333333333,4,1,1,71,1,0
10288,324.324324324324,4,1,1,71,1,0
10450,315.789473684211,4,1,1,71,1,0
10765,255.31914893617,4,1,0,100,1,0

[Colours]
Combo1 : 0,0,0
Combo2 : 255,255,0
Combo3 : 0,128,192

[HitObjects]
256,192,9446,5,2
256,192,9612,1,2
256,192,9779,1,8
256,192,9946,1,2
256,192,10122,1,2
256,192,10205,1,0
256,224,10288,1,2
256,192,10369,1,0
256,224,10450,1,0
256,192,10528,1,0
256,224,10607,1,0
256,192,10686,1,0
256,192,10765,1,0
256,192,10892,1,2
256,192,11020,1,2
256,192,11147,1,2
256,192,11403,1,2
256,192,11658,1,2
256,192,11786,5,0
256,192,11914,1,0
256,192,12042,1,2
256,192,12169,1,2
256,192,12424,1,0
256,192,12679,1,2
256,192,12807,5,0
256,192,12935,1,0
256,192,13062,1,2
256,128,13190,5,0
256,128,13318,1,2
256,192,13445,1,0
256,128,13573,1,2
160,96,13828,5,2
96,96,13956,1,2
128,160,14084,1,2
96,96,14211,1,0
160,96,14339,1,0
224,64,14467,1,0
288,96,14594,1,0
352,64,14722,1,2
384,96,14850,5,0
416,128,14977,1,0
416,192,15105,1,2
448,224,15233,1,0
416,256,15360,1,0
384,224,15488,1,0
352,192,15616,1,2
320,224,15743,5,2
288,256,15871,1,2
256,192,15999,1,0
224,256,16126,1,0
192,224,16254,1,0
160,256,16382,1,0
128,224,16509,1,0
160,192,16637,1,0
160,128,16764,1,0
192,96,16892,5,2
224,64,17020,1,2
288,64,17147,1,2
320,96,17275,1,0
320,160,17403,1,0
320,224,17530,1,2
256,256,17658,1,0
224,192,17786,1,0
256,128,17913,5,2
256,128,17977,1,2
256,128,18041,1,2
256,128,18105,1,0
256,128,18169,1,2
256,128,18233,1,2
256,128,18296,1,2
320,96,18424,1,0
384,128,18552,1,0
448,96,18679,1,0
480,160,18807,1,0
416,192,18935,1,0
448,224,19062,1,2
448,256,19126,1,0
448,288,19190,1,2
384,320,19318,1,0
384,256,19445,1,0
320,224,19573,1,0
320,256,19637,1,2
320,288,19701,1,0
256,320,19828,1,0
256,288,19892,1,0
256,256,19956,1,0
256,192,20084,1,2
256,128,20211,1,2
256,64,20339,1,0
192,96,20467,1,0
320,96,20594,1,0
320,160,20722,1,0
224,192,20977,5,0
160,192,21105,1,2
192,256,21233,1,0
128,256,21360,1,2
96,192,21488,1,0
128,128,21616,1,0
192,128,21743,1,0
288,96,21999,5,2
352,96,22126,1,0
384,160,22254,1,2
352,224,22382,1,0
288,224,22509,5,0
256,160,22637,5,2
224,224,22764,5,2
192,160,22892,5,0
160,224,23020,5,2
128,160,23147,1,0
160,96,23275,1,2
224,64,23403,1,2
288,96,23530,1,2
320,160,23658,1,0
288,224,23786,1,2
224,256,23913,1,2
192,320,24041,5,2
128,288,24169,1,2
96,224,24296,1,0
96,160,24424,1,0
128,96,24552,1,2
160,160,24679,1,0
224,64,24807,1,2
224,128,24935,1,2
288,96,25062,5,0
352,96,25190,1,2
384,160,25318,1,0
320,160,25445,1,0
256,160,25573,5,0
288,224,25701,1,0
352,224,25828,1,0
320,288,25956,1,0
256,288,26084,5,2
224,224,26211,1,0
192,288,26339,1,2
160,224,26467,1,2
128,288,26594,5,2
96,224,26722,1,2
128,160,26850,1,2
96,96,26977,1,2
160,96,27105,5,2
224,64,27233,1,0
320,64,27488,1,2
352,96,27616,1,0
384,128,27743,1,0
416,160,27871,1,2
384,256,28126,5,2
320,256,28254,1,0
256,160,28509,1,0
224,224,28637,1,0
192,160,28764,1,2
224,96,28892,1,2
128,32,29147,5,2
128,64,29211,1,2
96,64,29275,1,0
64,160,29530,1,2
64,224,29658,1,2
96,288,29786,1,0
152,288,29913,1,8
256,192,30169,5,2
256,192,30233,1,0
256,192,30296,1,2
256,192,30360,1,2
256,192,30424,1,2
256,192,30488,1,0
256,192,30552,1,0
256,192,30616,1,0
256,192,30679,1,0
256,192,30743,1,2
256,192,30807,1,0
256,192,30871,1,0
256,192,30935,1,0
256,192,30999,1,0
256,192,31062,1,0
256,192,31190,1,0
256,128,31318,1,0
320,64,31509,5,2
384,64,31637,1,0
352,128,31764,1,2
416,128,31892,1,0
480,256,32211,5,2
448,256,32275,1,2
416,256,32339,1,0
320,320,32594,5,2
256,288,32722,1,2
192,320,32850,1,0
128,288,32977,1,2
128,160,33233,5,2
160,96,33360,1,2
192,160,33488,1,2
224,96,33616,1,2
256,160,33743,1,0
288,96,33871,1,2
320,160,33999,1,2
352,96,34126,1,0
384,160,34254,5,2
384,192,34318,1,2
416,192,34382,1,2
416,160,34445,1,0
448,160,34509,1,0
448,192,34573,1,0
448,224,34637,1,0
416,224,34701,1,0
384,224,34764,1,2
384,256,34828,1,0
416,256,34892,1,0
448,256,34956,1,2
448,288,35020,1,0
416,288,35084,1,0
384,288,35147,1,2
320,256,35275,5,0
320,256,35403,1,2
256,160,35658,5,2
224,96,35786,1,0
192,160,35913,1,2
160,96,36041,1,2
96,192,36296,5,0
128,224,36360,1,0
160,256,36424,1,0
224,288,36552,5,2
288,256,36679,1,2
352,288,36807,1,2
384,256,36935,1,2
416,192,37062,1,2
416,160,37126,1,0
416,128,37190,1,0
384,64,37318,5,2
320,64,37445,1,2
256,64,37573,1,0
192,64,37701,1,2
192,128,37828,1,2
192,192,37956,1,0
192,256,38084,1,0
192,320,38211,1,0
256,320,38339,1,2
320,320,38467,1,0
384,320,38594,1,0
448,320,38722,1,0
448,256,38850,1,2
448,192,38977,1,0
448,128,39105,1,2
448,64,39233,1,0
384,64,39360,5,0
320,128,39488,1,0
288,96,39616,1,0
224,160,39871,1,2
192,192,39999,1,2
192,256,40126,1,0
256,320,40382,5,0
352,320,40509,1,0
352,256,40637,1,2
448,256,40892,1,2
448,192,41020,1,0
400,160,41147,1,8
352,192,41275,1,0
304,216,41403,1,2
352,184,41530,1,0
256,96,41658,1,2
224,192,41913,1,0
256,320,42169,1,2
160,320,42424,5,0
160,320,42488,1,0
160,320,42552,1,0
160,320,42616,1,2
160,320,42679,1,2
160,320,42743,1,2
160,320,42807,1,2
160,320,42871,1,0
160,320,42935,1,0
160,320,42999,1,2
160,320,43062,1,2
160,320,43126,1,2
160,320,43190,1,0
160,320,43254,1,0
160,320,43318,1,0
160,320,43382,1,2
160,288,43445,5,2
160,224,43573,1,2
160,160,43701,1,2
160,96,43828,1,2
224,96,43956,1,0
288,96,44084,1,2
352,96,44211,1,2
352,160,44339,1,0
352,224,44467,5,2
288,224,44594,1,0
320,288,44722,1,2
256,288,44850,1,0
224,256,44977,1,2
192,192,45105,1,0
224,160,45233,1,0
224,96,45360,1,0
160,96,45488,5,2
96,96,45616,1,0
128,160,45743,2,0,B|64:160|128:192|128:192|160:224|96:224,2,140,0|0|0
224,128,46509,5,0
288,96,46637,1,0
352,128,46764,1,2
352,192,46892,1,0
288,224,47020,1,2
224,192,47147,1,0
224,256,47275,1,2
288,288,47403,1,0
256,320,47530,1,2
224,352,47786,1,0
128,224,48041,5,0
96,160,48169,1,0
128,96,48296,1,2
224,96,48552,1,0
256,192,48807,1,2
288,96,49062,1,2
320,96,49126,1,0
352,96,49190,1,0
416,96,49318,1,0
416,192,49573,5,0
416,224,49637,1,0
384,192,49701,1,0
384,224,49764,1,0
352,192,49828,1,0
352,224,49892,1,0
320,192,49956,1,0
320,224,50020,1,0
288,224,50084,1,0
256,128,50339,1,0
256,32,50594,1,2
224,64,50722,1,0
192,96,50786,1,0
192,128,50850,1,2
192,160,50913,1,0
192,192,50977,1,0
192,224,51041,1,0
192,256,51105,1,0
192,288,51169,1,0
224,320,51233,1,0
256,320,51296,1,0
288,320,51360,1,0
320,320,51424,1,0
352,320,51488,1,0
384,320,51552,1,2
416,288,51616,5,2
416,192,51871,1,0
416,96,52126,1,0
352,96,52254,1,0
288,96,52382,1,0
192,160,52637,5,0
96,160,52892,1,2
128,256,53147,1,0
160,256,53211,1,2
192,288,53275,1,2
256,288,53403,1,2
288,192,53658,5,0
288,160,53722,1,2
288,128,53786,1,0
352,128,53913,1,2
352,160,53977,1,0
352,192,54041,1,0
416,192,54169,1,0
416,160,54233,1,2
416,128,54296,1,0
480,128,54424,1,2
480,160,54488,1,2
480,192,54552,1,2
480,256,54679,5,2
448,256,54743,1,0
416,256,54807,1,2
416,320,54935,1,2
384,320,54999,1,2
352,320,55062,1,0
352,256,55190,1,2
320,256,55254,1,2
288,256,55318,1,2
288,320,55445,1,2
256,320,55509,1,2
224,320,55573,1,0
160,320,55701,5,2
160,256,55828,1,0
160,192,55956,1,2
160,128,56084,1,2
192,96,56211,1,2
224,96,56275,1,2
256,96,56339,1,2
320,96,56467,1,0
384,128,56594,1,2
416,192,56722,5,0
416,224,56786,1,2
416,256,56850,1,2
384,224,56977,1,2
384,256,57041,1,0
384,288,57105,1,0
352,256,57233,1,0
352,288,57296,1,2
352,320,57360,1,0
320,288,57488,1,2
320,320,57552,1,2
320,352,57616,1,0
256,320,57743,5,2
224,288,57807,1,0
192,256,57871,1,0
224,224,57935,1,0
256,192,57998,1,2
288,160,58062,1,0
320,128,58126,1,0
288,96,58190,1,0
256,64,58254,1,2
256,64,58318,1,0
256,64,58381,1,2
256,64,58445,1,2
256,64,58509,1,2
256,64,58573,1,0
224,64,58637,1,2
256,192,58764,12,0,59530
160,96,59786,5,2
128,160,59914,1,0
128,256,60169,1,2
160,288,60297,1,2
192,320,60424,1,2
224,352,60552,1,0
320,320,60807,5,2
320,256,60935,1,0
224,192,61190,1,0
288,160,61318,1,0
224,128,61445,1,2
160,160,61573,1,2
96,64,61828,5,2
128,64,61892,1,0
128,32,61956,1,0
224,0,62211,1,0
288,0,62339,1,2
352,32,62467,1,2
352,64,62531,1,2
352,96,62594,1,2
256,192,62850,5,0
256,192,62914,1,0
256,192,62977,1,2
256,192,63041,1,2
256,192,63105,1,2
256,192,63169,1,2
256,192,63233,1,0
256,192,63297,1,2
256,192,63360,1,0
256,192,63424,1,0
256,192,63488,1,0
256,192,63552,1,2
256,192,63616,1,0
256,192,63680,1,2
256,192,63743,1,0
256,192,63871,1,2
192,192,63999,1,2
128,256,64190,5,0
128,320,64318,1,2
192,288,64445,1,2
192,352,64573,1,0
320,416,64892,5,0
320,384,64956,1,0
320,352,65020,1,0
384,256,65275,5,2
352,192,65403,1,0
384,128,65531,1,2
352,64,65658,1,0
224,64,65914,5,0
160,96,66041,1,0
224,128,66169,1,0
160,160,66297,1,2
224,192,66424,1,2
160,224,66552,1,2
224,256,66680,1,2
160,288,66807,1,0
224,320,66935,5,2
256,320,66999,1,2
256,352,67063,1,0
224,352,67126,1,2
224,384,67190,1,2
256,384,67254,1,0
288,384,67318,1,2
288,352,67382,1,0
288,320,67445,1,0
320,320,67509,1,0
320,352,67573,1,2
320,384,67637,1,0
352,384,67701,1,2
352,352,67765,1,2
352,320,67828,1,0
320,256,67956,5,0
320,256,68084,1,0
224,192,68339,5,2
160,160,68467,1,0
224,128,68594,1,0
160,96,68722,1,2
256,32,68977,5,2
288,64,69041,1,0
320,96,69105,1,0
352,160,69233,5,2
320,224,69360,1,0
352,288,69488,1,0
320,320,69616,1,0
256,352,69743,1,0
224,352,69807,1,0
192,352,69871,1,2
128,320,69999,5,0
128,256,70126,1,0
128,192,70254,1,0
128,128,70382,1,0
192,128,70509,1,2
256,128,70637,1,2
320,128,70765,1,0
384,128,70892,1,2
384,192,71020,1,0
384,256,71148,1,0
384,320,71275,1,0
384,384,71403,1,2
320,384,71531,1,2
256,384,71658,1,2
192,384,71786,1,0
128,384,71914,1,0
128,320,72041,5,2
192,256,72169,1,2
160,224,72296,1,0
224,160,72552,1,0
256,128,72679,1,0
320,128,72807,1,2
384,192,73063,5,2
384,288,73254,1,0
320,288,73382,1,2
320,384,73573,1,0
256,384,73701,1,2
256,192,74084,12,0,75105
256,0,75169,5,2
288,0,75233,1,0
320,0,75296,1,0
320,32,75360,1,2
288,32,75424,1,2
256,32,75488,1,2
256,64,75552,1,0
288,64,75616,1,2
320,64,75679,1,2
320,96,75743,1,0
288,96,75807,1,2
256,96,75871,1,0
256,128,75935,1,2
288,128,75999,1,0
320,128,76062,1,2
352,128,76126,1,2
352,240,76382,5,8
256,296,76637,1,8
160,352,76892,1,8
256,296,77147,1,8
160,352,77403,1,8
256,296,77658,1,8
352,240,77913,1,8
256,296,78169,1,8
256,184,78424,1,8
256,296,78679,1,8
256,184,78935,1,8
256,296,79190,1,8
344,360,79445,1,8
256,296,79701,1,8
168,360,79956,1,8
256,296,80211,1,8
256,296,80467,1,8
256,296,80722,1,8
256,296,80977,1,8
256,296,81233,1,8
256,296,81488,1,8
256,296,81743,1,8
256,296,81999,1,8
256,296,82254,1,8
256,296,82509,1,8
256,296,82764,1,8
256,296,83020,1,8
256,296,83275,1,8
256,296,83530,1,8
256,296,83786,1,8
256,296,84041,1,8
256,192,84296,5,2
256,192,84552,1,2
256,192,84807,1,2
256,192,85062,1,2
256,192,85318,1,2
256,192,85573,1,2
256,192,85828,1,2
256,192,86084,1,2
256,192,86211,1,2
256,192,86339,1,2
256,192,86594,1,2
256,192,86850,1,2
256,192,87105,1,2
256,192,87360,1,2
256,192,87616,1,2
256,192,87871,1,2
256,192,87999,1,2
256,192,88126,1,2
256,192,88254,1,2
256,192,88382,1,2
256,192,88637,1,2
256,192,88892,1,2
256,192,89147,1,2
256,192,89403,1,2
256,192,89658,1,2
256,192,89913,1,2
256,192,90169,1,2
256,192,90296,1,2
256,192,90424,1,2
256,192,90679,1,2
256,192,90935,1,2
256,192,91190,1,2
256,192,91445,1,8
288,192,91509,1,10
288,160,91573,1,8
256,160,91637,1,8
256,128,91701,1,8
288,128,91764,1,10
288,96,91828,1,8
256,64,91892,1,10
224,64,91956,1,8
224,96,92020,1,10
192,128,92084,1,8
160,128,92147,1,8
128,160,92211,1,10
128,192,92275,1,8
160,224,92339,1,8
256,192,92466,5,2
256,192,92722,1,2
256,192,92977,1,2
256,192,93232,1,2
256,192,93488,1,2
256,192,93743,1,2
256,192,93998,1,2
256,192,94254,1,2
256,192,94381,1,2
256,192,94509,1,2
256,192,94764,1,2
256,192,95020,1,2
256,192,95275,1,2
256,192,95530,1,2
256,192,95786,1,2
256,192,96041,1,2
256,192,96169,1,2
256,192,96296,1,2
256,192,96424,1,2
256,192,96552,1,2
256,192,96807,1,2
256,192,97062,1,2
256,192,97317,1,2
256,192,97573,1,2
256,192,97828,1,2
256,192,98083,1,2
256,192,98339,1,2
256,192,98466,1,2
256,192,98594,1,2
256,192,98849,1,2
256,192,99105,1,2
256,192,99360,1,2
256,192,99615,1,2
288,160,99743,1,2
256,160,99807,1,2
256,128,99871,1,2
288,128,99934,1,2
288,96,99998,1,2
256,64,100062,1,2
224,64,100126,1,2
224,96,100190,1,2
192,128,100254,1,2
160,128,100317,1,2
128,160,100381,1,2
128,192,100445,1,2
160,224,100509,1,2
160,96,100637,5,0
128,160,100765,1,2
128,256,101020,1,0
160,288,101148,1,2
192,320,101275,1,2
224,352,101403,1,0
320,320,101658,5,2
320,256,101786,1,0
224,192,102041,1,2
288,160,102169,1,0
224,128,102296,1,0
160,160,102424,1,0
96,64,102679,5,0
128,64,102743,1,0
128,32,102807,1,2
224,0,103062,1,2
288,0,103190,1,0
288,192,103318,1,2
352,64,103382,1,2
352,96,103445,1,0
256,192,103701,5,2
256,192,103765,1,0
256,192,103828,1,2
256,192,103892,1,2
256,192,103956,1,0
256,192,104020,1,0
256,192,104084,1,0
256,192,104148,1,2
256,192,104211,1,2
256,192,104275,1,2
256,192,104339,1,0
256,192,104403,1,2
256,192,104467,1,0
256,192,104531,1,0
256,192,104594,1,2
256,192,104722,1,2
192,192,104850,1,0
128,256,104977,5,2
128,320,105105,1,0
192,288,105232,1,2
192,352,105360,1,2
320,416,105743,5,0
320,384,105807,1,2
320,352,105871,1,0
384,256,106126,5,0
352,192,106254,1,0
384,128,106382,1,0
352,64,106509,1,0
224,64,106765,5,2
160,96,106892,1,2
224,128,107020,1,2
160,160,107148,1,2
224,192,107275,1,0
160,224,107403,1,0
224,256,107531,1,2
160,288,107658,1,2
224,320,107786,5,0
256,320,107850,1,2
256,352,107914,1,2
224,352,107977,1,2
224,384,108041,1,0
256,384,108105,1,0
288,384,108169,1,0
288,352,108233,1,2
288,320,108296,1,2
320,320,108360,1,0
320,352,108424,1,0
320,384,108488,1,2
352,384,108552,1,0
352,352,108616,1,2
352,320,108679,1,0
320,256,108807,5,0
320,256,108935,1,2
224,192,109190,5,0
160,160,109318,1,0
224,128,109445,1,0
160,96,109573,1,0
256,32,109828,5,2
288,64,109892,1,0
320,96,109956,1,0
352,160,110084,5,2
320,224,110211,1,2
352,288,110339,1,0
320,320,110467,1,2
256,352,110594,1,0
224,352,110658,1,0
192,352,110722,1,2
128,320,110850,5,0
128,256,110977,1,0
128,192,111105,1,2
128,128,111233,1,0
192,128,111360,1,2
256,128,111488,1,2
320,128,111616,1,0
384,128,111743,1,2
384,192,111871,1,2
384,256,111999,1,2
384,320,112126,1,0
384,384,112254,1,0
320,384,112382,1,0
256,384,112509,1,2
192,384,112637,1,0
128,384,112765,1,0
128,320,112892,5,0
192,256,113020,1,0
160,224,113147,1,2
224,160,113403,1,2
256,128,113530,1,2
320,128,113658,1,2
384,192,113914,5,2
384,288,114041,1,2
320,288,114169,1,2
320,384,114424,1,2
256,384,114552,1,0
256,216,114935,5,0
200,200,115062,1,0
144,216,115190,1,8
152,328,115445,1,0
112,296,115573,1,0
80,248,115701,1,8
256,0,116020,5,2
288,0,116084,1,0
320,0,116147,1,2
320,32,116211,1,2
288,32,116275,1,2
256,32,116339,1,2
256,64,116403,1,2
288,64,116467,1,2
320,64,116530,1,0
320,96,116594,1,0
288,96,116658,1,0
256,96,116722,1,0
256,128,116786,1,0
288,128,116850,1,2
160,96,116977,5,2
128,160,117105,1,0
128,256,117360,1,0
160,288,117488,1,0
192,320,117615,1,2
224,352,117743,1,0
320,320,117998,5,2
320,256,118126,1,2
224,192,118381,1,0
288,160,118509,1,2
224,128,118636,1,0
160,160,118764,1,0
96,64,119019,5,0
128,64,119083,1,0
128,32,119147,1,0
224,0,119402,1,0
288,0,119530,1,2
352,32,119658,1,2
352,64,119722,1,2
352,96,119785,1,2
256,192,120041,5,0
256,192,120105,1,2
256,192,120168,1,0
256,192,120232,1,0
256,192,120296,1,0
256,192,120360,1,0
256,192,120424,1,2
256,192,120488,1,2
256,192,120551,1,2
256,192,120615,1,2
256,192,120679,1,2
256,192,120743,1,0
256,192,120807,1,0
256,192,120871,1,2
256,192,120934,1,2
256,192,121062,1,2
192,192,121190,1,0
128,256,121318,5,0
128,320,121446,1,2
192,288,121573,1,0
192,352,121701,1,2
320,416,122083,5,0
320,384,122147,1,0
320,352,122211,1,0
384,256,122466,5,2
352,192,122594,1,2
384,128,122722,1,0
352,64,122849,1,0
224,64,123105,5,2
160,96,123232,1,0
224,128,123360,1,0
160,160,123488,1,0
224,192,123615,1,0
160,224,123743,1,0
224,256,123871,1,0
160,288,123998,1,2
224,320,124126,5,2
256,320,124190,1,0
256,352,124254,1,0
224,352,124317,1,0
224,384,124381,1,0
256,384,124445,1,2
288,384,124509,1,2
288,352,124573,1,2
288,320,124636,1,2
320,320,124700,1,0
320,352,124764,1,2
320,384,124828,1,0
352,352,124892,1,0
352,352,124956,1,0
352,320,125019,1,2
320,256,125147,5,2
320,256,125275,1,0
320,192,125403,1,2
320,192,125530,1,2
320,128,125658,1,2
320,64,125786,1,0
320,64,125913,1,0
256,96,126041,5,2
256,96,126169,1,0
256,160,126296,1,2
256,160,126424,1,2
320,256,126552,5,2
320,256,126680,1,0
320,192,126808,1,0
320,192,126935,1,0
320,128,127063,1,2
320,64,127191,1,0
320,64,127318,1,0
256,96,127446,5,2
256,96,127574,1,0
256,160,127701,1,0
256,160,127829,1,2
320,256,127956,1,2
320,192,128084,1,0
320,192,128211,1,0
320,128,128339,1,2
320,64,128467,1,2
320,64,128594,1,0
256,96,128722,5,0
256,96,128850,1,2
256,160,128977,1,0
256,160,129105,1,0
320,256,129233,5,2
320,256,129361,1,2
320,192,129489,1,2
320,192,129616,1,2
320,128,129744,1,0
320,64,129872,1,2
320,64,129999,1,0
256,96,130127,5,2
256,96,130255,1,0
256,160,130382,1,2
256,160,130510,1,0
256,160,130764,1,0
256,160,131020,1,0
256,160,131275,1,0
256,160,131403,1,0
256,160,131530,1,2
256,160,131786,1,0
256,160,132041,1,2
256,160,132296,1,0
256,160,132552,1,2
256,160,132807,1,2
256,160,133062,1,2
256,160,133318,1,0
256,160,133573,1,0
256,160,133828,1,2
256,160,134084,1,0
256,160,134339,1,0
256,160,134594,1,0
256,160,134850,1,2
256,160,135105,1,2
256,160,135233,1,0
256,160,135360,1,2
256,160,135616,1,2
256,160,135871,1,0
256,160,136126,1,0
256,160,136382,1,0
256,160,136637,1,0
256,160,136892,1,2
256,160,137147,1,0
256,160,137275,1,2
256,160,137403,1,2
256,160,137786,1,0
256,160,138169,1,0
256,160,138424,1,2
256,160,138807,1,2
256,160,139190,1,0
256,160,139445,1,0
256,160,139828,1,0
256,160,140211,1,0
256,160,140467,1,0
256,160,140850,1,0
256,160,141488,1,4
