osu file format v11

[General]
AudioFilename: goreshit - Satori De Pon!.mp3
AudioLeadIn: 0
PreviewTime: 27059
Countdown: 0
SampleSet: Normal
StackLeniency: 0.7
Mode: 0
LetterboxInBreaks: 0

[Editor]
Bookmarks: 59667,84242,92412,116986,125154
DistanceSpacing: 0
BeatDivisor: 4
GridSize: 8

[Metadata]
Title:Satori De Pon!
TitleUnicode:
Artist:goreshit
ArtistUnicode:
Creator:[CSGA]Ar3sgice
Version:Lolicore
Source:
Tags:marisa lolicore hardcore Backfire Hyperhappyhardcore Dance Corps 2 Gasaiyuno-chan DCRPS018 breakcore OnosakiHito eldnl
BeatmapID:144737
BeatmapSetID:46502

[Difficulty]
HPDrainRate:6
CircleSize:4
OverallDifficulty:8
ApproachRate:9
SliderMultiplier:2
SliderTickRate:1

[Events]
//Background and Video events
0,0,"BG.png"
//Break Periods
2,76326,83696
2,92666,100037
//Storyboard Layer 0 (Background)
//Storyboard Layer 1 (Fail)
//Storyboard Layer 2 (Pass)
//Storyboard Layer 3 (Foreground)
//Storyboard Sound Samples
//Background Colour Transformations
3,100,163,162,255

[TimingPoints]
190,332.963374028857,4,1,1,71,1,0
6849,330.396475770925,4,1,1,71,1,0
8170,638.297872340426,4,1,1,71,1,0
9446,333.333333333333,4,1,1,71,1,0
9946,352.941176470588,4,1,1,71,1,0
10122,333.333333333333,4,1,1,71,1,0
10288,324.324324324324,4,1,1,71,1,0
10450,315.789473684211,4,1,1,71,1,0
10765,255.31914893617,4,1,1,71,1,0
14339,-100,4,2,1,71,0,0
14977,-100,4,1,1,71,0,0
17403,-100,4,2,1,71,0,0
17913,-100,4,1,0,76,0,0
18041,-100,4,1,1,76,0,0
18424,-100,4,2,1,76,0,0
18935,-100,4,1,1,82,0,0
22509,-100,4,2,1,82,0,0
23020,-100,4,1,1,82,0,0
26594,-100,4,2,1,82,0,0
27105,-100,4,1,1,82,0,1
30169,-100,4,2,1,82,0,1
30679,-100,4,1,0,48,0,1
30935,-100,4,1,1,82,0,1
34892,-100,4,1,0,48,0,1
35275,-100,4,1,1,82,0,1
38722,-100,4,1,0,48,0,1
39233,-100,4,1,1,82,0,1
42424,-100,4,1,0,48,0,1
42935,-100,4,1,1,82,0,0
45999,-100,4,2,1,82,0,0
46254,-100,4,1,1,82,0,0
47020,-100,4,2,1,82,0,0
47913,-100,4,1,1,82,0,0
48807,-100,4,2,1,82,0,0
48935,-100,4,1,1,82,0,0
50084,-100,4,2,1,82,0,0
50339,-100,4,1,1,82,0,0
50594,-100,4,1,0,60,0,0
50850,-100,4,1,1,82,0,0
51105,-100,4,2,1,82,0,0
51616,-100,4,1,1,82,0,0
55190,-100,4,2,1,82,0,0
56211,-100,4,1,1,82,0,0
57233,-100,4,2,1,82,0,0
57488,-100,4,1,1,82,0,0
58254,-100,4,2,1,82,0,0
58509,-100,4,1,1,82,0,0
58764,-100,4,1,0,60,0,0
59147,-100,4,2,1,82,0,0
59275,-100,4,1,1,91,0,0
59786,-100,4,1,1,82,0,1
62850,-100,4,1,0,60,0,1
63616,-100,4,1,1,82,0,1
67445,-100,4,1,0,48,0,1
67956,-100,4,1,1,82,0,1
71403,-100,4,1,0,48,0,1
72041,-100,4,1,1,82,0,1
75105,-100,4,1,0,42,0,1
76126,-100,4,1,1,82,0,0
103701,-100,4,1,0,60,0,0
104467,-100,4,1,1,82,0,0
107850,-100,4,1,0,60,0,0
108807,-100,4,1,1,82,0,1
112254,-100,4,1,0,48,0,1
112892,-100,4,1,1,82,0,1
116339,-100,4,1,0,48,0,1
116594,-100,4,1,0,42,0,1
116977,-100,4,1,1,82,0,1
117999,-100,4,1,1,86,0,1
120424,-100,4,1,0,48,0,1
121062,-100,4,1,1,60,0,1
121190,-100,4,1,1,86,0,1
124126,-100,4,1,0,42,0,1
124764,-100,4,1,0,48,0,1
125147,-100,4,1,1,82,0,0
132807,-100,4,1,0,42,0,0
133318,-100,4,2,0,55,0,0
140403,-100,4,2,0,5,0,0
140467,-100,4,2,0,55,0,0

[Colours]
Combo1 : 255,150,0
Combo2 : 219,26,31
Combo3 : 5,5,240
Combo4 : 158,67,177
Combo5 : 233,12,227

[HitObjects]
197,304,9446,1,0,0:0:0
328,287,9612,1,0,0:0:0
353,154,9779,1,0,0:0:0
229,86,9946,1,0,0:0:0
137,186,10122,1,0,0:0:0
87,193,10765,6,0,B|198:164,1,100,0|0,0:0|0:0,0:0:0
255,23,11020,2,0,B|284:134,1,100,8|0,0:0|0:0,0:0:0
425,191,11275,2,0,B|314:220,1,100
257,361,11530,2,0,B|228:250,1,100,10|0,0:0|0:0,0:0:0
87,133,11786,2,0,B|117:236,1,100
174,32,12041,2,0,B|206:137,1,100,8|0,0:0|0:0,0:0:0
351,279,12296,2,0,B|318:176,1,100
425,190,12552,2,0,B|393:80,1,100,10|0,0:0|0:0,0:0:0
275,64,12807,6,0,B|172:81,1,100
218,238,13062,2,0,B|101:261,1,100,8|0,0:0|0:0,0:0:0
24,181,13318,2,0,B|128:161,1,100
190,343,13573,2,0,B|301:315,1,100,10|0,0:0|0:0,0:0:0
466,221,13828,1,0,0:0:0
487,193,13892,1,0,0:0:0
494,158,13956,1,0,0:0:0
477,126,14020,1,0,0:0:0
449,105,14084,2,0,B|345:136,1,100,8|0,0:0|0:0,0:0:0
262,54,14339,5,6,0:0:0
246,91,14403,1,2,0:0:0
231,128,14467,1,2,0:0:0
216,164,14530,1,2,0:0:0
201,201,14594,1,2,0:0:0
186,238,14658,1,0,0:0:0
186,238,14722,1,8,0:0:0
398,343,14977,5,0,0:0:0
398,343,15041,1,0,0:0:0
398,343,15105,2,0,B|436:246,1,100,8|0,0:0|0:0,0:0:0
416,48,15360,2,0,B|375:148,1,100,0|0,0:0|0:0,0:0:0
232,352,15616,2,0,B|277:252,1,100,10|0,0:0|0:0,0:0:0
240,80,15871,2,0,B|194:180,1,100,0|0,0:0|0:0,0:0:0
32,344,16126,2,0,B|80:248,1,100,8|0,0:0|0:0,0:0:0
8,96,16382,2,0,B|96:152,1,100
265,316,16637,2,0,B|176:272,1,100,10|0,0:0|0:0,0:0:0
360,264,16892,6,0,B|456:304,1,100
464,184,17147,1,8,0:0:0
426,170,17211,1,0,0:0:0
388,157,17275,1,2,0:0:0
349,144,17339,1,0,0:0:0
311,130,17403,2,0,B|258:111|258:111|217:70,1,100,0|2,0:0|0:0,0:0:0
172,293,17658,2,0,B|128:255|128:255|69:240,1,100,8|0,0:0|0:0,0:0:0
47,234,17850,1,0,0:0:0
66,199,17913,2,0,B|90:144|90:144|78:94,1,100,2|0,0:0|0:0,0:0:0
202,20,18169,2,0,B|224:70|224:70|220:124,1,100
267,261,18424,5,2,0:0:0
300,282,18488,1,2,0:0:0
336,298,18552,1,2,0:0:0
373,311,18616,1,2,0:0:0
411,319,18679,1,2,0:0:0
450,325,18743,1,0,0:0:0
489,330,18807,1,8,0:0:0
493,126,18935,6,0,B|448:158|448:158|385:165,1,100,4|0,0:0|0:0,0:0:0
236,81,19190,2,0,B|281:54|281:54|332:54,1,100,10|0,0:0|0:0,0:0:0
264,188,19445,2,0,B|225:223|225:223|165:227,1,100
4,178,19701,2,2,B|49:151|49:151|100:151,1,100,10|0,0:0|0:0,0:0:0
60,357,19956,2,0,B|62:303|62:303|89:251,1,100
112,289,20147,1,0,0:0:0
142,315,20211,2,0,B|184:350|184:350|263:349,1,100,8|2,0:0|0:0,0:0:0
414,244,20467,2,0,B|355:245|355:245|319:274,1,100
203,171,20722,6,0,B|168:133|168:133|167:81,1,100,10|0,0:0|0:0,0:0:0
167,44,20913,1,0,0:0:0
201,64,20977,2,0,B|249:87|249:87|321:87,1,100
468,54,21233,2,0,B|473:156|473:156,1,100,8|2,0:0|0:0,0:0:0
474,193,21424,1,0,0:0:0
475,233,21488,1,0,0:0:0
393,337,21616,1,0,0:0:0
393,337,21743,2,0,B|293:337,1,100,10|0,0:0|0:0,0:0:0
252,338,21935,1,0,0:0:0
211,338,21999,2,0,B|123:338|123:338|70:286,1,150
78,294,22254,1,8,0:0:0
28,204,22382,1,0,0:0:0
64,101,22509,5,2,0:0:0
104,103,22573,1,2,0:0:0
143,106,22637,1,2,0:0:0
182,109,22701,1,2,0:0:0
221,112,22764,1,2,0:0:0
260,116,22828,1,0,0:0:0
299,120,22892,1,8,0:0:0
440,54,23020,6,0,B|434:111|434:111|411:155,1,100,0|0,0:0|0:0,0:0:0
274,372,23275,2,0,B|283:312|283:312|317:267,1,100,8|0,0:0|0:0,0:0:0
512,310,23530,2,0,B|426:245,1,100
94,154,23786,2,0,B|184:204,1,100,10|0,0:0|0:0,0:0:0
299,120,24041,1,0,0:0:0
384,232,24169,1,0,0:0:0
181,202,24296,2,0,B|134:235|134:235|84:250,1,100,8|0,0:0|0:0,0:0:0
389,127,24552,2,0,B|427:97|427:97|490:79,1,100
306,282,24807,2,0,B|367:262,3,50,10|0|0|0,0:0|0:0|0:0|0:0,0:0:0
306,282,25062,6,0,B|258:330|258:330|171:357,1,150
165,316,25318,2,0,B|161:255|161:255|134:219,1,100,8|0,0:0|0:0,0:0:0
104,202,25509,1,0,0:0:0
70,180,25573,1,0,0:0:0
344,146,25701,1,0,0:0:0
344,146,25828,2,0,B|394:142,2,50,10|0|0,0:0|0:0|0:0,0:0:0
219,94,26084,2,0,B|154:15,1,100
280,246,26339,2,0,B|274:354,1,100,8|0,0:0|0:0,0:0:0
180,253,26594,5,2,0:0:0
141,240,26658,1,2,0:0:0
104,222,26722,1,2,0:0:0
73,196,26786,1,2,0:0:0
51,162,26850,1,2,0:0:0
37,124,26913,1,2,0:0:0
33,84,26977,1,8,0:0:0
175,100,27105,6,0,B|284:80,1,100,4|0,0:0|0:0,0:0:0
382,139,27360,2,0,B|495:115,1,100,8|0,0:0|0:0,0:0:0
347,242,27616,2,0,B|236:264,1,100
162,340,27871,2,0,B|58:362,1,100,10|0,0:0|0:0,0:0:0
33,84,28126,2,0,B|50:196,1,100,2|0,0:0|0:0,0:0:0
48,182,28318,1,0,0:0:0
48,182,28382,1,8,0:0:0
159,144,28509,2,0,B|173:246,1,100,2|0,0:0|0:0,0:0:0
312,293,28764,2,0,B|321:342,3,50,0|0|2|0,0:0|0:0|0:0|0:0,0:0:0
312,293,29020,6,0,B|294:190,1,100,0|2,0:0|0:0,0:0:0
455,326,29275,2,0,B|433:221,1,100,0|8,0:0|0:0,0:0:0
339,39,29530,2,0,B|363:146|364:145,1,100,2|0,0:0|0:0,0:0:0
191,31,29786,1,0,0:0:0
191,31,29850,1,0,0:0:0
191,31,29913,2,0,B|216:136,1,100,10|0,0:0|0:0,0:0:0
214,128,30169,2,0,B|228:180,3,50,2|2|2|2,0:0|0:0|0:0|0:0,0:0:0
237,215,30424,2,0,B|249:266|250:267,3,50,2|2|2|2,0:0|0:0|0:0|0:0,0:0:0
260,302,30679,2,0,B|273:341,7,25,2|0|2|0|2|0|2|0,0:0|0:0|0:0|0:0|0:0|0:0|0:0|0:0,0:0:0
275,344,30935,6,0,B|332:350|332:350|396:317,1,100,10|0,0:0|0:0,0:0:0
497,276,31190,2,0,B|495:200|495:200|466:159,1,100,4|2,0:0|0:0,0:0:0
430,26,31445,2,0,B|430:100|430:100|408:132,1,100,8|2,0:0|0:0,0:0:0
370,330,31701,2,0,B|362:256|362:256|342:226|342:226|337:182,1,150
303,165,31956,2,0,B|237:177|237:177|202:163,1,100,10|0,0:0|0:0,0:0:0
21,72,32211,2,0,B|83:64|83:64|117:82,1,100,2|0,0:0|0:0,0:0:0
7,194,32467,2,0,B|74:186|74:186|104:210,1,100,8|2,0:0|0:0,0:0:0
287,303,32722,2,0,B|241:333|241:333|167:343,1,100,0|0,0:0|0:0,0:0:0
303,165,32977,2,0,B|259:201|259:201|217:210,1,100,10|0,0:0|0:0,0:0:0
422,136,33233,6,0,B|404:125|404:125|399:47,1,100,2|0,0:0|0:0,0:0:0
414,254,33488,2,0,B|433:271|433:271|440:346,1,100,8|2,0:0|0:0,0:0:0
286,302,33743,2,0,B|187:283,1,100,0|0,0:0|0:0,0:0:0
251,101,33999,2,0,B|144:123,1,100,10|0,0:0|0:0,0:0:0
37,233,34254,1,0,0:0:0
153,121,34382,1,8,0:0:0
187,284,34509,1,8,0:0:0
187,284,34637,2,0,B|221:244,1,50
246,216,34764,2,0,B|284:181,1,50
321,168,34892,2,0,B|346:148,11,25,2|0|2|0|2|0|2|0|2|0|2|0,0:0|0:0|0:0|0:0|0:0|0:0|0:0|0:0|0:0|0:0|0:0|0:0,0:0:0
358,144,35275,6,0,B|442:78,1,100,6|0,0:0|0:0,0:0:0
374,272,35530,2,0,B|467:328,1,100,8|2,0:0|0:0,0:0:0
153,121,35786,2,0,B|83:42,1,100
109,242,36041,2,0,B|13:283,1,100,10|0,0:0|0:0,0:0:0
262,87,36296,1,2,0:0:0
239,328,36424,1,0,0:0:0
239,328,36552,2,0,B|234:379|234:378,2,50,8|0|2,0:0|0:0|0:0,0:0:0
393,154,36807,2,0,B|291:197,1,100
261,203,36999,1,0,0:0:0
223,213,37062,1,10,0:0:0
102,45,37190,6,0,B|134:151,1,100,2|0,0:0|0:0,0:0:0
141,362,37445,2,0,B|110:261,1,100,2|8,0:0|0:0,0:0:0
216,48,37701,1,0,0:0:0
216,48,37764,1,0,0:0:0
216,48,37828,2,0,B|245:154,1,100,2|0,0:0|0:0,0:0:0
261,363,38084,2,0,B|230:270,1,100,10|0,0:0|0:0,0:0:0
374,302,38339,1,2,0:0:0
502,206,38467,1,8,0:0:0
387,95,38594,1,8,0:0:0
387,95,38722,2,0,B|345:83,10,25,2|0|2|0|2|0|2|0|2|0|2,0:0|0:0|0:0|0:0|0:0|0:0|0:0|0:0|0:0|0:0|0:0,0:0:0
348,82,39105,2,0,B|312:99|312:99|234:99,1,100
24,217,39360,6,0,B|132:197,1,100,8|0,0:0|0:0,0:0:0
60,341,39616,2,0,B|163:323,1,100,8|0,0:0|0:0,0:0:0
488,217,39871,2,0,B|380:197,1,100,8|0,0:0|0:0,0:0:0
452,341,40126,2,0,B|349:323,1,100,8|0,0:0|0:0,0:0:0
188,32,40382,5,10,0:0:0
258,190,40509,1,0,0:0:0
315,34,40637,1,10,0:0:0
155,145,40764,1,0,0:0:0
357,145,40892,1,10,0:0:0
258,190,41020,1,0,0:0:0
258,215,41084,1,0,0:0:0
257,239,41147,2,0,B|257:340,1,100,10|0,0:0|0:0,0:0:0
381,267,41403,6,0,B|488:237,1,100,2|0,0:0|0:0,0:0:0
131,267,41658,2,0,B|24:237,1,100,8|0,0:0|0:0,0:0:0
357,145,41913,2,0,B|415:61,1,100,2|0,0:0|0:0,0:0:0
155,145,42169,2,0,B|97:61,1,100,8|0,0:0|0:0,0:0:0
256,61,42424,6,0,B|256:102,15,25,2|0|2|0|2|0|2|0|2|0|2|0|2|0|2|0,0:0|0:0|0:0|0:0|0:0|0:0|0:0|0:0|0:0|0:0|0:0|0:0|0:0|0:0|0:0|0:0,0:0:0
254,106,42935,1,12,0:0:0
256,349,43062,1,8,0:0:0
257,227,43190,2,0,B|297:227,7,25
257,227,43445,6,0,B|198:249|126:247,1,100
396,199,43701,2,0,B|446:174|506:164,1,100,8|0,0:0|0:0,0:0:0
311,139,43956,2,0,B|286:84|287:31,1,100
345,283,44211,2,0,B|370:338|369:391,1,100,10|0,0:0|0:0,0:0:0
23,168,44467,6,0,B|57:187|120:192,1,100
356,236,44723,2,0,B|312:223|256:225,1,100,8|0,0:0|0:0,0:0:0
206,134,44978,2,0,B|206:74|225:37,1,100
176,279,45233,2,0,B|175:340|156:377,1,100,10|0,0:0|0:0,0:0:0
339,124,45488,1,0,0:0:0
339,124,45743,6,0,B|411:119|456:89,1,100,8|0,0:0|0:0,0:0:0
410,290,45999,2,0,B|338:295|293:325,1,100,2|0,0:0|0:0,0:0:0
176,279,46254,2,0,B|200:322,3,50,10|10|10|0,0:0|0:0|0:0|0:0,0:0:0
176,279,46509,2,0,B|127:239|112:192|112:192|82:163,1,150,2|0,0:0|0:0,0:0:0
82,163,46764,2,0,B|86:55,1,100,10|0,0:0|0:0,0:0:0
211,34,47020,5,2,0:0:0
239,61,47084,1,2,0:0:0
268,86,47147,1,2,0:0:0
299,110,47211,1,2,0:0:0
331,134,47275,1,2,0:0:0
363,157,47339,1,0,0:0:0
395,180,47403,1,8,0:0:0
392,313,47530,6,0,B|441:319,3,50,0|0|0|0,0:0|0:0|0:0|0:0,0:0:0
392,313,47786,2,0,B|335:334|293:321,1,100,2|2,0:0|0:0,0:0:0
40,315,48041,2,0,B|90:295|144:308,1,100,0|2,0:0|0:0,0:0:0
321,217,48296,2,0,B|269:231|211:220,1,100,8|2,0:0|0:0,0:0:0
63,123,48552,2,0,B|112:110|174:120,1,100
377,49,48807,2,0,B|325:65|263:46,1,100,2|2,0:0|0:0,0:0:0
322,217,49062,5,0,0:0:0
322,217,49126,1,0,0:0:0
322,217,49190,2,0,B|388:229|432:219,1,100,2|8,0:0|0:0,0:0:0
511,134,49445,2,0,B|461:120|388:130,1,100,2|0,0:0|0:0,0:0:0
356,328,49701,1,0,0:0:0
239,309,49828,2,0,B|229:370,3,50,10|2|2|0,0:0|0:0|0:0|0:0,0:0:0
239,309,50084,2,0,B|216:246|180:221,1,100,2|0,0:0|0:0,0:0:0
37,199,50339,2,0,B|50:250|94:284,1,100,10|0,0:0|0:0,0:0:0
122,126,50594,2,0,B|106:73|61:36,1,100,2|0,0:0|0:0,0:0:0
231,91,50850,2,0,B|250:141|295:177,1,100,8|0,0:0|0:0,0:0:0
381,59,51105,5,2,0:0:0
412,83,51169,1,2,0:0:0
436,114,51233,1,2,0:0:0
452,149,51296,1,2,0:0:0
462,187,51360,1,2,0:0:0
468,226,51424,1,2,0:0:0
470,266,51488,1,8,0:0:0
319,323,51616,5,0,0:0:0
319,323,51743,2,0,B|274:353|219:360,1,100,0|8,0:0|0:0,0:0:0
60,306,51999,1,2,0:0:0
60,306,52126,2,0,B|117:299|158:274,1,100
358,178,52382,1,8,0:0:0
358,178,52509,2,0,B|303:180|252:216,1,100,2|0,0:0|0:0,0:0:0
166,164,52764,5,0,0:0:0
166,164,52828,1,0,0:0:0
166,164,52892,2,0,B|130:118|133:58,1,100,8|0,0:0|0:0,0:0:0
254,77,53147,1,2,0:0:0
35,167,53275,1,0,0:0:0
203,290,53403,2,0,B|227:345|278:372,1,100,8|2,0:0|0:0,0:0:0
432,374,53658,5,0,0:0:0
450,223,53786,1,0,0:0:0
432,374,53913,2,0,B|412:333|365:302,1,100,10|0,0:0|0:0,0:0:0
194,245,54169,2,0,B|217:295|272:321,1,100,2|2,0:0|0:0,0:0:0
94,258,54424,1,8,0:0:0
71,224,54488,1,0,0:0:0
49,189,54552,1,2,0:0:0
45,64,54679,2,0,B|102:69|139:111|139:111|201:126,1,150,2|0,0:0|0:0,0:0:0
217,137,54935,2,0,B|267:167|330:149,1,100,2|0,0:0|0:0,0:0:0
385,47,55190,5,2,0:0:0
416,71,55254,1,2,0:0:0
438,104,55318,1,2,0:0:0
448,142,55382,1,2,0:0:0
448,181,55445,1,2,0:0:0
437,219,55509,1,0,0:0:0
417,253,55573,1,8,0:0:0
262,294,55701,5,0,0:0:0
262,294,55828,1,0,0:0:0
262,294,55892,1,0,0:0:0
262,294,55956,2,0,B|206:302|159:300,2,100,2|8|0,0:0|0:0|0:0,0:0:0
256,191,56339,1,0,0:0:0
250,90,56467,2,0,B|306:82|353:84,2,100,10|0|0,0:0|0:0|0:0,0:0:0
81,35,56850,5,0,0:0:0
81,35,56913,1,0,0:0:0
81,35,56977,2,0,B|112:82|118:147|106:184,1,150,10|0,0:0|0:0,0:0:0
67,231,57233,2,0,B|127:201|178:208,1,100,8|8,0:0|0:0,0:0:0
445,153,57488,1,8,0:0:0
445,153,57616,2,0,B|385:183|334:176,1,100,2|0,0:0|0:0,0:0:0
263,296,57871,1,0,0:0:0
374,310,57999,6,0,B|351:371|352:369,3,50,10|0|0|0,0:0|0:0|0:0|0:0,0:0:0
374,310,58254,2,0,B|443:306|487:281,1,100,2|0,0:0|0:0,0:0:0
350,177,58509,2,0,B|293:156|234:159,1,100,10|0,0:0|0:0,0:0:0
138,60,58764,2,2,B|89:95|62:151|67:211|84:248,1,200,2|2,0:0|0:0,0:0:0
122,330,59147,1,0,0:0:0
197,252,59275,1,8,0:0:0
281,346,59403,1,8,0:0:0
262,167,59530,1,10,0:0:0
432,362,59658,1,8,0:0:0
456,216,59786,6,0,B|480:152|472:104,1,100,14|0,0:0|0:0,0:0:0
352,32,60041,1,8,0:0:0
352,32,60105,1,0,0:0:0
352,32,60169,2,0,B|328:88|336:144,1,100,2|0,0:0|0:0,0:0:0
339,259,60424,2,0,B|355:305|409:328,2,100,0|10|0,0:0|0:0|0:0,0:0:0
211,286,60807,2,0,B|148:302|97:297,1,100,2|0,0:0|0:0,0:0:0
148,172,61062,2,0,B|95:163|43:182,2,100,8|2|0,0:0|0:0|0:0,0:0:0
213,57,61445,2,0,B|159:51|109:59,1,100,0|10,0:0|0:0,0:0:0
340,80,61701,5,0,0:0:0
340,80,61764,1,0,0:0:0
340,80,61828,2,0,B|394:98|454:94,1,100,2|0,0:0|0:0,0:0:0
489,219,62084,2,0,B|431:203|372:208,1,100,8|2,0:0|0:0,0:0:0
327,321,62339,2,0,B|384:329|436:326,2,100,0|0|10,0:0|0:0|0:0,0:0:0
198,296,62722,1,0,0:0:0
198,296,62786,1,0,0:0:0
198,296,62850,2,2,B|147:308|93:306|48:271|32:220,1,200,2|8,0:0|0:0,0:0:0
103,98,63233,2,2,B|154:86|208:88|253:123|269:174,1,200,2|0,0:0|0:0,0:0:0
339,280,63616,6,0,B|323:329,3,50,8|0|0|0,0:0|0:0|0:0|0:0,0:0:0
339,280,63871,2,0,B|385:234|391:181,1,100,2|0,0:0|0:0,0:0:0
357,10,64126,2,0,B|313:57|306:110,1,100,8|2,0:0|0:0,0:0:0
196,139,64382,2,0,B|242:185|295:191,1,100
506,155,64637,2,0,B|459:111|406:104,1,100,10|0,0:0|0:0,0:0:0
197,140,64892,6,0,B|152:111|103:103,1,100,2|0,0:0|0:0,0:0:0
226,321,65147,2,0,B|271:350|320:358,1,100,8|2,0:0|0:0,0:0:0
314,223,65403,2,0,B|343:178|351:129,1,100
106,251,65658,2,0,B|77:296|69:345,1,100,10|0,0:0|0:0,0:0:0
314,222,65913,6,0,B|350:268|398:280,1,100,2|0,0:0|0:0,0:0:0
430,297,66105,1,0,0:0:0
438,257,66169,2,0,B|441:205|469:160,1,100,8|2,0:0|0:0,0:0:0
482,26,66424,2,0,B|427:16|373:28|341:70|328:122,1,200,0|10,0:0|0:0,0:0:0
255,59,66807,1,0,0:0:0
30,26,66935,2,0,B|85:16|139:28|171:70|184:122,1,200,0|8,0:0|0:0,0:0:0
254,349,67318,1,0,0:0:0
256,181,67445,2,0,B|255:231,5,50,2|0|2|0|2|0,0:0|0:0|0:0|0:0|0:0|0:0,0:0:0
256,174,67828,2,0,B|256:137,3,25
255,180,67956,6,0,B|320:202|363:189,1,100,6|0,0:0|0:0,0:0:0
509,75,68211,2,0,B|461:64|410:74,1,100,8|2,0:0|0:0,0:0:0
179,65,68467,2,0,B|226:53|278:69,1,100
132,179,68722,2,0,B|83:198|24:172,1,100,10|0,0:0|0:0,0:0:0
267,306,68977,2,0,B|211:322|147:298,1,100,2|0,0:0|0:0,0:0:0
475,231,69233,1,8,0:0:0
475,231,69296,1,0,0:0:0
475,231,69360,2,0,B|424:251|364:232,1,100,2|0,0:0|0:0,0:0:0
335,110,69616,6,0,B|379:79,3,50,2|0|8|0,0:0|0:0|0:0|0:0,0:0:0
335,110,69871,2,0,B|293:148|248:152|244:152,1,100,2|2,0:0|0:0,0:0:0
118,122,70126,1,0,0:0:0
0,169,70254,2,0,B|32:216|74:240|132:248|193:224,1,200,2|2,0:0|0:0,0:0:0
306,234,70637,1,0,0:0:0
306,234,70701,1,0,0:0:0
306,234,70764,2,0,B|306:289|260:324,1,100,2|0,0:0|0:0,0:0:0
420,333,71020,5,0,0:0:0
480,191,71147,1,8,0:0:0
420,51,71275,1,8,0:0:0
299,100,71403,2,0,B|274:54,5,50,2|0|2|0|2|0,0:0|0:0|0:0|0:0|0:0|0:0,0:0:0
299,100,71786,2,0,B|316:133,7,25
299,100,72041,6,0,B|236:129|190:129,1,100,2|0,0:0|0:0,0:0:0
129,235,72296,2,0,B|74:264|20:264,1,100,8|2,0:0|0:0,0:0:0
377,225,72552,2,0,B|432:209|485:204,1,100,2|0,0:0|0:0,0:0:0
200,348,72807,2,0,B|248:332|309:332,1,100,10|0,0:0|0:0,0:0:0
148,118,73062,6,0,B|126:68|120:17,1,100,2|0,0:0|0:0,0:0:0
96,323,73318,2,0,B|74:274|61:217,1,100,8|2,0:0|0:0,0:0:0
364,118,73573,2,0,B|386:68|392:17,1,100,2|0,0:0|0:0,0:0:0
416,323,73829,2,0,B|438:274|451:217,1,100,10|0,0:0|0:0,0:0:0
171,232,74084,6,0,B|117:219|69:185,1,100,2|0,0:0|0:0,0:0:0
341,232,74339,2,0,B|395:219|443:185,1,100,8|0,0:0|0:0,0:0:0
181,115,74594,2,0,B|143:81|123:22,1,100,2|0,0:0|0:0,0:0:0
331,115,74850,2,0,B|369:81|389:22,1,100,8|0,0:0|0:0,0:0:0
256,192,75105,5,2,0:0:0
255,202,75169,1,0,0:0:0
255,212,75233,1,2,0:0:0
255,221,75296,1,0,0:0:0
255,231,75360,1,2,0:0:0
255,241,75424,1,0,0:0:0
255,251,75488,1,2,0:0:0
255,261,75552,1,2,0:0:0
255,271,75616,1,2,0:0:0
255,280,75679,1,2,0:0:0
255,290,75743,1,2,0:0:0
255,300,75807,1,0,0:0:0
255,310,75871,2,0,B|255:340,8,25,2|0|0|0|0|0|0|0|0,0:0|0:0|0:0|0:0|0:0|0:0|0:0|0:0|0:0,0:0:0
26,157,84296,6,0,B|83:150|131:143|172:111|203:62,1,200,0|8,0:0|0:0,0:0:0
29,311,84807,2,0,B|86:304|134:297|175:265|206:216,1,200,0|8,0:0|0:0,0:0:0
486,157,85318,6,0,B|429:150|381:143|340:111|309:62,1,200,0|8,0:0|0:0,0:0:0
483,311,85829,2,0,B|426:304|378:297|337:265|306:216,1,200,0|8,0:0|0:0,0:0:0
216,209,86211,1,8,0:0:0
105,64,86339,6,0,B|141:128|141:128|107:161|100:192|102:217|110:247,1,200,0|8,0:0|0:0,0:0:0
330,359,86850,2,0,B|294:295|294:295|328:262|335:231|333:206|325:176,1,200,0|8,0:0|0:0,0:0:0
464,204,87360,2,0,B|472:147|457:100|425:62|373:40,1,200,0|8,0:0|0:0,0:0:0
377,41,87871,1,0,0:0:0
117,71,88126,5,8,0:0:0
116,201,88254,1,0,0:0:0
115,331,88382,1,0,0:0:0
115,331,88637,1,8,0:0:0
211,321,88892,5,0,0:0:0
211,321,89147,1,8,0:0:0
306,305,89403,5,0,0:0:0
306,305,89658,1,8,0:0:0
400,285,89913,5,0,0:0:0
400,285,90169,1,8,0:0:0
481,184,90296,1,0,0:0:0
414,71,90424,1,0,0:0:0
414,71,90679,1,8,0:0:0
296,37,90935,6,0,B|281:96|320:151|320:151|253:211,1,200,0|8,0:0|0:0,0:0:0
184,292,91445,1,0,0:0:0
65,237,91573,1,0,0:0:0
65,237,91637,1,0,0:0:0
65,237,91701,2,0,B|68:187|68:187,3,50
65,239,91956,2,0,B|64:272,16,25
257,132,100637,6,0,B|257:23,1,100,2|0,0:0|0:0,0:0:0
403,100,100892,1,0,0:0:0
403,100,100956,1,0,0:0:0
403,100,101020,2,0,B|403:216,1,100,2|0,0:0|0:0,0:0:0
269,276,101275,2,0,B|208:276|166:249|135:210|120:161,1,200,2|2,0:0|0:0,0:0:0
63,45,101658,6,0,B|10:74|-3:128,2,100,2|0|8,0:0|0:0|0:0,0:0:0
198,64,102041,1,2,0:0:0
198,64,102105,1,0,0:0:0
198,64,102169,2,0,B|255:78|299:65,1,100
456,120,102424,2,0,B|500:96,3,50,10|0|0|0,0:0|0:0|0:0|0:0,0:0:0
456,120,102679,2,0,B|475:181|468:230|450:269|396:304,1,200,2|8,0:0|0:0,0:0:0
343,185,103062,1,2,0:0:0
343,185,103190,2,0,B|299:199|258:233|250:294|269:352,1,200,0|10,0:0|0:0,0:0:0
143,329,103573,5,0,0:0:0
104,316,103637,1,0,0:0:0
66,300,103701,2,0,B|19:279|19:279|62:238|68:182|28:130,1,200,2|8,0:0|0:0,0:0:0
172,207,104084,2,2,B|191:154|189:100|156:48|104:22,1,200,2|2,0:0|0:0,0:0:0
252,36,104467,6,0,B|289:75,3,50,8|0|0|0,0:0|0:0|0:0|0:0,0:0:0
326,72,104722,2,0,B|374:95|399:150|383:206|359:249,1,200,2|8,0:0|0:0,0:0:0
325,351,105105,1,2,0:0:0
248,276,105233,2,0,B|188:267|152:300|152:300|111:270|54:271,1,200,0|10,0:0|0:0,0:0:0
248,108,105616,1,0,0:0:0
248,108,105679,1,0,0:0:0
248,108,105743,2,0,B|188:117|152:84|152:84|111:114|54:113,1,200,2|8,0:0|0:0,0:0:0
60,113,106126,2,0,B|61:52|10:38,2,100,2|0|0,0:0|0:0|0:0,0:0:0
152,213,106509,5,8,0:0:0
152,213,106573,1,0,0:0:0
152,213,106637,2,0,B|193:239|248:250|305:236|349:210,1,200,2|0,0:0|0:0,0:0:0
359,76,107020,2,0,B|412:88|455:116|477:165|472:224,1,200,10|0,0:0|0:0,0:0:0
403,323,107403,1,0,0:0:0
403,323,107467,1,0,0:0:0
403,323,107530,2,0,B|357:345|356:345,1,50,10|0,0:0|0:0,0:0:0
211,336,107722,5,2,0:0:0
172,347,107786,1,0,0:0:0
132,337,107850,2,0,B|76:327|35:294|23:234,1,150,2|8,0:0|0:0,0:0:0
241,171,108169,2,2,B|300:194|326:234|343:284,1,150
340,276,108424,2,0,B|311:320,5,50,0|0|8|0|0|0,0:0|0:0|0:0|0:0|0:0|0:0,0:0:0
340,276,108807,6,0,B|400:261|427:224,1,100,6|0,0:0|0:0,0:0:0
404,109,109062,2,0,B|440:72|499:56,1,100,8|2,0:0|0:0,0:0:0
127,106,109318,2,0,B|78:93|41:55,1,100
171,276,109573,2,0,B|121:261|85:224,1,100,10|0,0:0|0:0,0:0:0
258,157,109828,2,0,B|258:279,1,100,2|0,0:0|0:0,0:0:0
427,336,110084,1,8,0:0:0
427,336,110147,1,0,0:0:0
427,336,110211,2,0,B|427:231,1,100,2|0,0:0|0:0,0:0:0
461,93,110467,2,0,B|508:78,3,50,0|0|10|0,0:0|0:0|0:0|0:0,0:0:0
461,93,110722,2,0,B|400:88|349:68,1,100,2|2,0:0|0:0,0:0:0
144,84,110977,5,0,0:0:0
144,84,111041,1,0,0:0:0
144,84,111105,2,0,B|196:110|245:115,1,100,10|0,0:0|0:0,0:0:0
380,233,111360,2,0,B|324:238|275:220,1,100,0|2,0:0|0:0,0:0:0
205,327,111616,2,0,B|154:343|106:330,1,100,8|2,0:0|0:0,0:0:0
150,235,111871,1,2,0:0:0
320,328,111999,1,8,0:0:0
323,143,112126,1,8,0:0:0
150,235,112254,2,0,B|112:234,12,25,2|0|2|0|2|0|2|0|2|0|2|0|14,0:0|0:0|0:0|0:0|0:0|0:0|0:0|0:0|0:0|0:0|0:0|0:0|0:0,0:0:0
119,80,112764,5,0,0:0:0
119,80,112828,1,0,0:0:0
119,80,112892,2,0,B|158:124|199:143,1,100,6|0,0:0|0:0,0:0:0
401,82,113147,2,0,B|376:118|323:143,1,100,8|2,0:0|0:0,0:0:0
259,244,113403,2,0,B|259:346,2,100,0|0|10,0:0|0:0|0:0,0:0:0
422,318,113786,1,0,0:0:0
422,318,113850,1,0,0:0:0
422,318,113913,2,0,B|422:217,1,100,2|0,0:0|0:0,0:0:0
334,44,114169,1,8,0:0:0
334,44,114233,1,0,0:0:0
334,44,114296,2,0,B|334:149,1,100,2|0,0:0|0:0,0:0:0
259,244,114552,6,0,B|306:270,3,50,0|0|10|0,0:0|0:0|0:0|0:0,0:0:0
259,244,114807,2,0,B|204:260|154:260|105:247|65:212,1,200,2|0,0:0|0:0,0:0:0
281,115,115190,1,8,0:0:0
281,115,115254,1,0,0:0:0
281,115,115318,2,0,B|246:84|197:71|147:71|92:87,1,200,2|0,0:0|0:0,0:0:0
176,173,115701,2,0,B|188:224|182:283|151:326|104:349,1,200,10|0,0:0|0:0,0:0:0
36,218,116084,1,8,0:0:0
285,337,116211,1,8,0:0:0
412,296,116339,2,0,B|451:328,3,50,2|0|2|0,0:0|0:0|0:0|0:0,0:0:0
412,296,116594,2,0,B|386:276,9,25,2|0|2|0|2|0|2|0|2|0,0:0|0:0|0:0|0:0|0:0|0:0|0:0|0:0|0:0|0:0,0:0:0
451,143,116977,6,0,B|483:98|490:40,1,100,2|0,0:0|0:0,0:0:0
318,195,117233,2,0,B|359:151|364:101,1,100,8|0,0:0|0:0,0:0:0
61,143,117488,2,0,B|29:98|22:40,1,100,2|0,0:0|0:0,0:0:0
194,195,117744,2,0,B|153:151|148:101,1,100,8|0,0:0|0:0,0:0:0
420,281,117999,2,0,B|462:318|507:337,1,100,2|0,0:0|0:0,0:0:0
304,316,118254,2,0,B|332:362|381:380,1,100
92,281,118509,2,0,B|53:323|12:343,1,100,2|0,0:0|0:0,0:0:0
208,316,118764,2,0,B|180:362|131:380,1,100,2|2,0:0|0:0,0:0:0
258,204,119020,5,0,0:0:0
259,163,119084,1,2,0:0:0
259,123,119147,2,0,B|259:16,1,100,2|0,0:0|0:0,0:0:0
119,55,119403,2,0,B|65:70,2,50,2|0|0,0:0|0:0|0:0,0:0:0
140,168,119658,2,0,B|98:203,2,50,2|0|0,0:0|0:0|0:0,0:0:0
374,52,119913,5,0,0:0:0
374,52,119977,1,0,0:0:0
374,52,120041,1,2,0:0:0
477,192,120169,1,8,0:0:0
374,332,120296,1,8,0:0:0
374,332,120424,2,0,B|404:332,11,25,2|0|2|0|2|0|2|0|2|0|2|0,0:0|0:0|0:0|0:0|0:0|0:0|0:0|0:0|0:0|0:0|0:0|0:0,0:0:0
374,332,120807,1,0,0:0:0
125,322,120935,5,0,0:0:0
258,272,121062,1,6,0:0:0
258,272,121126,1,0,0:0:0
258,272,121190,2,0,B|290:210|294:171,1,100,2|0,0:0|0:0,0:0:0
131,64,121445,1,2,0:0:0
131,64,121509,1,0,0:0:0
131,64,121573,2,0,B|95:106|90:163,1,100,0|2,0:0|0:0,0:0:0
125,322,121828,6,0,B|175:328,3,50,0|0|2|0,0:0|0:0|0:0|0:0,0:0:0
125,322,122084,2,0,B|68:304|43:248,1,100,2|0,0:0|0:0,0:0:0
297,180,122339,1,2,0:0:0
297,180,122403,1,0,0:0:0
297,180,122467,2,0,B|343:201|374:248,1,100,2|0,0:0|0:0,0:0:0
460,79,122722,5,2,0:0:0
420,73,122786,1,0,0:0:0
380,65,122850,1,0,0:0:0
341,57,122913,1,0,0:0:0
301,48,122977,2,0,B|199:20,1,100,2|0,0:0|0:0,0:0:0
16,127,123233,5,0,0:0:0
53,139,123296,1,2,0:0:0
91,151,123360,1,2,0:0:0
128,163,123424,1,0,0:0:0
165,177,123488,2,0,B|264:208,1,100,2|0,0:0|0:0,0:0:0
432,245,123743,5,0,0:0:0
399,268,123807,1,0,0:0:0
368,293,123871,2,0,B|287:358,1,100,2|0,0:0|0:0,0:0:0
136,328,124126,5,2,0:0:0
136,312,124190,1,2,0:0:0
136,296,124254,1,2,0:0:0
136,280,124318,1,2,0:0:0
136,264,124382,1,2,0:0:0
136,249,124445,1,2,0:0:0
136,233,124509,1,2,0:0:0
136,217,124573,1,2,0:0:0
136,201,124637,1,2,0:0:0
136,185,124701,1,2,0:0:0
136,170,124764,2,2,B|98:162,1,25
137,154,124828,2,2,B|173:147,1,25
137,138,124892,2,2,B|97:125,1,25
137,122,124956,2,2,B|170:104,1,25
138,106,125020,2,2,B|104:90,1,25
138,90,125084,2,2,B|166:72,1,25
139,75,125147,5,0,0:0:0
233,41,125403,1,10,0:0:0
279,120,125658,5,0,0:0:0
369,76,125913,1,10,0:0:0
394,173,126169,5,0,0:0:0
488,141,126424,1,10,0:0:0
452,297,126679,5,0,0:0:0
338,348,126935,1,10,0:0:0
268,296,127062,1,0,0:0:0
268,296,127126,1,0,0:0:0
268,296,127190,2,0,B|218:316|166:320|96:313|63:276,1,200,0|10,0:0|0:0,0:0:0
11,136,127701,2,0,B|61:116|113:112|177:121|216:156,1,200,0|10,0:0|0:0,0:0:0
328,46,128211,5,0,0:0:0
328,46,128467,1,10,0:0:0
453,144,128722,1,0,0:0:0
453,144,128977,5,10,0:0:0
403,280,129105,1,0,0:0:0
255,323,129233,1,0,0:0:0
255,323,129488,1,10,0:0:0
95,323,129743,6,0,B|92:268|107:220|154:180|215:170,1,200,0|10,0:0|0:0,0:0:0
417,61,130254,2,0,B|420:116|405:164|358:204|297:214,1,200,0|10,0:0|0:0,0:0:0
311,210,130764,5,0,0:0:0
214,122,131020,1,10,0:0:0
214,123,131147,1,0,0:0:0
214,123,131211,1,0,0:0:0
214,123,131275,2,0,B|200:175|159:222|108:241|64:242,1,200,0|10,0:0|0:0,0:0:0
277,347,131786,2,0,B|291:295|332:248|383:229|427:228,1,200,0|10,0:0|0:0,0:0:0
408,104,132296,6,0,B|475:119,3,50
368,96,132552,2,0,B|324:125,3,50
400,64,132807,2,0,B|399:31,11,25,2|0|2|0|2|0|2|0|2|0|2|0,0:0|0:0|0:0|0:0|0:0|0:0|0:0|0:0|0:0|0:0|0:0|0:0,0:0:0
192,132,133318,6,0,B|157:190|191:229|191:229|161:277|190:320,1,200,0|8,0:0|0:0,0:0:0
49,83,133828,2,0,B|14:141|48:180|48:180|18:228|47:271,1,200,0|8,0:0|0:0,0:0:0
451,79,134339,6,0,B|486:137|451:176|451:176|482:224|453:267,1,200,0|8,0:0|0:0,0:0:0
308,128,134849,2,0,B|343:186|308:225|308:225|339:273|310:316,1,200,0|8,0:0|0:0,0:0:0
226,177,135360,5,0,0:0:0
226,177,135616,1,8,0:0:0
95,84,135871,1,0,0:0:0
95,84,136126,1,8,0:0:0
87,244,136382,5,0,0:0:0
87,244,136637,1,8,0:0:0
215,339,136892,1,0,0:0:0
215,339,137147,1,8,0:0:0
295,339,137275,1,0,0:0:0
375,339,137403,1,0,0:0:0
256,192,137467,12,0,140403,0:0:0
256,192,140467,6,0,B|256:136,11,50
256,192,141233,2,0,B|256:232,8,25,0|0|0|0|0|0|0|0|4,0:0|0:0|0:0|0:0|0:0|0:0|0:0|0:0|0:0,0:0:0
