osu file format v9

[General]
AudioFilename: goreshit - Satori De Pon!.mp3
AudioLeadIn: 0
PreviewTime: 27059
Countdown: 0
SampleSet: Soft
StackLeniency: 0.7
Mode: 0
LetterboxInBreaks: 0

[Editor]
Bookmarks: 59667,84242,92412,116986,125154
DistanceSpacing: 1
BeatDivisor: 4
GridSize: 4

[Metadata]
Title:Satori De Pon!
Artist:goreshit
Creator:[CSGA]Ar3sgice
Version:Hardcore
Source:
Tags:marisa lolicore hardcore Backfire Hyperhappyhardcore Dance Corps 2 Gasaiyuno-chan DCRPS018 breakcore OnosakiHito eldnl

[Difficulty]
HPDrainRate:5
CircleSize:4
OverallDifficulty:5
ApproachRate:7
SliderMultiplier:1
SliderTickRate:1

[Events]
//Background and Video events
0,0,"BG.png"
//Break Periods
2,76326,83396
2,92666,99737
//Storyboard Layer 0 (Background)
//Storyboard Layer 1 (Fail)
//Storyboard Layer 2 (Pass)
//Storyboard Layer 3 (Foreground)
//Storyboard Sound Samples
//Background Colour Transformations
3,100,163,162,255

[TimingPoints]
190,332.963374028857,4,2,1,75,1,0
6849,330.396475770925,4,2,1,75,1,0
8170,638.297872340426,4,2,1,75,1,0
9446,333.333333333333,4,2,1,75,1,0
9946,352.941176470588,4,2,1,75,1,0
10122,333.333333333333,4,2,1,75,1,0
10288,324.324324324324,4,2,1,75,1,0
10450,315.789473684211,4,2,1,75,1,0
10765,255.31914893617,4,2,1,75,1,0
27105,-100,4,2,1,75,0,1
42935,-100,4,2,1,75,0,0
59786,-100,4,2,1,75,0,1
75105,-100,4,2,1,55,0,1
76126,-100,4,2,1,75,0,0
84552,-100,4,1,0,75,0,0
86339,-100,4,2,1,75,0,0
86594,-100,4,1,0,75,0,0
87360,-100,4,2,1,75,0,0
87616,-100,4,1,0,75,0,0
91445,-100,4,2,1,55,0,0
108807,-100,4,2,1,75,0,1
124126,-66.66666667,4,2,1,75,0,1
125147,-133.3333333,4,2,1,75,0,0
137403,-133.3333333,4,2,1,55,0,0

[Colours]
Combo1 : 255,150,0
Combo2 : 219,26,31
Combo3 : 5,5,240
Combo4 : 158,67,177
Combo5 : 233,12,227

[HitObjects]
112,112,9446,1,0
168,80,9612,1,0
224,112,9779,1,0
280,80,9946,1,0
336,112,10122,1,0
304,336,10765,5,4
208,296,11020,2,0,B|96:296,1,100
16,256,11530,1,8
56,168,11786,1,0
152,208,12041,1,0
200,120,12296,2,0,B|304:120,1,100,0|8
400,120,12807,1,0
472,184,13062,5,0
472,184,13190,1,0
472,184,13318,2,0,B|472:288,1,100,0|8
384,336,13828,2,0,B|320:336,3,50
284,336,14339,2,0,B|224:336,1,50
184,336,14594,2,0,B|136:336,1,50,2|8
88,312,14850,6,0,B|88:208,1,100
88,212,15233,1,0
88,112,15488,1,0
168,48,15743,1,0
256,168,16126,2,0,B|256:118,1,50
328,48,16509,1,8
400,120,16764,1,0
400,120,16892,1,0
472,248,17147,5,0
472,248,17275,1,0
472,248,17403,2,0,B|472:312|448:344,1,100
376,272,17913,2,0,B|312:272,3,50,8|0|0|0
276,272,18424,2,0,B|224:272,1,50,4|0
176,272,18679,2,0,B|120:272,1,50,4|0
96,240,18935,6,0,B|64:192|72:128,1,100,0|8
88,100,19318,1,0
188,112,19573,2,0,B|228:152|220:224,1,100,0|8
248,244,19956,2,0,B|312:244,1,50
332,208,20211,2,0,B|300:168|292:104,1,100,8|0
384,56,20594,1,0
384,56,20722,2,0,B|416:96|416:160,1,100,8|0
480,232,21233,6,0,B|480:288,1,50,8|0
456,328,21488,2,0,B|408:328,3,50,8|8|0|0
352,328,21999,2,0,B|296:352|240:336,1,100,8|0
208,336,22382,1,8
160,340,22509,2,0,B|108:340,3,50,0|0|0|8
8,228,23275,5,0
8,228,23403,2,0,B|56:256|116:224,2,100,8|0|8
4,180,24041,2,0,B|24:120,1,50
68,124,24296,1,8
68,124,24424,2,0,B|116:84|164:84,2,100,0|8|0
208,168,25318,6,0,B|240:168,3,25,8|0|0|0
256,168,25573,2,0,B|304:168|352:144,1,100,8|0
392,120,25956,1,8
432,96,26084,2,0,B|464:80|496:96|496:120|488:144|472:160,1,100,8|8
480,192,26467,1,0
480,240,26594,2,0,B|480:280,4,25,2|2|2|2|8
408,312,27105,6,0,B|296:312,1,100,12|0
264,284,27488,1,8
224,256,27616,2,0,B|120:256,1,100,0|8
24,160,28126,2,0,B|128:160,1,100,8|0
160,128,28509,1,8
160,128,28637,1,0
232,64,28892,5,8
232,64,29020,1,8
232,64,29147,2,0,B|264:112|256:168|208:208,2,150,8|8|8
328,40,30169,2,0,B|432:40,1,100,8|8
464,72,30552,2,0,B|352:72,1,100,8|0
320,88,30935,1,8
376,176,31190,6,0,B|392:224|376:280,1,100,8|0
336,304,31573,1,0
288,280,31701,2,0,B|264:232|280:176,1,100,8|0
216,104,32211,2,0,B|112:104,1,100,8|0
168,192,32722,2,0,B|56:192,1,100,8|0
24,280,33233,5,8
24,280,33360,1,8
24,280,33488,2,0,B|88:280|104:296|112:320,1,100,0|8
208,336,33999,1,0
304,304,34254,2,0,B|408:304,1,100,8|0
440,272,34637,2,0,B|440:160,1,100,8|0
440,120,35020,1,0
440,120,35147,1,0
400,88,35275,6,0,B|344:88|296:56,1,100,8|0
352,168,35786,2,0,B|296:160|256:136,1,100,8|0
184,72,36296,2,0,B|152:120|168:176,1,100,8|0
192,208,36679,1,0
192,208,36807,1,8
144,296,37062,5,0
144,296,37190,1,0
144,296,37318,2,0,B|184:336|240:344,1,100,8|0
344,312,37701,1,8
344,312,37828,2,0,B|320:272|248:256,1,100,8|0
336,192,38339,6,0,B|448:192,1,100,0|8
476,120,38722,2,0,B|364:120,1,100,0|8
324,120,39105,1,0
272,120,39233,1,0
224,120,39360,6,0,B|168:120|120:88,1,100,0|8
184,208,39871,2,0,B|128:208|80:176,1,100,0|8
80,304,40382,2,0,B|130:304,3,50,8|0|0|0
176,328,40892,2,0,B|224:328,3,50,8|0|0|0
272,344,41403,6,0,B|328:344|384:312,1,100,8|0
303,244,41913,2,0,B|352:224|400:224,1,100,2|8
464,144,42424,2,0,B|464:112,14,25
424,120,43445,6,0,B|320:120,1,100,4|0
240,56,43956,2,0,B|208:112|232:168,1,100,0|8
288,232,44467,2,0,B|392:232,1,100
464,168,44977,2,0,B|496:224|472:280,1,100,0|8
400,328,45488,5,0
304,360,45743,1,2
208,336,45999,2,0,B|152:336,3,50,2|2|0|0
120,304,46509,2,0,B|96:248|104:192,1,100,0|8
192,144,46892,1,0
192,144,47020,2,0,B|216:192|208:248,1,100,0|8
408,280,47786,5,0
408,280,47913,1,8
456,192,48169,1,0
408,104,48424,1,8
408,104,48552,1,0
328,48,48807,5,0
328,48,48935,1,8
232,80,49190,1,0
272,168,49445,1,8
272,168,49573,1,0
272,264,49828,6,0,B|288:296,6,25,0|0|0|0|0|2|2
168,272,50467,1,0
168,272,50594,2,0,B|112:288|64:272,1,100,8|0
16,184,51105,2,0,B|72:168|120:184,1,100,8|0
208,144,51616,6,0,B|208:88,2,50
248,176,51999,2,0,B|312:176|344:144,2,100,0|8|0
212,212,52637,2,0,B|224:276,1,50
260,292,52892,1,0
312,296,53020,2,0,B|352:328|416:336,2,100,0|8|0
168,264,53913,6,0,B|112:264,3,50
72,240,54424,2,0,B|48:192|56:136,1,100,8|0
96,48,54935,1,0
160,128,55190,2,0,B|192:128,6,25
288,56,55956,5,0
288,56,56084,1,8
376,96,56339,1,0
464,56,56594,1,8
464,56,56722,1,0
464,152,56977,5,0
464,152,57105,1,8
408,240,57360,1,0
464,328,57616,1,2
464,328,57743,1,8
360,328,57999,6,0,B|320:328,6,25
256,328,58637,1,0
256,328,58764,2,0,B|232:272|256:224,1,100,8|0
264,184,59147,1,0
280,136,59275,2,0,B|280:112,6,25,2|2|2|0|0|0|0
320,104,59786,6,0,B|424:104,1,100,12|0
440,200,60296,2,0,B|504:200,2,50,8|8|0
440,304,60807,2,0,B|336:304,1,100,8|0
296,320,61190,1,0
248,336,61318,2,0,B|200:296|200:232,1,100,8|0
192,200,61701,1,0
160,168,61828,6,0,B|96:168,3,50,8|8|0|8
80,128,62339,2,0,B|80:80,3,50,8|0|8|0
112,40,62850,2,0,B|224:40,1,100
256,72,63233,2,0,B|368:72,1,100
404,104,63616,2,0,B|436:104,2,25
452,160,63871,5,8
452,160,63999,1,0
388,236,64254,1,8
388,236,64382,1,0
320,308,64637,1,8
232,248,64892,5,8
232,248,65020,1,0
232,152,65275,1,8
232,152,65403,1,0
152,88,65658,5,8
152,88,65786,1,0
152,88,65913,2,0,B|48:88,1,100,8|4
72,184,66424,2,0,B|16:184,2,50,8|8|4
160,232,66935,2,0,B|136:288|152:336,1,100,8|0
240,368,67318,2,0,B|264:320|248:264,1,100,0|0
216,120,67956,5,0
216,120,68084,1,8
288,56,68339,1,0
288,56,68467,1,8
368,120,68722,1,0
368,120,68850,1,0
368,120,68977,2,0,B|424:120,1,50,8|0
472,208,69360,2,0,B|408:208,1,50,8|8
368,288,69743,5,8
368,288,69871,1,0
368,288,69999,2,0,B|312:304|256:288,1,100,8|0
208,208,70382,1,0
208,208,70509,2,0,B|256:192|312:200,1,100,8|0
200,120,71020,2,0,B|96:120,1,100,4|0
64,152,71403,2,0,B|32:152,8,25
96,192,72041,5,4
96,192,72296,1,8
96,296,72552,1,0
96,296,72807,1,8
184,352,73062,1,4
184,352,73318,1,8
264,296,73573,1,0
264,296,73828,1,8
264,192,74084,5,4
264,192,74339,1,8
264,96,74594,1,4
264,96,74850,1,8
352,48,75105,2,0,B|384:48,16,25
48,112,84296,6,0,B|48:224,1,100,4|8
128,144,84807,2,0,B|128:248,1,100,0|8
208,176,85318,2,0,B|208:280,1,100,0|8
288,208,85828,2,0,B|288:312,1,100,0|8
332,336,86211,1,8
376,320,86339,6,0,B|376:216,1,100,4|8
464,272,86850,2,0,B|464:160,1,100,0|8
376,120,87360,2,0,B|264:120,1,100,4|8
336,40,87871,2,0,B|224:40,1,100,4|8
184,40,88254,1,8
132,40,88382,5,4
52,100,88637,1,8
52,200,88892,1,0
52,200,89147,1,8
136,256,89403,1,0
136,256,89658,1,8
224,312,89913,1,0
224,312,90169,5,8
272,328,90296,1,8
320,336,90424,1,4
424,312,90679,1,8
464,224,90935,2,0,B|360:224,1,100,0|8
280,168,91445,2,0,B|256:168,16,25
112,160,100637,6,0,B|96:96|112:48,1,100,8|0
200,88,101147,2,0,B|216:144|208:192,1,100
304,144,101658,2,0,B|352:144,1,50,8|0
432,208,102041,1,0
480,208,102169,1,8
424,288,102424,5,0
424,288,102679,2,0,B|360:288,1,50,8|0
320,288,102935,1,8
232,336,103190,1,0
232,336,103445,1,8
136,296,103701,2,0,B|112:240|112:184,1,100
192,224,104084,2,0,B|176:168|176:112,1,100,8|0
176,72,104467,1,0
272,56,104722,6,0,B|376:56,1,100,8|0
464,96,105233,1,0
464,96,105488,1,0
384,152,105743,2,0,B|280:152,1,100,8|0
232,152,106126,1,0
184,152,106254,1,0
88,184,106509,5,0
72,232,106637,1,0
88,280,106764,2,0,B|136:304|184:304,1,100,8|0
232,316,107147,1,0
280,304,107275,2,0,B|336:296|376:272,1,100
436,196,107786,2,0,B|436:124,3,50
388,132,108296,2,0,B|356:108|332:100|300:92|268:92,1,100
176,88,108807,6,0,B|72:88,1,100,8|0
24,176,109318,1,2
24,176,109445,1,0
24,176,109573,1,8
48,272,109828,2,0,B|96:272,3,50,8|0|0|0
152,272,110339,1,12
248,272,110594,1,8
296,272,110722,1,0
344,272,110850,6,0,B|400:272,1,50,0|0
448,184,111233,2,0,B|392:184,1,50,0|8
296,176,111616,1,0
232,104,111871,1,8
184,88,111999,1,0
136,88,112126,1,0
88,112,112254,1,8
56,152,112382,2,0,B|40:184,6,25,4|0|0|0|0|0|0
64,200,112892,6,0,B|64:264,1,50,8|0
136,312,113275,1,8
176,280,113403,2,0,B|176:224,1,50,0|8
224,216,113658,2,0,B|224:160,1,50
256,128,113913,1,8
256,128,114041,1,0
328,56,114296,1,8
328,56,114424,1,0
400,128,114679,5,8
400,128,114807,1,0
400,128,114935,2,0,B|400:192|400:184,1,50,8|0
344,304,115318,2,0,B|344:256,1,50,8|8
272,184,115701,1,0
176,184,115956,2,0,B|72:184,1,100
32,112,116339,2,0,B|136:112,1,100
184,112,116722,1,0
232,112,116850,1,0
232,112,116977,6,0,B|280:112|328:80,1,100,8|0
416,40,117488,2,0,B|440:96|400:144,1,100
472,208,117999,1,8
472,208,118126,1,0
416,288,118382,1,0
416,288,118509,1,0
344,224,118764,1,8
344,224,118892,1,8
344,224,119020,2,0,B|288:224,1,50,8|0
224,296,119403,5,0
224,296,119530,1,0
136,248,119786,1,8
88,248,119913,1,0
40,248,120041,2,0,B|16:192|24:144,1,100
80,80,120424,2,0,B|104:128|96:184,1,100
144,176,120807,2,0,B|208:176,1,50
248,176,121062,5,6
272,80,121318,1,0
304,176,121573,1,0
328,80,121828,1,0
352,176,122084,5,8
384,80,122339,1,0
408,176,122594,1,8
440,80,122850,1,0
464,176,123105,5,8
464,176,123233,1,8
464,272,123488,1,2
464,272,123616,1,8
392,344,123871,1,8
392,344,123999,1,8
392,344,124126,2,0,B|352:344,12,37.4999988824129
316,344,125147,5,4
272,280,125403,1,0
228,344,125658,1,0
184,280,125913,1,0
112,280,126169,2,0,B|32:280,3,74.9999977648259,4|0|0|0
32,208,127190,5,4
32,136,127445,1,0
96,168,127701,1,0
96,96,127956,1,0
160,56,128211,2,0,B|240:56,3,74.9999977648259,4|0|0|0
272,72,129105,1,0
304,88,129233,5,8
376,120,129488,1,0
304,144,129743,1,0
376,176,129999,1,0
304,200,130254,5,8
376,232,130509,1,0
304,256,130764,1,0
376,288,131020,1,0
352,320,131147,1,0
328,352,131275,5,8
328,352,131530,1,0
256,352,131786,1,0
256,352,132041,1,0
184,352,132296,2,0,B|184:320,12,18.7499994412065
112,352,133318,5,8
112,352,133573,1,0
104,280,133828,1,0
104,280,134084,1,0
96,208,134339,5,8
96,208,134594,1,0
88,136,134850,1,0
88,136,135105,1,0
160,128,135360,5,8
160,128,135616,1,0
168,200,135871,1,0
168,200,136126,1,0
176,272,136382,5,8
176,272,136637,1,0
184,344,136892,1,0
184,344,137147,2,0,B|232:344,1,37.4999988824129
256,344,137403,6,0,B|344:344,1,74.9999977648259
304,272,137913,2,0,B|384:272,1,74.9999977648259
352,200,138424,2,0,B|432:200,1,74.9999977648259
400,128,138935,2,0,B|480:128,1,74.9999977648259
448,56,139445,6,0,B|360:56,3,74.9999977648259
256,192,140467,12,4,141488
