osu file format v11

[General]
AudioFilename: goreshit - Satori De Pon!.mp3
AudioLeadIn: 0
PreviewTime: 27059
Countdown: 0
SampleSet: Normal
StackLeniency: 0.7
Mode: 0
LetterboxInBreaks: 0

[Editor]
Bookmarks: 7701,43445,47530,51616,55701,59667,59786,76126,80211,84242,88382,92412,100637,112892,116986,125154,141488
DistanceSpacing: 2
BeatDivisor: 2
GridSize: 4

[Metadata]
Title:Satori De Pon!
TitleUnicode:Satori De Pon!
Artist:goreshit
ArtistUnicode:goreshit
Creator:[CSGA]Ar3sgice
Version:Gezocore 2.5
Source:
Tags:marisa lolicore hardcore Backfire Hyperhappyhardcore Dance Corps 2 Gasaiyuno-chan
BeatmapID:201522
BeatmapSetID:46502

[Difficulty]
HPDrainRate:7
CircleSize:4
OverallDifficulty:7
ApproachRate:10
SliderMultiplier:2.2
SliderTickRate:1

[Events]
//Background and Video events
0,0,"bgezo.jpg"
//Break Periods
2,80411,83846
2,96752,100187
2,133518,136953
//Storyboard Layer 0 (Background)
//Storyboard Layer 1 (Fail)
//Storyboard Layer 2 (Pass)
//Storyboard Layer 3 (Foreground)
//Storyboard Sound Samples
//Background Colour Transformations
3,100,163,162,255

[TimingPoints]
42,255.31914893617,4,1,1,100,1,0
10765,255.31914893617,4,1,1,100,1,0
18903,-100,4,1,1,40,0,0
18967,-100,4,1,1,100,0,0
27041,-100,4,1,1,40,0,0
27105,-100,4,1,1,40,0,1
27169,-100,4,1,1,100,0,1
42935,-100,4,1,1,100,0,0
51552,-100,4,1,1,50,0,0
51679,-100,4,1,1,100,0,0
59786,-100,4,1,1,100,0,1
76126,-100,4,1,1,100,0,0
84296,-89.2857142857143,4,1,0,100,0,0
100573,-89.2857142857143,4,1,0,40,0,0
100637,-100,4,1,1,40,0,1
100701,-100,4,1,1,100,0,1
121062,-66.6666666666667,4,1,1,100,0,1
125147,-133.333333333333,4,1,1,100,0,0

[Colours]
Combo1 : 255,150,0
Combo2 : 219,26,31
Combo3 : 5,5,240
Combo4 : 158,67,177
Combo5 : 233,12,227

[HitObjects]
96,88,9446,1,0,0:0:0
192,128,9616,1,0,0:0:0
216,232,9787,1,0,0:0:0
304,280,9956,1,0,0:0:0
392,224,10127,2,0,B|440:192,3,55
440,152,10382,1,0,0:0:0
432,128,10446,1,0,0:0:0
416,104,10510,1,0,0:0:0
392,88,10573,1,0,0:0:0
368,80,10637,1,0,0:0:0
344,80,10701,1,0,0:0:0
320,88,10765,5,0,0:0:0
256,264,10892,2,0,B|216:328,2,55,0|0|2,0:0|0:0|0:0,0:0:0
200,88,11147,1,0,0:0:0
120,152,11275,1,0,0:0:0
160,240,11403,1,0,0:0:0
176,224,11467,1,0,0:0:0
192,208,11530,1,2,0:0:0
208,192,11594,1,0,0:0:0
224,176,11658,1,0,0:0:0
56,320,11786,1,0,0:0:0
56,104,11913,2,0,B|56:176|56:176|80:216,2,110,0|2|0,0:0|0:0|0:0,0:0:0
136,312,12296,1,0,0:0:0
216,304,12424,2,0,B|272:304|272:304|288:288|288:288|320:288,1,110,0|2,0:0|0:0,0:0:0
386,119,12679,2,0,B|371:173|371:173|352:185|352:185|344:216,2,110
416,48,13062,6,0,B|472:48|472:48|496:96,1,110,2|0,0:0|0:0,0:0:0
352,48,13318,2,0,B|296:48|296:48|272:96,1,110
384,200,13573,2,0,B|384:312,1,110,2|0,0:0|0:0,0:0:0
128,184,13828,2,0,B|128:72,1,110
256,168,14084,1,2,0:0:0
256,216,14211,1,0,0:0:0
256,120,14339,1,2,0:0:0
256,264,14467,1,0,0:0:0
256,64,14594,1,2,0:0:0
256,320,14722,1,0,0:0:0
392,192,14850,1,0,0:0:0
120,192,14977,6,0,B|176:192|176:192|200:144,2,110,0|2|0,0:0|0:0|0:0,0:0:0
256,320,15360,1,0,0:0:0
360,232,15488,1,0,0:0:0
384,216,15552,1,0,0:0:0
392,192,15616,1,2,0:0:0
384,168,15679,1,0,0:0:0
360,152,15743,1,0,0:0:0
256,64,15871,1,0,0:0:0
256,320,15999,1,0,0:0:0
184,184,16126,2,0,B|232:144,2,55,2|0|0,0:0|0:0|0:0,0:0:0
80,64,16382,2,0,B|16:32,2,55
32,208,16637,2,2,B|64:264,2,55,2|0|0,0:0|0:0|0:0,0:0:0
32,208,16892,1,0,0:0:0
136,320,17020,5,0,0:0:0
152,296,17084,1,0,0:0:0
160,264,17147,1,2,0:0:0
192,272,17211,1,0,0:0:0
224,264,17275,1,0,0:0:0
280,224,17403,2,0,B|328:208|336:160|304:120,1,110
248,136,17658,2,0,B|376:136,1,110,2|0,0:0|0:0,0:0:0
464,272,17913,1,0,0:0:0
48,112,18169,2,0,B|160:112,1,110,2|0,0:0|0:0,0:0:0
104,184,18424,2,0,B|216:184,1,110
160,264,18679,1,2,0:0:0
416,64,18807,1,0,0:0:0
160,264,18935,5,4,0:0:0
232,320,19062,1,0,0:0:0
296,264,19190,1,2,0:0:0
312,248,19254,1,0,0:0:0
320,224,19318,1,0,0:0:0
312,200,19382,1,0,0:0:0
296,184,19445,1,0,0:0:0
232,320,19573,1,0,0:0:0
232,64,19701,1,2,0:0:0
232,320,19828,2,0,B|232:264,4,55
112,192,20211,1,2,0:0:0
112,192,20275,1,0,0:0:0
112,192,20339,2,0,B|168:192|184:160|248:160,2,110
88,200,20658,1,0,0:0:0
72,224,20722,1,2,0:0:0
64,248,20786,1,0,0:0:0
72,272,20850,1,0,0:0:0
88,296,20913,1,0,0:0:0
112,304,20977,1,0,0:0:0
248,304,21105,1,0,0:0:0
320,192,21233,5,2,0:0:0
344,192,21297,1,0,0:0:0
368,192,21361,1,0,0:0:0
392,192,21424,1,0,0:0:0
416,192,21488,1,0,0:0:0
368,72,21616,2,0,B|368:200,1,110,0|2,0:0|0:0,0:0:0
256,112,21871,2,0,B|256:240,2,110
144,40,22254,1,2,0:0:0
144,344,22382,1,0,0:0:0
232,136,22509,1,2,0:0:0
232,248,22637,1,0,0:0:0
344,192,22764,1,2,0:0:0
344,192,22892,2,0,B|344:232|320:248|320:248|344:272|344:312,2,110,2|2|0,0:0|0:0|0:0,0:0:0
168,192,23275,6,0,B|88:272,1,110,2|0,0:0|0:0,0:0:0
168,96,23530,2,0,B|248:176,1,110
376,304,23786,2,0,B|296:224,1,110,2|0,0:0|0:0,0:0:0
378,205,24041,2,0,B|456:128,1,110
288,40,24296,1,2,0:0:0
296,48,24360,1,0,0:0:0
304,56,24424,1,0,0:0:0
224,344,24552,1,0,0:0:0
216,336,24616,1,0,0:0:0
208,328,24680,1,0,0:0:0
408,224,24807,1,2,0:0:0
400,232,24871,1,0,0:0:0
392,240,24935,1,0,0:0:0
104,160,25063,1,0,0:0:0
112,152,25127,1,0,0:0:0
120,144,25191,1,0,0:0:0
256,192,25318,5,2,0:0:0
256,192,25382,1,0,0:0:0
256,192,25445,1,0,0:0:0
256,192,25509,1,0,0:0:0
256,192,25573,1,0,0:0:0
184,64,25701,2,0,B|144:48|96:64|80:80,2,110,0|2|0,0:0|0:0|0:0,0:0:0
48,344,26084,2,0,B|96:240,1,110
224,64,26339,2,0,B|176:168,1,110,2|0,0:0|0:0,0:0:0
304,344,26594,2,0,B|352:240,1,110
320,64,26850,2,0,B|272:168,1,110,2|0,0:0|0:0,0:0:0
464,64,27105,5,4,0:0:0
464,288,27233,2,0,B|440:263|464:240|464:240|487:216|464:191,1,110,0|2,0:0|0:0,0:0:0
288,64,27488,1,0,0:0:0
289,288,27616,2,0,B|264:263|289:240|289:240|312:216|289:191,1,110
112,64,27871,2,0,B|224:64,1,110,2|0,0:0|0:0,0:0:0
464,288,28126,1,0,0:0:0
240,288,28254,2,0,B|276:288|288:269|288:269|301:288|337:288,1,110,0|2,0:0|0:0,0:0:0
464,104,28509,1,0,0:0:0
240,104,28637,2,0,B|276:104|288:85|288:85|301:104|339:104,1,110
136,192,28892,1,2,0:0:0
336,192,29020,1,0,0:0:0
136,192,29147,5,0,0:0:0
336,104,29275,2,0,B|456:104,1,110,0|2,0:0|0:0,0:0:0
464,328,29530,1,0,0:0:0
240,336,29658,2,0,B|240:224,3,110,0|0|2|0,0:0|0:0|0:0|0:0,0:0:0
240,184,30169,2,0,B|200:136,3,55
184,128,30424,2,0,B|128:128,3,55,2|0|0|0,0:0|0:0|0:0|0:0,0:0:0
104,128,30679,2,0,B|64:80,3,55
48,96,30935,2,0,B|8:144,3,55,2|0|0|0,0:0|0:0|0:0|0:0,0:0:0
24,160,31190,5,0,0:0:0
40,176,31254,1,0,0:0:0
56,192,31318,1,0,0:0:0
160,336,31445,1,2,0:0:0
368,264,31573,1,0,0:0:0
360,232,31637,1,0,0:0:0
352,200,31701,1,0,0:0:0
288,96,31828,1,0,0:0:0
176,40,31956,2,0,B|48:24,1,110,2|0,0:0|0:0,0:0:0
336,344,32211,2,0,B|464:360,2,110,0|0|2,0:0|0:0|0:0,0:0:0
176,344,32594,2,0,B|48:360,2,110
256,136,32977,1,2,0:0:0
264,120,33041,1,0,0:0:0
272,104,33105,1,0,0:0:0
104,192,33233,5,0,0:0:0
120,192,33296,1,0,0:0:0
136,192,33360,1,0,0:0:0
312,192,33488,1,2,0:0:0
248,360,33616,1,0,0:0:0
248,328,33679,1,0,0:0:0
248,296,33743,1,0,0:0:0
312,192,33871,1,0,0:0:0
376,104,33999,2,0,B|432:72,7,55,2|0|0|0|0|0|0|0,0:0|0:0|0:0|0:0|0:0|0:0|0:0|0:0,0:0:0
440,96,34509,2,0,B|448:160,7,55,2|0|0|0|0|0|0|0,0:0|0:0|0:0|0:0|0:0|0:0|0:0|0:0,0:0:0
448,176,35020,1,2,0:0:0
440,200,35084,1,0,0:0:0
432,224,35147,1,0,0:0:0
416,248,35211,1,0,0:0:0
400,272,35275,5,0,0:0:0
176,272,35403,2,0,B|216:256|216:256|240:288|280:272,1,110,0|2,0:0|0:0,0:0:0
176,80,35658,1,0,0:0:0
400,80,35786,2,0,B|360:64|360:64|336:96|296:80,1,110
104,176,36041,2,0,B|128:176|128:176|136:168|136:168|136:184|136:184|144:176|144:176|192:176,1,110,2|0,0:0|0:0,0:0:0
344,336,36296,1,0,0:0:0
272,128,36424,2,0,B|296:152|272:176|272:176|256:192|288:224,2,110,0|2|0,0:0|0:0|0:0,0:0:0
144,224,36807,2,0,B|176:256|160:272|160:272|136:296|160:320,1,110
144,96,37062,2,0,B|144:40|144:40|88:40,1,110,2|0,0:0|0:0,0:0:0
312,40,37318,5,0,0:0:0
336,40,37382,1,0,0:0:0
360,40,37445,1,0,0:0:0
336,216,37573,1,2,0:0:0
208,336,37701,1,0,0:0:0
192,312,37764,1,0,0:0:0
192,280,37828,1,0,0:0:0
400,216,37956,1,0,0:0:0
464,216,38084,2,0,B|464:288,2,55,2|0|0,0:0|0:0|0:0,0:0:0
304,136,38339,6,0,B|256:160,3,55
232,136,38594,2,0,B|176:120,3,55,2|0|0|0,0:0|0:0|0:0|0:0,0:0:0
160,144,38850,2,0,B|120:192,3,55
96,200,39105,2,0,B|32:224,3,55,2|0|0|0,0:0|0:0|0:0|0:0,0:0:0
48,256,39360,5,0,0:0:0
56,288,39424,1,0,0:0:0
88,304,39488,1,0,0:0:0
120,312,39552,1,0,0:0:0
152,304,39616,1,2,0:0:0
184,304,39679,1,0,0:0:0
216,312,39743,1,0,0:0:0
248,312,39807,1,0,0:0:0
280,304,39871,2,0,B|328:280,3,55
344,248,40126,2,0,B|400:224,3,55,2|0|0|0,0:0|0:0|0:0|0:0,0:0:0
408,200,40382,5,0,0:0:0
416,168,40445,1,0,0:0:0
408,136,40509,1,0,0:0:0
384,112,40573,1,0,0:0:0
368,80,40637,1,2,0:0:0
344,56,40701,1,0,0:0:0
312,48,40764,1,0,0:0:0
280,56,40828,1,0,0:0:0
248,72,40892,2,0,B|200:104,3,55
176,80,41147,2,0,B|136:40,3,55,2|0|0|0,0:0|0:0|0:0|0:0,0:0:0
104,56,41403,5,2,0:0:0
80,80,41467,1,0,0:0:0
72,112,41530,1,0,0:0:0
88,144,41594,1,0,0:0:0
112,160,41658,1,2,0:0:0
136,184,41722,1,0,0:0:0
144,216,41786,1,0,0:0:0
120,240,41850,1,0,0:0:0
96,256,41913,2,0,B|48:296,3,55,2|0|0|0,0:0|0:0|0:0|0:0,0:0:0
80,312,42169,2,2,B|136:344,3,55,2|0|0|0,0:0|0:0|0:0|0:0,0:0:0
160,344,42424,2,0,B|223:362|266:301|202:237|138:301|175:362|250:344,1,220,0|2,0:0|0:0,0:0:0
312,344,42807,1,0,0:0:0
352,304,42935,2,0,B|376:280,7,27.5
376,272,43190,2,2,B|384:232,7,27.5,2|0|0|0|0|0|0|0,0:0|0:0|0:0|0:0|0:0|0:0|0:0|0:0,0:0:0
384,232,43445,5,0,0:0:0
256,128,43573,1,0,0:0:0
232,136,43637,1,0,0:0:0
216,152,43701,2,0,B|152:168|144:240,2,110,2|0|0,0:0|0:0|0:0,0:0:0
344,128,44084,2,0,B|400:96|464:136,1,110,0|2,0:0|0:0,0:0:0
168,128,44339,2,0,B|112:96|48:136,1,110
256,232,44594,1,0,0:0:0
256,344,44722,1,2,0:0:0
232,336,44786,1,0,0:0:0
208,336,44850,1,0,0:0:0
184,320,44913,1,0,0:0:0
160,312,44977,1,0,0:0:0
64,232,45105,2,0,B|64:168|40:136|40:80,1,110,0|2,0:0|0:0,0:0:0
448,152,45360,2,0,B|448:216|472:248|472:304,1,110
256,232,45616,1,0,0:0:0
256,112,45743,5,2,0:0:0
248,88,45807,1,0,0:0:0
232,72,45871,1,0,0:0:0
208,64,45935,1,0,0:0:0
184,64,45999,1,0,0:0:0
256,232,46126,2,0,B|288:232|288:232|288:288|328:288,2,110,0|2|0,0:0|0:0|0:0,0:0:0
208,232,46509,1,0,0:0:0
88,328,46637,1,0,0:0:0
56,176,46764,1,2,0:0:0
208,232,46892,1,0,0:0:0
88,328,47020,1,0,0:0:0
56,176,47147,1,0,0:0:0
208,232,47275,1,2,0:0:0
208,264,47339,1,0,0:0:0
224,296,47403,1,0,0:0:0
256,312,47467,1,0,0:0:0
288,312,47530,5,0,0:0:0
352,312,47658,2,0,B|448:256,1,110,0|2,0:0|0:0,0:0:0
304,136,47913,2,0,B|352:240,1,110
192,136,48169,2,0,B|80:136,1,110,0|2,0:0|0:0,0:0:0
144,312,48424,2,0,B|144:200,1,110
48,40,48679,2,0,B|96:160,1,110,0|2,0:0|0:0,0:0:0
464,344,48935,2,0,B|416:224,1,110
48,344,49190,2,0,B|96:224,1,110,0|2,0:0|0:0,0:0:0
464,40,49446,2,0,B|416:160,1,110
256,64,49701,5,0,0:0:0
256,72,49764,1,0,0:0:0
256,80,49828,1,2,0:0:0
256,88,49892,1,0,0:0:0
256,96,49956,1,0,0:0:0
256,104,50020,1,0,0:0:0
256,112,50084,2,0,B|248:168|184:184,3,110,0|0|2|0,0:0|0:0|0:0|0:0,0:0:0
256,328,50594,1,0,0:0:0
315,69,50722,1,0,0:0:0
150,277,50850,1,2,0:0:0
388,161,50977,1,0,0:0:0
123,161,51105,1,0,0:0:0
361,277,51233,1,0,0:0:0
196,69,51360,1,2,0:0:0
256,328,51488,1,0,0:0:0
315,69,51616,5,4,0:0:0
288,144,51743,2,0,B|256:192,2,55,0|0|2,0:0|0:0|0:0,0:0:0
296,296,51999,2,0,B|352:200,1,110
216,296,52254,2,0,B|160:200,1,110,0|2,0:0|0:0,0:0:0
256,80,52509,1,0,0:0:0
408,80,52637,1,0,0:0:0
432,96,52701,1,0,0:0:0
440,120,52764,1,0,0:0:0
432,144,52828,1,0,0:0:0
408,160,52892,1,2,0:0:0
408,216,53020,2,0,B|408:328,1,110
104,168,53275,2,0,B|104:56,1,110,0|2,0:0|0:0,0:0:0
256,192,53530,1,0,0:0:0
160,248,53658,2,0,B|146:267|119:278|119:278|118:306|100:333,2,110,0|0|2,0:0|0:0|0:0,0:0:0
168,224,53977,5,0,0:0:0
176,200,54041,1,0,0:0:0
184,176,54105,1,0,0:0:0
192,152,54169,1,0,0:0:0
392,64,54296,1,0,0:0:0
192,152,54424,1,2,0:0:0
56,64,54552,2,0,B|32:176,1,110
232,272,54807,2,0,B|272:144,1,110,0|2,0:0|0:0,0:0:0
56,64,55062,2,0,B|32:176,1,110
232,272,55317,2,0,B|272:144,1,110,0|2,0:0|0:0,0:0:0
296,64,55573,1,0,0:0:0
264,168,55701,5,0,0:0:0
280,176,55764,1,0,0:0:0
296,184,55828,1,0,0:0:0
312,184,55892,1,0,0:0:0
328,184,55956,2,0,B|408:104,1,110,0|0,0:0|0:0,0:0:0
328,280,56211,2,0,B|248:200,1,110
120,72,56467,2,0,B|200:152,1,110,0|0,0:0|0:0,0:0:0
118,171,56722,2,0,B|40:248,1,110
208,336,56977,1,2,0:0:0
200,328,57041,1,0,0:0:0
192,320,57105,1,0,0:0:0
272,32,57233,1,0,0:0:0
280,40,57297,1,0,0:0:0
288,48,57361,1,0,0:0:0
88,152,57488,1,2,0:0:0
96,144,57552,1,0,0:0:0
104,136,57616,1,0,0:0:0
392,216,57744,1,0,0:0:0
384,224,57808,1,0,0:0:0
376,232,57872,1,0,0:0:0
240,184,57999,5,2,0:0:0
240,184,58063,1,0,0:0:0
240,184,58126,1,0,0:0:0
240,184,58190,1,0,0:0:0
240,184,58254,1,0,0:0:0
312,312,58382,2,0,B|352:328|400:312|416:296,2,110,0|2|0,0:0|0:0|0:0,0:0:0
448,32,58765,2,0,B|400:136,1,110
272,312,59020,2,0,B|320:208,1,110,2|0,0:0|0:0,0:0:0
192,32,59275,2,0,B|144:136,1,110
176,312,59531,2,0,B|224:208,1,110,2|0,0:0|0:0,0:0:0
32,312,59786,5,4,0:0:0
40,296,59850,1,0,0:0:0
40,280,59913,1,0,0:0:0
32,264,59977,1,0,0:0:0
32,248,60041,1,2,0:0:0
40,232,60105,1,0,0:0:0
56,224,60169,1,0,0:0:0
72,216,60233,1,0,0:0:0
80,200,60296,5,0,0:0:0
88,184,60360,1,0,0:0:0
96,168,60424,1,0,0:0:0
112,160,60488,1,0,0:0:0
128,160,60552,1,2,0:0:0
144,160,60616,1,0,0:0:0
160,152,60679,1,0,0:0:0
168,136,60743,1,0,0:0:0
184,128,60807,6,0,B|248:96,3,55
248,104,61062,2,0,B|304:112,3,55,2|0|0|0,0:0|0:0|0:0|0:0,0:0:0
320,104,61318,6,0,B|368:72,3,55
384,80,61573,2,0,B|440:112,3,55,2|0|0|0,0:0|0:0|0:0|0:0,0:0:0
440,120,61828,5,0,0:0:0
440,136,61892,1,0,0:0:0
432,152,61956,1,0,0:0:0
424,168,62020,1,0,0:0:0
424,184,62084,1,2,0:0:0
424,200,62147,1,0,0:0:0
424,216,62211,1,0,0:0:0
416,232,62275,1,0,0:0:0
400,240,62339,1,0,0:0:0
384,240,62403,1,0,0:0:0
368,240,62467,1,0,0:0:0
352,248,62530,1,0,0:0:0
336,256,62594,1,2,0:0:0
328,272,62658,1,0,0:0:0
320,288,62722,1,0,0:0:0
304,296,62786,1,0,0:0:0
288,304,62850,2,0,B|208:344,3,55
224,320,63105,2,0,B|160:288,3,55,2|0|0|0,0:0|0:0|0:0|0:0,0:0:0
160,304,63360,2,0,B|104:320,3,55
96,304,63616,2,0,B|56:264,3,55,2|0|0|0,0:0|0:0|0:0|0:0,0:0:0
56,248,63871,5,0,0:0:0
56,232,63935,1,0,0:0:0
64,216,63999,1,0,0:0:0
80,208,64062,1,0,0:0:0
88,192,64126,1,2,0:0:0
88,176,64190,1,0,0:0:0
80,160,64254,1,0,0:0:0
72,144,64318,1,0,0:0:0
72,128,64382,5,0,0:0:0
80,112,64445,1,0,0:0:0
96,104,64509,1,0,0:0:0
112,96,64573,1,0,0:0:0
128,96,64637,1,2,0:0:0
144,96,64701,1,0,0:0:0
160,88,64764,1,0,0:0:0
176,88,64828,1,0,0:0:0
192,80,64892,6,0,B|240:48,3,55
248,64,65147,2,0,B|280:112,3,55,2|0|0|0,0:0|0:0|0:0|0:0,0:0:0
296,104,65403,6,0,B|360:80,3,55
360,96,65658,2,0,B|416:136,3,55,2|0|0|0,0:0|0:0|0:0|0:0,0:0:0
408,144,65913,6,0,B|376:200,1,55
376,208,66041,2,0,B|392:272,1,55
384,272,66169,2,0,B|344:328,1,55,2|0,0:0|0:0,0:0:0
336,328,66296,2,0,B|272:344,1,55
264,336,66424,2,0,B|200:320,1,55
200,312,66552,2,0,B|160:272,1,55
144,280,66679,2,0,B|80:312,1,55,2|0,0:0|0:0,0:0:0
88,288,66807,2,0,B|64:232,1,55
56,224,66935,6,0,B|24:176,3,55
32,168,67190,2,0,B|80:104,3,55,2|0|0|0,0:0|0:0|0:0|0:0,0:0:0
80,112,67445,2,0,B|136:80,3,55
144,88,67701,2,0,B|208:96,3,55,2|0|0|0,0:0|0:0|0:0|0:0,0:0:0
216,88,67956,5,0,0:0:0
232,80,68020,1,0,0:0:0
248,80,68084,1,0,0:0:0
264,80,68147,1,0,0:0:0
280,80,68211,1,2,0:0:0
296,88,68275,1,0,0:0:0
312,96,68339,1,0,0:0:0
328,104,68403,1,0,0:0:0
336,120,68467,5,0,0:0:0
344,136,68530,1,0,0:0:0
352,152,68594,1,0,0:0:0
352,168,68658,1,0,0:0:0
344,184,68722,1,2,0:0:0
336,200,68786,1,0,0:0:0
328,216,68850,1,0,0:0:0
320,232,68913,1,0,0:0:0
320,248,68977,5,0,0:0:0
328,264,69041,1,0,0:0:0
344,272,69105,1,0,0:0:0
360,272,69169,1,0,0:0:0
376,280,69233,1,2,0:0:0
376,296,69296,1,0,0:0:0
368,312,69360,1,0,0:0:0
352,320,69424,1,0,0:0:0
336,320,69488,1,0,0:0:0
320,320,69552,1,0,0:0:0
304,320,69616,1,0,0:0:0
288,320,69679,1,0,0:0:0
272,312,69743,1,2,0:0:0
256,304,69807,1,0,0:0:0
240,296,69871,1,0,0:0:0
232,280,69935,1,0,0:0:0
224,264,69999,6,0,B|208:208,3,55
192,208,70254,2,0,B|144:184,3,55,2|0|0|0,0:0|0:0|0:0|0:0,0:0:0
128,192,70509,2,0,B|80:248,3,55
96,248,70764,2,0,B|112:304,3,55,2|0|0|0,0:0|0:0|0:0|0:0,0:0:0
120,312,71020,6,0,B|168:344,3,55
184,336,71275,2,0,B|240:320,3,55,2|0|0|0,0:0|0:0|0:0|0:0,0:0:0
248,312,71530,2,0,B|296:288,3,55
304,272,71786,2,0,B|336:216,3,55,2|0|0|0,0:0|0:0|0:0|0:0,0:0:0
336,208,72041,5,0,0:0:0
344,192,72105,1,0,0:0:0
352,176,72169,1,0,0:0:0
352,160,72233,1,0,0:0:0
352,144,72296,1,2,0:0:0
344,128,72360,1,0,0:0:0
336,112,72424,1,0,0:0:0
328,96,72488,1,0,0:0:0
312,88,72552,1,0,0:0:0
296,80,72616,1,0,0:0:0
280,72,72679,1,0,0:0:0
264,72,72743,1,0,0:0:0
248,80,72807,1,2,0:0:0
232,88,72871,1,0,0:0:0
216,96,72935,1,0,0:0:0
208,112,72999,1,0,0:0:0
200,128,73062,5,0,0:0:0
192,144,73126,1,0,0:0:0
192,160,73190,1,0,0:0:0
192,176,73254,1,0,0:0:0
200,192,73318,1,2,0:0:0
208,208,73382,1,0,0:0:0
216,216,73445,1,0,0:0:0
232,224,73509,1,0,0:0:0
248,232,73573,5,0,0:0:0
264,240,73637,1,0,0:0:0
280,240,73701,1,0,0:0:0
296,240,73764,1,0,0:0:0
312,248,73828,1,2,0:0:0
328,256,73892,1,0,0:0:0
344,264,73956,1,0,0:0:0
352,280,74020,1,0,0:0:0
352,296,74084,6,0,B|328:360,3,55
320,352,74339,6,0,B|240:368,3,55,2|0|0|0,0:0|0:0|0:0|0:0,0:0:0
248,352,74594,6,0,B|176:320,3,55
184,320,74850,6,0,B|136:288,3,55,2|0|0|0,0:0|0:0|0:0|0:0,0:0:0
128,272,75105,6,0,B|96:224,3,55
88,208,75360,6,0,B|72:152,3,55,2|0|0|0,0:0|0:0|0:0|0:0,0:0:0
72,136,75616,6,8,B|72:104,7,27.5
72,104,75871,2,8,B|104:96,7,27.5,2|0|0|0|0|0|0|0,0:0|0:0|0:0|0:0|0:0|0:0|0:0|0:0,0:0:0
120,96,76126,5,8,0:0:0
208,96,76254,2,0,B|224:32|288:32,1,110,0|2,0:0|0:0,0:0:0
288,112,76509,2,0,B|304:176|368:176,1,110
368,96,76764,2,0,B|424:96|464:136|464:200,1,110,0|2,0:0|0:0,0:0:0
456,232,77020,2,0,B|456:296|384:296,1,110
376,216,77275,2,0,B|304:216|304:288,1,110,0|2,0:0|0:0,0:0:0
248,336,77530,2,0,B|200:336|184:320|184:264,1,110
184,192,77786,2,0,B|184:136|208:136|208:80,1,110,0|2,0:0|0:0,0:0:0
288,88,78041,2,0,B|344:88,2,55
288,168,78296,6,0,B|352:168|352:168|400:112,1,110,0|2,0:0|0:0,0:0:0
456,136,78552,2,0,B|456:200|456:200|424:248,1,110,0|0,0:0|0:0,0:0:0
432,312,78807,2,0,B|400:312|400:312|384:336|384:336|328:336,1,110,0|2,0:0|0:0,0:0:0
256,336,79062,2,0,B|256:264|256:264|224:240,1,110
144,240,79318,2,0,B|32:240,1,110,0|2,0:0|0:0,0:0:0
72,176,79573,2,0,B|72:112|72:112|104:72,1,110
152,136,79828,2,0,B|272:136,1,110,0|2,0:0|0:0,0:0:0
352,336,80084,1,0,0:0:0
448,136,80211,1,0,0:0:0
64,48,84296,5,4,0:0:0
160,112,84424,1,0,0:0:0
144,128,84488,1,0,0:0:0
128,144,84552,1,6,0:0:0
280,64,84679,1,0,0:0:0
304,72,84743,1,0,0:0:0
328,80,84807,1,4,0:0:0
360,288,84935,1,0,0:0:0
384,288,84999,1,0,0:0:0
408,288,85062,1,6,0:0:0
192,280,85190,1,0,0:0:0
176,296,85254,1,0,0:0:0
160,312,85318,1,4,0:0:0
304,192,85445,1,0,0:0:0
280,192,85509,1,0,0:0:0
256,192,85573,1,6,0:0:0
480,32,85701,1,0,0:0:0
464,48,85764,1,0,0:0:0
448,72,85828,1,4,0:0:0
216,48,85956,1,0,0:0:0
192,48,86020,1,0,0:0:0
168,48,86084,1,6,0:0:0
248,264,86211,6,0,B|288:328,2,61.6000005874634,2|0|4,0:0|0:0|0:0,0:0:0
168,168,86467,2,0,B|88:144,2,61.6000005874634,0|0|6,0:0|0:0|0:0,0:0:0
288,200,86722,2,0,B|312:272,2,61.6000005874634,0|0|4,0:0|0:0|0:0,0:0:0
264,80,86977,2,0,B|200:96,2,61.6000005874634,0|0|6,0:0|0:0|0:0,0:0:0
384,56,87233,2,0,B|328:16,2,61.6000005874634,0|0|4,0:0|0:0|0:0,0:0:0
488,120,87488,2,0,B|488:56,2,61.6000005874634,0|0|6,0:0|0:0|0:0,0:0:0
488,240,87743,2,0,B|488:304,2,61.6000005874634,0|0|4,0:0|0:0|0:0,0:0:0
376,184,87999,2,0,B|376:120,2,61.6000005874634,0|0|6,0:0|0:0|0:0,0:0:0
152,280,88254,1,0,0:0:0
48,56,88382,5,4,0:0:0
168,80,88509,1,0,0:0:0
184,96,88573,1,0,0:0:0
208,104,88637,2,0,B|272:96|336:112,1,123.200001174927,6|0,0:0|0:0,0:0:0
344,136,88828,1,0,0:0:0
336,160,88892,2,0,B|304:200|328:224|264:280,1,123.200001174927,4|0,0:0|0:0,0:0:0
280,288,89084,1,0,0:0:0
296,304,89147,2,0,B|344:352|392:240|440:328,1,123.200001174927,6|0,0:0|0:0,0:0:0
432,280,89339,1,0,0:0:0
440,256,89403,2,0,B|456:200|456:200|432:152|456:104,1,123.200001174927,4|0,0:0|0:0,0:0:0
448,112,89594,1,0,0:0:0
440,88,89658,2,0,B|392:48|312:48,1,123.200001174927,6|0,0:0|0:0,0:0:0
304,56,89850,1,0,0:0:0
280,48,89913,2,0,B|216:32|144:48,1,123.200001174927,4|0,0:0|0:0,0:0:0
136,56,90105,1,0,0:0:0
120,72,90169,2,0,B|80:112|88:168|40:200,1,123.200001174927,6|0,0:0|0:0,0:0:0
64,208,90360,1,0,0:0:0
72,232,90424,6,0,B|96:280|152:256|200:272,1,123.200001174927,4|0,0:0|0:0,0:0:0
200,248,90616,1,0,0:0:0
216,232,90679,2,0,B|264:168|328:176,1,123.200001174927,6|0,0:0|0:0,0:0:0
344,184,90871,1,0,0:0:0
360,208,90935,2,0,B|344:272|392:328,1,123.200001174927,4|0,0:0|0:0,0:0:0
416,320,91126,1,0,0:0:0
440,304,91190,2,0,B|488:200|464:152,2,123.200001174927,6|0|4,0:0|0:0|0:0,0:0:0
416,320,91509,1,0,0:0:0
392,328,91573,1,0,0:0:0
368,328,91637,1,0,0:0:0
344,328,91701,1,2,0:0:0
320,328,91764,1,0,0:0:0
296,328,91828,1,0,0:0:0
272,328,91892,1,0,0:0:0
248,328,91956,2,0,B|200:312,3,30.8000002937317
208,328,92084,2,0,B|176:344,3,30.8000002937317
176,328,92211,2,0,B|144:304,3,30.8000002937317,2|0|0|0,0:0|0:0|0:0|0:0,0:0:0
144,304,92339,2,0,B|112:288,3,30.8000002937317
120,280,92467,5,0,0:0:0
48,216,92594,2,0,B|24:160,2,61.6000005874634,0|0|2,0:0|0:0|0:0,0:0:0
96,128,92850,2,0,B|112:64,2,61.6000005874634
184,88,93105,2,0,B|224:32,2,61.6000005874634,0|0|2,0:0|0:0|0:0,0:0:0
280,112,93360,2,0,B|368:96,2,61.6000005874634
336,192,93616,2,0,B|416:208,2,61.6000005874634,0|0|2,0:0|0:0|0:0,0:0:0
296,280,93871,2,0,B|328:344,2,61.6000005874634
240,200,94126,2,0,B|176:224,2,61.6000005874634,0|0|2,0:0|0:0|0:0,0:0:0
208,296,94382,2,0,B|176:360,2,61.6000005874634
144,216,94637,2,0,B|160:128,2,61.6000005874634,0|0|2,0:0|0:0|0:0,0:0:0
176,120,94892,2,0,B|208:56,2,61.6000005874634
272,112,95147,2,0,B|336:72,2,61.6000005874634,0|0|2,0:0|0:0|0:0,0:0:0
336,184,95403,2,0,B|400:160,2,61.6000005874634
304,280,95658,2,0,B|360:328,2,61.6000005874634,0|0|2,0:0|0:0|0:0,0:0:0
400,256,95913,2,0,B|464:240,2,61.6000005874634
440,160,96169,2,0,B|472:104,2,61.6000005874634,0|0|2,0:0|0:0|0:0,0:0:0
232,288,96424,1,0,0:0:0
40,128,96552,5,0,0:0:0
48,64,100637,5,4,0:0:0
48,288,100765,2,0,B|72:263|48:240|48:240|25:216|48:191,1,110,0|2,0:0|0:0,0:0:0
224,64,101020,1,0,0:0:0
223,288,101148,2,0,B|248:263|223:240|223:240|200:216|223:191,1,110
400,64,101403,2,0,B|288:64,1,110,2|0,0:0|0:0,0:0:0
48,288,101658,1,0,0:0:0
272,288,101786,2,0,B|236:288|224:269|224:269|211:288|175:288,1,110,0|2,0:0|0:0,0:0:0
48,104,102041,1,0,0:0:0
272,104,102169,2,0,B|236:104|224:85|224:85|211:104|173:104,1,110
376,192,102424,1,2,0:0:0
176,192,102552,1,0,0:0:0
376,192,102679,5,0,0:0:0
176,104,102807,2,0,B|56:104,1,110,0|2,0:0|0:0,0:0:0
48,328,103062,1,0,0:0:0
272,336,103190,2,0,B|272:224,3,110,0|0|2|0,0:0|0:0|0:0|0:0,0:0:0
272,184,103701,2,0,B|312:136,3,55
328,128,103956,2,0,B|384:128,3,55,2|0|0|0,0:0|0:0|0:0|0:0,0:0:0
408,128,104211,2,0,B|448:80,3,55
464,96,104467,2,0,B|504:144,3,55,2|0|0|0,0:0|0:0|0:0|0:0,0:0:0
488,160,104722,5,0,0:0:0
472,176,104786,1,0,0:0:0
456,192,104850,1,0,0:0:0
352,336,104977,1,2,0:0:0
144,264,105105,1,0,0:0:0
152,232,105169,1,0,0:0:0
160,200,105233,1,0,0:0:0
224,96,105360,1,0,0:0:0
336,40,105488,2,0,B|464:24,1,110,2|0,0:0|0:0,0:0:0
176,344,105743,2,0,B|48:360,2,110,0|0|2,0:0|0:0|0:0,0:0:0
336,344,106126,2,0,B|464:360,2,110
256,136,106509,1,2,0:0:0
248,120,106573,1,0,0:0:0
240,104,106637,1,0,0:0:0
408,192,106765,5,0,0:0:0
392,192,106828,1,0,0:0:0
376,192,106892,1,0,0:0:0
200,192,107020,1,2,0:0:0
264,360,107148,1,0,0:0:0
264,328,107211,1,0,0:0:0
264,296,107275,1,0,0:0:0
200,192,107403,1,0,0:0:0
136,104,107531,2,0,B|80:72,7,55,2|0|0|0|0|0|0|0,0:0|0:0|0:0|0:0|0:0|0:0|0:0|0:0,0:0:0
72,96,108041,2,0,B|64:160,7,55,2|0|0|0|0|0|0|0,0:0|0:0|0:0|0:0|0:0|0:0|0:0|0:0,0:0:0
64,176,108552,1,2,0:0:0
72,200,108616,1,0,0:0:0
80,224,108679,1,0,0:0:0
96,248,108743,1,0,0:0:0
112,272,108807,5,0,0:0:0
336,272,108935,2,0,B|296:256|296:256|272:288|232:272,1,110,0|2,0:0|0:0,0:0:0
336,80,109190,1,0,0:0:0
112,80,109318,2,0,B|152:64|152:64|176:96|216:80,1,110
408,176,109573,2,0,B|384:176|384:176|376:168|376:168|376:184|376:184|368:176|368:176|320:176,1,110,2|0,0:0|0:0,0:0:0
168,336,109828,1,0,0:0:0
240,128,109956,2,0,B|216:152|240:176|240:176|256:192|224:224,2,110,0|2|0,0:0|0:0|0:0,0:0:0
368,224,110339,2,0,B|336:256|352:272|352:272|376:296|352:320,1,110
368,96,110594,2,0,B|368:40|368:40|424:40,1,110,2|0,0:0|0:0,0:0:0
200,40,110850,5,0,0:0:0
176,40,110914,1,0,0:0:0
152,40,110977,1,0,0:0:0
176,216,111105,1,2,0:0:0
304,336,111233,1,0,0:0:0
320,312,111296,1,0,0:0:0
320,280,111360,1,0,0:0:0
112,216,111488,1,0,0:0:0
48,216,111616,2,0,B|48:288,2,55,2|0|0,0:0|0:0|0:0,0:0:0
208,136,111871,2,0,B|256:160,3,55
280,136,112126,2,0,B|336:120,3,55,2|0|0|0,0:0|0:0|0:0|0:0,0:0:0
352,144,112382,2,0,B|392:192,3,55
416,200,112637,2,0,B|480:224,3,55,2|0|0|0,0:0|0:0|0:0|0:0,0:0:0
464,256,112892,5,0,0:0:0
456,288,112956,1,0,0:0:0
424,304,113020,1,0,0:0:0
392,312,113084,1,0,0:0:0
360,304,113148,1,2,0:0:0
328,304,113211,1,0,0:0:0
296,312,113275,1,0,0:0:0
264,312,113339,1,0,0:0:0
232,304,113403,2,0,B|184:280,3,55
168,248,113658,2,0,B|112:224,3,55,2|0|0|0,0:0|0:0|0:0|0:0,0:0:0
104,200,113914,5,0,0:0:0
96,168,113977,1,0,0:0:0
104,136,114041,1,0,0:0:0
128,112,114105,1,0,0:0:0
144,80,114169,1,2,0:0:0
168,56,114233,1,0,0:0:0
200,48,114296,1,0,0:0:0
232,56,114360,1,0,0:0:0
264,72,114424,2,0,B|312:104,3,55
336,80,114679,2,0,B|376:40,3,55,2|0|0|0,0:0|0:0|0:0|0:0,0:0:0
408,56,114935,5,0,0:0:0
432,80,114999,1,0,0:0:0
440,112,115062,1,0,0:0:0
424,144,115126,1,0,0:0:0
400,160,115190,1,2,0:0:0
376,184,115254,1,0,0:0:0
368,216,115318,1,0,0:0:0
392,240,115382,1,0,0:0:0
416,256,115445,2,0,B|464:296,3,55
432,312,115701,2,0,B|376:344,3,55,2|0|0|0,0:0|0:0|0:0|0:0,0:0:0
352,344,115956,6,0,B|289:362|246:301|310:237|374:301|337:362|262:344,1,220,0|2,0:0|0:0,0:0:0
200,344,116339,1,0,0:0:0
32,200,116467,1,0,0:0:0
200,56,116594,2,0,B|240:56,3,27.5
248,64,116722,2,0,B|288:80,7,27.5,2|0|0|0|0|0|0|0,0:0|0:0|0:0|0:0|0:0|0:0|0:0|0:0,0:0:0
288,96,116977,5,0,0:0:0
312,96,117041,1,0,0:0:0
336,88,117105,1,0,0:0:0
360,80,117169,1,0,0:0:0
384,88,117233,1,2,0:0:0
400,104,117296,1,0,0:0:0
416,128,117360,1,0,0:0:0
424,152,117424,1,0,0:0:0
408,176,117488,2,0,B|368:216,1,55
376,240,117616,2,0,B|400:296,1,55
376,304,117743,2,0,B|328:344,1,55,2|0,0:0|0:0,0:0:0
304,336,117871,2,0,B|248:320,1,55
224,312,117999,5,0,0:0:0
200,320,118062,1,0,0:0:0
176,312,118126,1,0,0:0:0
152,296,118190,1,0,0:0:0
136,272,118254,1,2,0:0:0
128,248,118318,1,0,0:0:0
128,224,118382,1,0,0:0:0
136,200,118445,1,0,0:0:0
128,176,118509,2,0,B|96:112,1,55
120,104,118637,2,0,B|80:64,1,55
56,72,118764,2,0,B|8:112,1,55,2|0,0:0|0:0,0:0:0
16,136,118892,2,0,B|40:208,1,55
32,216,119020,5,0,0:0:0
32,240,119084,1,0,0:0:0
48,264,119147,1,0,0:0:0
72,280,119211,1,0,0:0:0
96,280,119275,1,2,0:0:0
120,272,119339,1,0,0:0:0
144,264,119403,1,0,0:0:0
168,248,119467,1,0,0:0:0
192,232,119530,1,0,0:0:0
216,216,119594,1,0,0:0:0
240,200,119658,1,0,0:0:0
256,176,119722,1,0,0:0:0
272,152,119786,1,2,0:0:0
296,136,119850,1,0,0:0:0
320,128,119913,1,0,0:0:0
344,136,119977,1,0,0:0:0
360,160,120041,6,0,B|392:208,3,55
376,232,120296,2,0,B|360:288,3,55,2|0|0|0,0:0|0:0|0:0|0:0,0:0:0
384,296,120552,2,0,B|352:344,3,55
328,344,120807,2,0,B|264:344,3,55,2|0|0|0,0:0|0:0|0:0|0:0,0:0:0
256,344,121062,5,0,0:0:0
232,336,121126,1,0,0:0:0
216,320,121190,1,0,0:0:0
192,312,121254,1,0,0:0:0
168,312,121318,1,2,0:0:0
144,304,121382,1,0,0:0:0
128,288,121445,1,0,0:0:0
112,272,121509,1,0,0:0:0
104,248,121573,6,0,B|40:192,3,82.4999975413085
48,168,121828,2,0,B|104:96,3,82.4999975413085,2|0|0|0,0:0|0:0|0:0|0:0,0:0:0
120,96,122084,5,0,0:0:0
144,88,122147,1,0,0:0:0
168,80,122211,1,0,0:0:0
192,80,122275,1,0,0:0:0
216,80,122339,1,2,0:0:0
240,88,122403,1,0,0:0:0
264,96,122467,1,0,0:0:0
288,112,122530,1,0,0:0:0
304,128,122594,6,0,B|376:176,3,82.4999975413085
400,168,122850,2,0,B|448:248,3,82.4999975413085,2|0|0|0,0:0|0:0|0:0|0:0,0:0:0
432,264,123105,6,0,B|392:336,3,82.4999975413085
368,336,123360,6,0,B|280:336,3,82.4999975413085,2|0|0|0,0:0|0:0|0:0|0:0,0:0:0
264,320,123616,6,0,B|200:256,3,82.4999975413085
200,240,123871,6,0,B|184:152,3,82.4999975413085,2|0|0|0,0:0|0:0|0:0|0:0,0:0:0
192,136,124126,6,0,B|288:96,7,82.4999975413085,0|0|0|0|8|0|0|0,0:0|0:0|0:0|0:0|0:0|0:0|0:0|0:0,0:0:0
296,96,124637,6,0,B|352:72,7,41.2499987706542
344,72,124892,2,0,B|400:48,7,41.2499987706542
392,48,125147,6,0,B|496:80|464:176,1,164.999995082617,0|2,0:0|0:0,0:0:0
416,240,125530,1,0,0:0:0
360,304,125658,2,0,B|288:368|208:328,1,164.999995082617,0|2,0:0|0:0,0:0:0
248,256,126041,1,0,0:0:0
288,184,126169,2,0,B|224:160|160:216|176:280,1,164.999995082617,0|2,0:0|0:0,0:0:0
96,296,126552,1,0,0:0:0
88,216,126679,1,0,0:0:0
96,136,126807,1,0,0:0:0
144,64,126935,1,2,0:0:0
216,32,127062,1,0,0:0:0
256,40,127126,1,0,0:0:0
296,48,127190,6,0,B|352:48|376:72|376:72|392:48|456:48,1,164.999995082617,0|2,0:0|0:0,0:0:0
448,128,127573,1,0,0:0:0
448,208,127701,2,0,B|390:207|374:231|374:231|350:207|294:207,1,164.999995082617,0|2,0:0|0:0,0:0:0
296,288,128084,1,0,0:0:0
296,208,128211,2,0,B|238:207|222:231|222:231|198:207|142:207,1,164.999995082617,0|2,0:0|0:0,0:0:0
144,128,128594,1,0,0:0:0
184,56,128722,1,0,0:0:0
264,56,128850,1,0,0:0:0
224,128,128977,2,0,B|312:128,1,82.4999975413085,2|0,0:0|0:0,0:0:0
392,128,129233,6,0,B|464:128|464:128|448:184|448:184|408:184,1,164.999995082617,0|2,0:0|0:0,0:0:0
328,184,129616,1,0,0:0:0
248,184,129743,2,0,B|168:184|168:184|192:232|192:232|232:232,1,164.999995082617,0|2,0:0|0:0,0:0:0
304,232,130126,1,0,0:0:0
384,232,130254,2,0,B|440:232|440:232|464:280|464:280|408:280,1,164.999995082617,0|2,0:0|0:0,0:0:0
328,280,130637,1,0,0:0:0
248,280,130764,2,0,B|80:280,1,164.999995082617,0|2,0:0|0:0,0:0:0
136,216,131147,1,0,0:0:0
80,160,131275,2,0,B|248:160,1,164.999995082617,0|2,0:0|0:0,0:0:0
328,160,131658,1,0,0:0:0
384,96,131786,2,0,B|216:96,1,164.999995082617,0|2,0:0|0:0,0:0:0
136,96,132169,1,0,0:0:0
184,160,132296,6,0,B|208:200,3,41.2499987706542
240,224,132552,2,0,B|296:232,3,41.2499987706542,2|0|0|0,0:0|0:0|0:0|0:0,0:0:0
320,248,132807,2,0,B|336:280,7,20.6249993853271
352,272,133062,2,0,B|376:280,7,20.6249993853271,2|0|0|0|0|0|0|0,0:0|0:0|0:0|0:0|0:0|0:0|0:0|0:0,0:0:0
392,288,133318,5,0,0:0:0
256,72,137403,5,0,0:0:0
184,112,137658,1,2,0:0:0
136,176,137913,1,0,0:0:0
128,256,138169,1,2,0:0:0
208,280,138424,1,0,0:0:0
280,240,138679,1,2,0:0:0
352,272,138935,1,0,0:0:0
416,224,139190,1,2,0:0:0
376,152,139445,1,0,0:0:0
304,112,139701,1,2,0:0:0
240,160,139956,1,0,0:0:0
176,112,140211,1,2,0:0:0
104,152,140467,2,0,B|48:192,3,41.2499987706542
64,192,140722,2,0,B|48:256,3,41.2499987706542,2|0|0|0,0:0|0:0|0:0|0:0,0:0:0
48,256,140977,2,0,B|48:288,7,20.6249993853271
56,288,141233,2,0,B|64:320,7,20.6249993853271,2|0|0|0|0|0|0|0,0:0|0:0|0:0|0:0|0:0|0:0|0:0|0:0,0:0:0
256,192,141488,12,4,142509,0:0:0
