osu file format v13

[General]
AudioFilename: goreshit - Goreshit Compilation.ogg
AudioLeadIn: 0
PreviewTime: 483274
Countdown: 1
SampleSet: None
StackLeniency: 0.7
Mode: 0
LetterboxInBreaks: 1
WidescreenStoryboard: 0

[Editor]
DistanceSpacing: 1
BeatDivisor: 4
GridSize: 8
TimelineZoom: 4.199998

[Metadata]
Title:Goreshit Compilation
TitleUnicode:Goreshit Compilation
Artist:goreshit
ArtistUnicode:goreshit
Creator:[ Railgun ]
Version:Lolimarathon
Source:
Tags:twintail tsundere loreloli matzcore ergo junglistix
BeatmapID:496111
BeatmapSetID:210919

[Difficulty]
HPDrainRate:4
CircleSize:4
OverallDifficulty:7
ApproachRate:9
SliderMultiplier:1.8
SliderTickRate:2

[Events]
//Background and Video events
0,0,"Lucky_star_417.jpg",0,0
//Break Periods
2,72245,87850
2,105056,118610
2,156450,162871
2,208941,214492
2,250157,258006
2,284752,292600
2,310698,318546
2,336643,344492
2,380022,383512
2,445369,448447
2,479302,482670
2,605297,614243
2,712505,721701
2,846251,854930
//Storyboard Layer 0 (Background)
//Storyboard Layer 1 (Fail)
//Storyboard Layer 2 (Pass)
//Storyboard Layer 3 (Foreground)
//Storyboard Sound Samples
//Background Colour Transformations
3,100,163,162,255

[TimingPoints]
6424,256.333575426155,4,1,0,100,1,0
21739,-100,4,2,0,5,0,0
22829,-100,4,1,0,100,0,0
30519,-100,4,2,0,5,0,0
31032,-100,4,1,0,100,0,0
46924,-100,4,2,0,5,0,0
47437,-100,4,1,0,100,0,0
63330,-100,4,2,0,5,0,0
63842,-100,4,1,0,100,0,0
121261,-200,4,2,0,5,0,0
122286,-100,4,1,0,100,0,0
131002,-100,4,2,0,5,0,0
131514,-100,4,1,0,100,0,0
147407,-100,4,2,0,5,0,0
147920,-100,4,1,0,100,0,0
156122,-200,4,1,0,100,0,0
156250,-100,4,1,0,5,0,0
163471,270.27027027027,4,1,0,100,1,0
364315,-100,4,2,0,5,0,0
364552,-100,4,1,0,100,0,0
366207,-100,4,2,0,5,0,0
366443,-100,4,1,0,100,0,0
366477,-100,4,2,0,5,0,0
366714,-100,4,1,0,100,0,0
368639,-100,4,2,0,5,0,0
368876,-100,4,1,0,100,0,0
374856,-100,4,2,0,5,0,0
375092,-100,4,1,0,100,0,0
375126,-100,4,2,0,5,0,0
375362,-100,4,1,0,100,0,0
377288,-100,4,2,0,5,0,0
377525,-100,4,1,0,100,0,0
384112,230.769230769231,4,2,0,5,1,0
384573,-100,4,1,0,100,0,0
386419,224.719101123595,4,1,0,100,1,0
391812,230.769230769231,4,1,0,100,1,0
395504,224.719101123595,4,1,0,100,1,0
399099,230.769230769231,4,1,0,100,1,0
399127,-100,4,2,0,5,0,0
399445,-100,4,1,0,100,0,0
399474,-100,4,2,0,5,0,0
399675,-100,4,1,0,100,0,0
399704,-100,4,2,0,5,0,0
399791,-100,4,1,0,100,0,0
400022,-100,4,1,0,100,0,0
400050,-100,4,2,0,5,0,0
400368,-100,4,1,0,100,0,0
400397,-100,4,2,0,5,0,0
400599,-100,4,1,0,100,0,0
400627,-100,4,2,0,5,0,0
400714,-100,4,1,0,100,0,0
400945,-100,4,1,0,100,0,0
400974,-100,4,2,0,5,0,0
401291,-100,4,1,0,100,0,0
401320,-100,4,2,0,5,0,0
401522,-100,4,1,0,100,0,0
401550,-100,4,2,0,5,0,0
401637,-100,4,1,0,100,0,0
401868,-100,4,1,0,100,0,0
401897,-100,4,2,0,5,0,0
402214,-100,4,1,0,100,0,0
402243,-100,4,2,0,5,0,0
402445,-100,4,1,0,100,0,0
402474,-100,4,2,0,5,0,0
402560,-100,4,1,0,100,0,0
402791,224.719101123595,4,1,0,100,1,0
406386,228.136882129278,4,1,0,100,1,0
415055,228.136882129278,4,1,0,100,1,0
415967,-200,4,1,0,100,0,0
430568,-100,4,1,0,100,0,0
449047,-200,4,1,0,100,0,0
456347,224.719101123595,4,1,0,100,1,0
456347,-200,4,1,0,100,0,0
463560,228.571428571429,4,1,0,100,1,0
478188,-200,4,1,0,100,0,0
483270,304.568527918782,4,2,1,100,1,0
536721,-100,4,1,1,100,0,0
536950,-100,4,2,1,100,0,0
703777,-100,4,2,1,75,0,0
704995,-100,4,2,1,50,0,0
707432,-100,4,2,1,35,0,0
708650,-100,4,2,1,25,0,0
711163,-100,4,2,1,18,0,0
722301,312.5,4,1,1,50,1,0
763238,-100,4,1,1,5,0,0
763551,-100,4,1,1,50,0,0
764801,-100,4,1,1,75,0,1
774722,-100,4,1,1,75,0,0
774801,-100,4,1,1,75,0,1
784801,-100,4,1,1,75,0,0
804801,-200,4,1,1,75,0,0
806051,-100,4,1,1,75,0,0
855530,225.140712945591,4,1,1,70,1,0
863635,-100,4,1,1,90,0,0
910464,250,4,1,1,50,1,0

[Colours]
Combo1 : 0,255,255
Combo2 : 255,128,192
Combo3 : 0,255,0
Combo4 : 255,0,128
Combo5 : 0,0,160

[HitObjects]
104,32,6423,6,0,B|56:32|32:80,1,90,4|0,0:0|0:0,0:0:0:0:
40,168,6680,2,0,B|88:168|112:120,1,90,8|0,0:0|0:0,0:0:0:0:
184,72,6936,2,0,B|184:16,2,45
192,120,7128,1,0,0:0:0:0:
184,168,7193,2,0,B|160:208|112:232,1,90,8|0,0:0|0:0,0:0:0:0:
32,248,7449,5,0,0:0:0:0:
40,280,7513,1,0,0:0:0:0:
64,304,7577,1,0,0:0:0:0:
96,312,7641,1,0,0:0:0:0:
128,312,7705,2,0,B|176:296|216:256,1,90,8|0,0:0|0:0,0:0:0:0:
264,192,7962,2,0,B|264:104,2,90,0|0|8,0:0|0:0|0:0,0:0:0:0:
288,280,8346,1,0,0:0:0:0:
288,280,8410,1,0,0:0:0:0:
288,280,8474,6,0,B|352:344,1,90
392,360,8666,1,0,0:0:0:0:
432,344,8731,1,8,0:0:0:0:
392,264,8859,2,0,B|352:224,2,45
480,264,9115,1,0,0:0:0:0:
480,216,9179,1,0,0:0:0:0:
480,168,9243,2,0,B|480:120|440:88,1,90,8|0,0:0|0:0,0:0:0:0:
352,88,9500,5,0,0:0:0:0:
208,128,9628,1,0,0:0:0:0:
336,208,9756,1,8,0:0:0:0:
192,248,9884,1,0,0:0:0:0:
320,328,10012,5,0,0:0:0:0:
288,336,10076,1,0,0:0:0:0:
256,344,10140,1,0,0:0:0:0:
224,336,10204,1,0,0:0:0:0:
192,328,10269,1,8,0:0:0:0:
160,336,10333,1,0,0:0:0:0:
128,344,10397,1,8,0:0:0:0:
96,336,10461,1,0,0:0:0:0:
64,328,10525,6,0,B|16:312|8:264,1,90,4|0,0:0|0:0,0:0:0:0:
96,248,10781,1,8,0:0:0:0:
40,176,10909,1,0,0:0:0:0:
24,136,10973,1,0,0:0:0:0:
40,96,11038,2,0,B|72:56|120:56,1,90
120,144,11294,1,8,0:0:0:0:
200,96,11422,1,0,0:0:0:0:
212,184,11550,5,0,0:0:0:0:
212,184,11614,1,0,0:0:0:0:
212,184,11678,1,0,0:0:0:0:
300,184,11807,1,8,0:0:0:0:
300,184,11871,1,0,0:0:0:0:
300,184,11935,1,0,0:0:0:0:
312,96,12063,1,0,0:0:0:0:
392,144,12191,1,0,0:0:0:0:
394,56,12319,2,0,B|440:56|472:96,1,90,8|0,0:0|0:0,0:0:0:0:
488,136,12511,1,0,0:0:0:0:
472,176,12576,5,0,0:0:0:0:
400,232,12704,2,0,B|440:256,2,45,0|0|8,0:0|0:0|0:0,0:0:0:0:
320,272,12960,1,0,0:0:0:0:
400,320,13088,1,0,0:0:0:0:
368,352,13152,2,0,B|324:364|280:352,1,90
248,320,13345,2,0,B|204:308|160:320,1,90,8|0,0:0|0:0,0:0:0:0:
72,344,13601,6,0,B|16:344,2,45
96,256,13857,1,8,0:0:0:0:
64,224,13921,1,0,0:0:0:0:
32,192,13985,1,0,0:0:0:0:
32,104,14114,1,0,0:0:0:0:
64,112,14178,1,0,0:0:0:0:
96,112,14242,1,0,0:0:0:0:
128,104,14306,1,0,0:0:0:0:
160,88,14370,1,8,0:0:0:0:
192,72,14434,1,0,0:0:0:0:
224,64,14498,1,8,0:0:0:0:
256,64,14562,1,0,0:0:0:0:
288,72,14626,6,0,B|328:96|328:152,2,90,0|0|8,0:0|0:0|0:0,0:0:0:0:
368,32,15011,1,0,0:0:0:0:
368,32,15075,1,0,0:0:0:0:
408,112,15203,1,0,0:0:0:0:
408,112,15267,1,0,0:0:0:0:
456,32,15395,2,0,B|496:48|504:104,1,90,8|0,0:0|0:0,0:0:0:0:
464,184,15652,6,0,B|416:192,2,45
496,264,15908,2,0,B|448:272|424:320,1,90,8|0,0:0|0:0,0:0:0:0:
360,256,16164,1,0,0:0:0:0:
328,256,16228,1,0,0:0:0:0:
296,264,16292,1,0,0:0:0:0:
272,280,16356,1,0,0:0:0:0:
256,304,16421,2,0,B|240:352|184:352,1,90,8|0,0:0|0:0,0:0:0:0:
184,264,16677,5,0,0:0:0:0:
64,176,16805,1,0,0:0:0:0:
112,320,16933,1,8,0:0:0:0:
168,176,17061,1,0,0:0:0:0:
40,264,17190,5,8,0:0:0:0:
112,96,17318,1,0,0:0:0:0:
264,200,17446,1,8,0:0:0:0:
336,32,17574,1,0,0:0:0:0:
480,136,17702,6,0,B|496:232,1,90
496,272,17894,1,0,0:0:0:0:
496,320,17959,2,0,B|472:368|416:352,1,90,8|0,0:0|0:0,0:0:0:0:
416,264,18215,1,0,0:0:0:0:
384,264,18279,1,0,0:0:0:0:
352,272,18343,1,0,0:0:0:0:
328,288,18407,1,0,0:0:0:0:
312,312,18471,1,8,0:0:0:0:
296,336,18535,1,0,0:0:0:0:
272,352,18599,1,8,0:0:0:0:
240,360,18663,1,0,0:0:0:0:
208,360,18728,6,0,B|120:360,2,90,4|0|8,0:0|0:0|0:0,0:0:0:0:
240,272,19112,1,0,0:0:0:0:
192,272,19176,1,0,0:0:0:0:
144,272,19240,2,0,B|56:272,2,90,0|0|8,0:0|0:0|0:0,0:0:0:0:
168,184,19625,1,0,0:0:0:0:
120,184,19689,1,0,0:0:0:0:
72,184,19753,6,0,B|24:184,2,45,4|0|0,0:0|0:0|0:0,0:0:0:0:
88,96,20009,2,0,B|132:80|176:96,1,90,8|0,0:0|0:0,0:0:0:0:
256,136,20266,1,0,0:0:0:0:
288,136,20330,1,0,0:0:0:0:
320,128,20394,1,0,0:0:0:0:
344,104,20458,1,0,0:0:0:0:
352,72,20522,2,0,B|376:24|424:24,1,90,8|0,0:0|0:0,0:0:0:0:
432,112,20778,5,4,0:0:0:0:
432,112,20842,1,0,0:0:0:0:
432,112,20906,1,0,0:0:0:0:
352,240,21035,1,8,0:0:0:0:
496,192,21163,1,0,0:0:0:0:
416,320,21291,5,4,0:0:0:0:
416,320,21355,1,0,0:0:0:0:
416,320,21419,1,0,0:0:0:0:
256,232,21547,1,8,0:0:0:0:
96,320,21675,1,0,0:0:0:0:
256,192,21739,12,0,22444,0:0:0:0:
256,112,22573,6,0,B|256:88,7,22.5
256,64,22829,6,0,B|224:24|176:32,1,90,4|0,0:0|0:0,0:0:0:0:
96,80,23085,2,0,B|128:120|176:112,1,90,8|0,0:0|0:0,0:0:0:0:
216,192,23342,2,0,B|216:240,2,45
128,192,23598,2,0,B|80:192|48:232,1,90,8|0,0:0|0:0,0:0:0:0:
128,280,23854,5,0,0:0:0:0:
128,280,23918,1,0,0:0:0:0:
128,280,23982,1,0,0:0:0:0:
48,328,24111,2,0,B|78:365|126:365,1,90,8|0,0:0|0:0,0:0:0:0:
208,320,24367,1,0,0:0:0:0:
240,328,24431,1,0,0:0:0:0:
272,328,24495,1,0,0:0:0:0:
304,336,24559,1,0,0:0:0:0:
336,336,24623,2,0,B|424:336,1,90,8|0,0:0|0:0,0:0:0:0:
456,248,24880,6,0,B|504:248,2,45
368,248,25136,2,0,B|320:248,2,45,8|0|0,0:0|0:0|0:0,0:0:0:0:
416,168,25392,1,0,0:0:0:0:
416,168,25456,1,0,0:0:0:0:
416,168,25520,1,0,0:0:0:0:
328,168,25649,2,0,B|328:112|376:88,1,90,8|0,0:0|0:0,0:0:0:0:
448,56,25905,6,0,B|464:104,2,45
416,24,26097,1,0,0:0:0:0:
376,16,26161,2,0,B|332:4|288:16,1,90,8|0,0:0|0:0,0:0:0:0:
240,96,26418,1,0,0:0:0:0:
216,80,26482,1,0,0:0:0:0:
184,72,26546,1,0,0:0:0:0:
152,72,26610,1,0,0:0:0:0:
120,80,26674,1,8,0:0:0:0:
96,96,26738,1,0,0:0:0:0:
72,120,26802,1,8,0:0:0:0:
56,152,26866,1,0,0:0:0:0:
48,184,26930,6,0,B|48:272,2,90,0|0|8,0:0|0:0|0:0,0:0:0:0:
128,232,27315,1,0,0:0:0:0:
128,200,27379,1,0,0:0:0:0:
136,168,27443,1,0,0:0:0:0:
224,200,27571,2,0,B|256:168,2,45,0|0|8,0:0|0:0|0:0,0:0:0:0:
200,288,27827,1,0,0:0:0:0:
280,328,27956,6,0,B|368:352,1,90
344,264,28212,2,0,B|432:288,1,90,8|0,0:0|0:0,0:0:0:0:
416,200,28468,2,0,B|512:224,1,90
488,136,28725,5,8,0:0:0:0:
488,136,28853,1,0,0:0:0:0:
488,136,28981,2,0,B|400:112,1,90
360,120,29173,1,0,0:0:0:0:
320,128,29237,2,0,B|224:96,1,90,8|0,0:0|0:0,0:0:0:0:
304,40,29494,1,0,0:0:0:0:
264,24,29558,2,0,B|232:8|200:16|176:48,1,90
160,80,29750,2,0,B|142:104|110:112|78:96,1,90,8|0,0:0|0:0,0:0:0:0:
104,8,30006,5,0,0:0:0:0:
16,40,30134,1,0,0:0:0:0:
16,40,30198,1,0,0:0:0:0:
16,40,30263,1,8,0:0:0:0:
0,128,30391,1,0,0:0:0:0:
64,192,30519,2,0,B|80:208,7,22.5
80,232,30775,2,0,B|64:248,7,22.5
64,272,31032,6,0,B|72:320|120:336,1,90
208,336,31288,2,0,B|256:319|264:271,1,90,8|0,0:0|0:0,0:0:0:0:
264,184,31544,2,0,B|264:128,4,45,0|0|0|0|8,0:0|0:0|0:0|0:0|0:0,0:0:0:0:
344,232,31929,1,0,0:0:0:0:
344,320,32057,5,0,0:0:0:0:
344,320,32121,1,0,0:0:0:0:
424,360,32249,1,0,0:0:0:0:
424,360,32313,1,8,0:0:0:0:
424,272,32441,2,0,B|480:272,2,45
424,184,32698,2,0,B|392:152,2,45,0|0|8,0:0|0:0|0:0,0:0:0:0:
488,120,32954,1,0,0:0:0:0:
424,56,33082,5,0,0:0:0:0:
384,40,33146,2,0,B|336:32|288:40,1,90
248,56,33339,2,0,B|200:64|152:56,1,90,8|0,0:0|0:0,0:0:0:0:
72,40,33595,1,0,0:0:0:0:
56,64,33659,1,0,0:0:0:0:
64,96,33723,1,0,0:0:0:0:
48,120,33787,1,0,0:0:0:0:
56,152,33851,2,0,B|56:200|40:240,1,90,8|0,0:0|0:0,0:0:0:0:
80,320,34108,6,0,B|48:352,2,45
168,336,34364,2,0,B|168:384,2,45,8|0|0,0:0|0:0|0:0,0:0:0:0:
256,336,34620,1,0,0:0:0:0:
288,336,34684,1,0,0:0:0:0:
320,328,34748,1,0,0:0:0:0:
352,312,34812,1,0,0:0:0:0:
376,288,34877,1,8,0:0:0:0:
392,256,34941,1,0,0:0:0:0:
400,224,35005,1,8,0:0:0:0:
400,192,35069,1,0,0:0:0:0:
392,160,35133,6,0,B|376:112|328:104,2,90,0|0|8,0:0|0:0|0:0,0:0:0:0:
312,192,35517,2,0,B|312:224|304:240,2,45
240,136,35774,1,0,0:0:0:0:
200,112,35838,1,0,0:0:0:0:
152,112,35902,2,0,B|104:112|72:152,1,90,8|0,0:0|0:0,0:0:0:0:
152,192,36158,5,0,0:0:0:0:
152,192,36222,1,0,0:0:0:0:
72,232,36350,1,0,0:0:0:0:
72,232,36415,1,8,0:0:0:0:
152,272,36543,1,0,0:0:0:0:
152,272,36671,2,0,B|152:328,2,45
192,256,36863,1,0,0:0:0:0:
232,272,36927,2,0,B|276:284|320:272,1,90,8|0,0:0|0:0,0:0:0:0:
384,208,37184,5,0,0:0:0:0:
272,64,37440,1,8,0:0:0:0:
128,176,37696,5,0,0:0:0:0:
240,320,37953,1,8,0:0:0:0:
256,192,38209,12,8,38978,0:0:0:0:
440,176,39234,6,0,B|408:136|360:136,1,90
288,184,39491,2,0,B|320:224|368:224,1,90,8|0,0:0|0:0,0:0:0:0:
288,96,39747,6,0,B|256:56|208:56,1,90
136,104,40003,2,0,B|168:144|216:144,1,90,8|0,0:0|0:0,0:0:0:0:
216,232,40260,6,0,B|160:232,2,45
272,304,40516,2,0,B|320:304,2,45,8|0|0,0:0|0:0|0:0,0:0:0:0:
184,320,40772,2,0,B|88:320,1,90
40,248,41029,1,8,0:0:0:0:
16,96,41157,1,0,0:0:0:0:
168,64,41285,6,0,B|256:40,1,90
296,48,41477,1,0,0:0:0:0:
336,56,41541,2,0,B|424:32,1,90,8|0,0:0|0:0,0:0:0:0:
488,96,41798,1,0,0:0:0:0:
400,128,41926,1,0,0:0:0:0:
416,168,41990,1,0,0:0:0:0:
456,192,42054,2,0,B|504:216|504:264,1,90,8|0,0:0|0:0,0:0:0:0:
416,272,42310,6,0,B|416:320,2,45
344,216,42567,2,0,B|312:184,2,45,8|0|0,0:0|0:0|0:0,0:0:0:0:
328,304,42823,1,0,0:0:0:0:
304,320,42887,1,0,0:0:0:0:
272,328,42951,1,0,0:0:0:0:
240,320,43015,1,0,0:0:0:0:
216,304,43079,1,8,0:0:0:0:
184,296,43143,1,0,0:0:0:0:
152,304,43207,1,8,0:0:0:0:
128,320,43271,1,0,0:0:0:0:
96,328,43336,6,0,B|48:328|24:280,1,90
104,240,43592,2,0,B|80:193|32:193,1,90,8|0,0:0|0:0,0:0:0:0:
24,104,43848,1,0,0:0:0:0:
80,32,43976,1,0,0:0:0:0:
112,40,44040,1,0,0:0:0:0:
144,32,44105,1,8,0:0:0:0:
176,40,44169,1,0,0:0:0:0:
208,32,44233,1,0,0:0:0:0:
296,32,44361,6,0,B|336:16,2,45
248,112,44617,2,0,B|208:128,2,45,8|0|0,0:0|0:0|0:0,0:0:0:0:
336,112,44874,1,0,0:0:0:0:
368,104,44938,1,0,0:0:0:0:
400,96,45002,1,0,0:0:0:0:
488,72,45130,2,0,B|504:120|472:160,1,90,8|0,0:0|0:0,0:0:0:0:
392,192,45386,6,0,B|304:216,1,90
376,280,45643,2,0,B|464:256,1,90,8|0,0:0|0:0,0:0:0:0:
440,344,45899,1,0,0:0:0:0:
408,352,45963,1,0,0:0:0:0:
376,360,46027,1,0,0:0:0:0:
344,352,46091,1,0,0:0:0:0:
312,344,46155,1,8,0:0:0:0:
240,288,46283,1,0,0:0:0:0:
168,344,46412,5,0,0:0:0:0:
136,344,46476,1,0,0:0:0:0:
104,344,46540,1,0,0:0:0:0:
136,264,46668,1,8,0:0:0:0:
160,240,46732,1,0,0:0:0:0:
184,216,46796,1,0,0:0:0:0:
104,184,46924,2,0,B|80:160,7,22.5
72,152,47181,2,0,B|72:128,7,22.5
72,104,47437,6,0,B|72:48|120:24,1,90
200,32,47693,2,0,B|296:32,2,90,8|0|0,0:0|0:0|0:0,0:0:0:0:
152,104,48078,1,0,0:0:0:0:
200,112,48142,1,0,0:0:0:0:
248,104,48206,2,0,B|336:104,1,90,8|0,0:0|0:0,0:0:0:0:
392,32,48462,6,0,B|344:32,2,45
448,104,48719,2,0,B|496:104,2,45,8|0|0,0:0|0:0|0:0,0:0:0:0:
392,176,48975,1,0,0:0:0:0:
424,184,49039,1,0,0:0:0:0:
448,200,49103,1,0,0:0:0:0:
464,224,49167,1,0,0:0:0:0:
472,256,49231,1,8,0:0:0:0:
384,264,49359,1,0,0:0:0:0:
384,264,49488,6,0,B|304:328,1,90
128,264,49744,2,0,B|208:328,1,90,8|0,0:0|0:0,0:0:0:0:
256,248,50000,1,0,0:0:0:0:
256,160,50128,1,0,0:0:0:0:
256,128,50192,1,0,0:0:0:0:
256,96,50257,1,8,0:0:0:0:
176,48,50385,1,0,0:0:0:0:
88,48,50513,6,0,B|32:48,2,45
128,128,50769,2,0,B|176:128,2,45,8|0|0,0:0|0:0|0:0,0:0:0:0:
40,128,51026,1,0,0:0:0:0:
40,160,51090,1,0,0:0:0:0:
48,192,51154,1,0,0:0:0:0:
64,216,51218,1,0,0:0:0:0:
88,240,51282,1,8,0:0:0:0:
120,256,51346,1,0,0:0:0:0:
152,264,51410,1,8,0:0:0:0:
184,264,51474,1,0,0:0:0:0:
216,256,51538,6,0,B|264:208|360:240|352:320,1,180,0|8,0:0|0:0,0:0:0:0:
264,328,51923,1,0,0:0:0:0:
264,328,52051,2,0,B|336:160,1,180,0|8,0:0|0:0,0:0:0:0:
368,80,52435,1,0,0:0:0:0:
368,80,52564,2,0,B|416:112,2,45
280,96,52820,1,8,0:0:0:0:
280,96,52884,1,0,0:0:0:0:
280,96,52948,1,0,0:0:0:0:
192,80,53076,2,0,B|152:40|112:80,1,90
152,160,53333,2,0,B|152:216,2,45,8|0|0,0:0|0:0|0:0,0:0:0:0:
64,160,53589,6,0,B|64:208,3,45
64,248,53845,2,0,B|104:288,3,45,8|0|0|0,0:0|0:0|0:0|0:0,0:0:0:0:
144,280,54102,2,0,B|192:280,3,45
232,280,54358,2,0,B|264:312,3,45,8|0|0|0,0:0|0:0|0:0|0:0,0:0:0:0:
288,336,54614,5,0,0:0:0:0:
320,352,54678,1,0,0:0:0:0:
352,360,54742,1,0,0:0:0:0:
384,352,54806,1,0,0:0:0:0:
416,336,54871,1,8,0:0:0:0:
432,312,54935,1,0,0:0:0:0:
440,280,54999,1,0,0:0:0:0:
440,248,55063,1,0,0:0:0:0:
432,216,55127,2,0,B|400:184,3,45
376,160,55383,1,8,0:0:0:0:
344,152,55447,1,0,0:0:0:0:
312,152,55511,1,8,0:0:0:0:
280,160,55575,1,0,0:0:0:0:
256,184,55640,6,0,B|192:224|128:184,1,135
128,144,55896,2,0,B|128:56,1,90,8|0,0:0|0:0,0:0:0:0:
208,96,56152,1,0,0:0:0:0:
288,56,56280,1,0,0:0:0:0:
328,40,56344,1,0,0:0:0:0:
376,40,56409,1,8,0:0:0:0:
464,64,56537,1,0,0:0:0:0:
464,152,56665,6,0,B|496:184,2,45
416,232,56921,2,0,B|480:296,1,90,8|0,0:0|0:0,0:0:0:0:
400,336,57178,1,0,0:0:0:0:
376,320,57242,1,0,0:0:0:0:
344,312,57306,1,0,0:0:0:0:
312,320,57370,1,0,0:0:0:0:
288,336,57434,1,8,0:0:0:0:
200,336,57562,1,0,0:0:0:0:
112,336,57690,6,0,B|56:336,2,45
160,256,57947,2,0,B|208:256,2,45,8|0|0,0:0|0:0|0:0,0:0:0:0:
72,256,58203,2,0,B|72:208|120:176,1,90
160,176,58395,1,0,0:0:0:0:
208,176,58459,2,0,B|304:176,1,90,8|0,0:0|0:0,0:0:0:0:
368,232,58716,5,0,0:0:0:0:
368,232,58844,1,0,0:0:0:0:
440,176,58972,1,8,0:0:0:0:
440,176,59036,1,0,0:0:0:0:
440,176,59100,1,0,0:0:0:0:
440,88,59228,5,0,0:0:0:0:
408,96,59292,1,0,0:0:0:0:
376,104,59356,1,0,0:0:0:0:
344,96,59420,1,0,0:0:0:0:
312,88,59485,1,8,0:0:0:0:
280,80,59549,1,0,0:0:0:0:
248,72,59613,1,8,0:0:0:0:
216,80,59677,1,0,0:0:0:0:
184,88,59741,6,0,B|144:104|144:104|96:104,1,90
72,192,59997,1,8,0:0:0:0:
72,192,60125,1,0,0:0:0:0:
97,280,60254,1,0,0:0:0:0:
97,280,60318,1,0,0:0:0:0:
97,280,60382,2,0,B|144:280|144:280|184:296,1,90,0|8,0:0|0:0,0:0:0:0:
256,240,60638,1,0,0:0:0:0:
256,152,60766,5,0,0:0:0:0:
336,192,60894,1,0,0:0:0:0:
336,192,60958,1,0,0:0:0:0:
336,192,61023,1,8,0:0:0:0:
424,192,61151,1,0,0:0:0:0:
424,280,61279,1,0,0:0:0:0:
376,280,61343,2,0,B|328:280|296:320,1,90
256,336,61535,2,0,B|225:373|177:373,1,90,8|0,0:0|0:0,0:0:0:0:
88,376,61792,5,0,0:0:0:0:
56,368,61856,1,0,0:0:0:0:
32,344,61920,1,0,0:0:0:0:
24,312,61984,1,0,0:0:0:0:
24,280,62048,2,0,B|24:192,1,90,8|0,0:0|0:0,0:0:0:0:
24,104,62304,5,0,0:0:0:0:
160,32,62432,1,0,0:0:0:0:
96,168,62561,1,8,0:0:0:0:
64,16,62689,1,0,0:0:0:0:
176,120,62817,5,0,0:0:0:0:
336,40,62945,1,0,0:0:0:0:
320,216,63073,1,8,0:0:0:0:
480,128,63201,1,0,0:0:0:0:
456,304,63330,6,0,B|432:328,7,22.5
424,336,63586,2,0,B|400:336,7,22.5
376,336,63842,5,0,0:0:0:0:
376,336,63970,1,0,0:0:0:0:
288,336,64099,1,8,0:0:0:0:
288,336,64227,1,0,0:0:0:0:
200,336,64355,2,0,B|104:336,2,90,0|0|8,0:0|0:0|0:0,0:0:0:0:
232,248,64739,1,0,0:0:0:0:
144,248,64868,6,0,B|200:184|152:104|80:112,1,180,0|8,0:0|0:0,0:0:0:0:
80,200,65252,1,0,0:0:0:0:
80,200,65380,2,0,B|248:120,1,180,0|8,0:0|0:0,0:0:0:0:
328,88,65765,1,0,0:0:0:0:
416,88,65893,6,0,B|472:88,2,45
376,168,66149,2,0,B|328:168,2,45,8|0|0,0:0|0:0|0:0,0:0:0:0:
464,168,66406,2,0,B|464:256,1,90
424,336,66662,2,0,B|376:312|376:264,1,90,8|0,0:0|0:0,0:0:0:0:
288,256,66918,5,0,0:0:0:0:
200,256,67046,1,0,0:0:0:0:
144,328,67175,1,8,0:0:0:0:
104,344,67239,1,0,0:0:0:0:
64,328,67303,1,0,0:0:0:0:
16,256,67431,5,0,0:0:0:0:
48,248,67495,1,0,0:0:0:0:
72,232,67559,1,0,0:0:0:0:
88,208,67623,1,0,0:0:0:0:
96,176,67687,1,8,0:0:0:0:
88,144,67751,1,0,0:0:0:0:
72,120,67815,1,8,0:0:0:0:
48,104,67879,1,0,0:0:0:0:
16,96,67944,6,0,B|16:48|64:24,1,90
152,24,68200,1,8,0:0:0:0:
240,24,68328,1,0,0:0:0:0:
240,24,68392,1,0,0:0:0:0:
240,24,68456,2,0,B|328:24,1,90,0|0,0:0|0:0,0:0:0:0:
424,24,68713,2,0,B|472:24|504:64,1,90,8|0,0:0|0:0,0:0:0:0:
424,112,68969,6,0,B|336:112,1,90
248,112,69225,1,8,0:0:0:0:
248,112,69353,1,0,0:0:0:0:
288,192,69482,1,0,0:0:0:0:
320,192,69546,1,0,0:0:0:0:
352,192,69610,1,0,0:0:0:0:
400,264,69738,1,8,0:0:0:0:
368,264,69802,1,0,0:0:0:0:
336,264,69866,1,0,0:0:0:0:
248,264,69994,6,0,B|216:296,3,45
184,328,70251,2,0,B|128:328,3,45,8|0|0|0,0:0|0:0|0:0|0:0,0:0:0:0:
96,328,70507,2,0,B|64:296,3,45
32,264,70763,2,0,B|32:208,3,45,8|0|0|0,0:0|0:0|0:0|0:0,0:0:0:0:
32,184,71020,5,0,0:0:0:0:
32,152,71084,1,0,0:0:0:0:
40,120,71148,1,0,0:0:0:0:
56,88,71212,1,0,0:0:0:0:
80,64,71276,1,8,0:0:0:0:
112,48,71340,1,0,0:0:0:0:
144,40,71404,1,0,0:0:0:0:
176,40,71468,1,0,0:0:0:0:
208,48,71532,2,0,B|240:80,3,45
240,112,71789,2,0,B|208:144,3,45,8|0|8|0,0:0|0:0|0:0|0:0,0:0:0:0:
208,192,72045,1,4,0:0:0:0:
40,128,88450,6,0,B|40:96|64:48|128:48,1,90
128,136,88707,2,0,B|128:168|104:216|40:216,1,90,8|0,0:0|0:0,0:0:0:0:
40,288,88963,2,0,B|40:336,2,45
128,288,89219,2,0,B|160:256,2,45,8|0|0,0:0|0:0|0:0,0:0:0:0:
216,320,89476,6,0,B|184:352,4,45,0|0|0|0|8,0:0|0:0|0:0|0:0|0:0,0:0:0:0:
240,232,89860,1,0,0:0:0:0:
240,232,89924,1,0,0:0:0:0:
240,232,89988,2,0,B|224:136,1,90
216,56,90245,1,8,0:0:0:0:
304,56,90373,1,0,0:0:0:0:
312,144,90501,6,0,B|368:232|472:236,1,180,0|8,0:0|0:0,0:0:0:0:
459,148,90885,1,0,0:0:0:0:
459,148,91014,2,0,B|368:152|312:239,1,180,0|8,0:0|0:0,0:0:0:0:
312,328,91398,1,0,0:0:0:0:
312,328,91526,1,0,0:0:0:0:
280,328,91590,1,0,0:0:0:0:
248,328,91654,1,0,0:0:0:0:
160,344,91783,1,8,0:0:0:0:
136,320,91847,1,0,0:0:0:0:
112,296,91911,1,0,0:0:0:0:
96,208,92039,5,0,0:0:0:0:
96,176,92103,1,0,0:0:0:0:
96,144,92167,1,0,0:0:0:0:
104,56,92295,1,8,0:0:0:0:
128,32,92359,1,0,0:0:0:0:
152,8,92423,1,0,0:0:0:0:
240,8,92552,6,0,B|328:8,1,90,2|0,0:0|0:0,0:0:0:0:
416,32,92808,1,8,0:0:0:0:
480,96,92936,1,0,0:0:0:0:
488,184,93064,1,0,0:0:0:0:
488,216,93128,1,0,0:0:0:0:
480,248,93192,1,0,0:0:0:0:
464,272,93256,1,0,0:0:0:0:
440,296,93321,2,0,B|400:320|352:320,1,90,8|0,0:0|0:0,0:0:0:0:
368,232,93577,6,0,B|400:216|408:184,2,45,2|0|0,0:0|0:0|0:0,0:0:0:0:
288,264,93833,2,0,B|240:280|232:328,1,90,8|0,0:0|0:0,0:0:0:0:
144,328,94090,1,0,0:0:0:0:
112,320,94154,1,0,0:0:0:0:
80,304,94218,1,0,0:0:0:0:
56,280,94282,1,0,0:0:0:0:
40,248,94346,2,0,B|24:200|40:152,1,90,8|0,0:0|0:0,0:0:0:0:
120,200,94602,6,0,B|176:200,2,45,2|0|0,0:0|0:0|0:0,0:0:0:0:
120,112,94859,2,0,B|88:80,2,45,8|0|0,0:0|0:0|0:0,0:0:0:0:
208,112,95115,5,2,0:0:0:0:
232,96,95179,1,0,0:0:0:0:
256,80,95243,1,0,0:0:0:0:
336,112,95371,1,8,0:0:0:0:
360,96,95435,1,0,0:0:0:0:
384,80,95499,1,0,0:0:0:0:
464,112,95628,6,0,B|512:80,2,45,2|0|0,0:0|0:0|0:0,0:0:0:0:
400,176,95884,2,0,B|360:208,2,45,10|0|0,0:0|0:0|0:0,0:0:0:0:
488,200,96140,5,2,0:0:0:0:
488,208,96204,1,0,0:0:0:0:
488,216,96268,1,2,0:0:0:0:
488,224,96333,1,0,0:0:0:0:
488,232,96397,1,10,0:0:0:0:
488,240,96461,1,2,0:0:0:0:
488,248,96525,1,10,0:0:0:0:
488,256,96589,1,2,0:0:0:0:
488,264,96653,6,0,B|488:312|448:344,1,90,6|0,0:0|0:0,0:0:0:0:
400,264,96909,2,0,B|362:294|362:342,1,90,8|0,0:0|0:0,0:0:0:0:
272,336,97166,1,0,0:0:0:0:
240,328,97230,1,0,0:0:0:0:
152,336,97358,1,0,0:0:0:0:
120,328,97422,1,8,0:0:0:0:
32,336,97550,1,8,0:0:0:0:
64,248,97678,6,0,B|56:200,2,45
152,248,97935,2,0,B|136:152,1,90,8|0,0:0|0:0,0:0:0:0:
64,112,98191,1,0,0:0:0:0:
88,88,98255,1,0,0:0:0:0:
120,80,98319,1,0,0:0:0:0:
152,80,98383,1,0,0:0:0:0:
184,96,98447,2,0,B|216:136|272:128,1,90,8|0,0:0|0:0,0:0:0:0:
256,40,98704,5,0,0:0:0:0:
288,32,98768,1,0,0:0:0:0:
320,40,98832,1,0,0:0:0:0:
352,32,98896,1,8,0:0:0:0:
440,40,99024,1,0,0:0:0:0:
472,32,99088,1,8,0:0:0:0:
464,120,99216,6,0,B|400:136,1,45
344,176,99409,2,0,B|360:232,1,45,0|8,0:0|0:0,0:0:0:0:
448,232,99601,1,8,0:0:0:0:
448,232,99729,5,0,0:0:0:0:
424,256,99793,1,0,0:0:0:0:
416,288,99857,1,0,0:0:0:0:
416,320,99921,1,0,0:0:0:0:
424,352,99985,1,8,0:0:0:0:
424,352,100113,1,8,0:0:0:0:
336,328,100242,2,0,B|248:328,1,90
160,344,100498,2,8,B|64:344,1,90,8|8,0:0|0:0,0:0:0:0:
48,256,100754,5,0,0:0:0:0:
48,240,100818,1,0,0:0:0:0:
52,224,100882,1,0,0:0:0:0:
60,208,100947,1,0,0:0:0:0:
72,192,101011,1,8,0:0:0:0:
84,180,101075,1,0,0:0:0:0:
100,168,101139,1,0,0:0:0:0:
116,160,101203,1,0,0:0:0:0:
132,156,101267,2,0,B|180:148|220:172,1,90
260,252,101523,2,0,B|212:260|172:236,1,90,8|0,0:0|0:0,0:0:0:0:
304,180,101780,5,0,0:0:0:0:
320,184,101844,1,0,0:0:0:0:
336,188,101908,1,0,0:0:0:0:
352,196,101972,1,0,0:0:0:0:
368,204,102036,1,8,0:0:0:0:
384,212,102100,1,0,0:0:0:0:
400,224,102164,1,0,0:0:0:0:
412,236,102228,1,0,0:0:0:0:
424,248,102292,6,0,B|444:288,3,45,8|0|8|0,0:0|0:0|0:0|0:0,0:0:0:0:
376,296,102549,2,0,B|392:352,3,45,8|0|0|0,0:0|0:0|0:0|0:0,0:0:0:0:
320,336,102805,1,0,0:0:0:0:
256,192,102869,12,0,104856,0:0:0:0:
80,48,119210,6,0,B|56:96,3,45
56,136,119467,2,0,B|80:176,3,45,8|0|0|0,0:0|0:0|0:0|0:0,0:0:0:0:
80,216,119723,2,0,B|56:256,3,45
56,296,119979,2,0,B|80:336,3,45,8|0|0|0,0:0|0:0|0:0|0:0,0:0:0:0:
96,340,120236,5,0,0:0:0:0:
112,340,120300,1,0,0:0:0:0:
128,336,120364,1,0,0:0:0:0:
144,328,120428,1,0,0:0:0:0:
160,316,120492,1,8,0:0:0:0:
172,304,120556,1,0,0:0:0:0:
180,288,120620,1,0,0:0:0:0:
184,272,120684,1,0,0:0:0:0:
184,256,120748,2,0,B|184:232,15,22.5
184,212,121325,2,0,B|160:168|184:120|232:104|296:136|344:112|368:64|344:16,1,303.75
256,16,122286,6,0,B|152:16,1,90
88,56,122543,1,8,0:0:0:0:
40,136,122671,1,0,0:0:0:0:
24,224,122799,2,0,B|24:272,3,45
32,312,123055,2,0,B|56:352|112:360,1,90,8|0,0:0|0:0,0:0:0:0:
200,360,123312,5,0,0:0:0:0:
200,360,123440,1,0,0:0:0:0:
288,360,123568,1,8,0:0:0:0:
288,360,123696,1,0,0:0:0:0:
376,360,123824,1,0,0:0:0:0:
376,360,123888,1,0,0:0:0:0:
376,360,123952,1,0,0:0:0:0:
336,280,124081,2,0,B|304:248,2,45,8|0|0,0:0|0:0|0:0,0:0:0:0:
424,280,124337,6,0,B|480:224|480:160,1,135
480,120,124593,2,0,B|480:72|440:40,1,90,8|0,0:0|0:0,0:0:0:0:
352,40,124850,2,0,B|304:40,2,45
344,128,125106,2,0,B|392:128,2,45,8|0|0,0:0|0:0|0:0,0:0:0:0:
256,128,125362,5,0,0:0:0:0:
120,40,125490,1,0,0:0:0:0:
176,192,125619,1,8,0:0:0:0:
232,40,125747,1,0,0:0:0:0:
96,128,125875,5,8,0:0:0:0:
160,296,126003,1,0,0:0:0:0:
304,192,126131,1,8,0:0:0:0:
360,360,126259,1,0,0:0:0:0:
504,248,126388,6,0,B|504:296,2,45
504,160,126644,2,0,B|504:112,2,45,8|0|0,0:0|0:0|0:0,0:0:0:0:
424,200,126900,1,0,0:0:0:0:
424,168,126964,1,0,0:0:0:0:
416,136,127028,1,0,0:0:0:0:
400,104,127093,1,0,0:0:0:0:
376,80,127157,1,8,0:0:0:0:
344,64,127221,1,0,0:0:0:0:
312,56,127285,1,8,0:0:0:0:
280,56,127349,1,0,0:0:0:0:
248,64,127413,6,0,B|200:80|192:128,1,90
280,144,127669,2,0,B|328:160|336:208,1,90,8|0,0:0|0:0,0:0:0:0:
248,224,127926,1,0,0:0:0:0:
216,216,127990,1,0,0:0:0:0:
184,216,128054,1,0,0:0:0:0:
152,224,128118,1,0,0:0:0:0:
120,240,128182,2,0,B|80:272|80:320,1,90,8|0,0:0|0:0,0:0:0:0:
168,320,128438,5,0,0:0:0:0:
256,320,128566,1,0,0:0:0:0:
344,296,128695,1,8,0:0:0:0:
416,248,128823,1,0,0:0:0:0:
472,176,128951,2,0,B|488:128|472:88,1,90
392,128,129207,1,8,0:0:0:0:
392,128,129335,1,0,0:0:0:0:
392,128,129464,6,0,B|376:80|392:40,1,90
352,24,129656,1,0,0:0:0:0:
312,40,129720,2,0,B|224:40,1,90,8|0,0:0|0:0,0:0:0:0:
136,40,129976,2,0,B|88:40,3,45
48,40,130233,2,0,B|8:72|8:120,1,90,8|0,0:0|0:0,0:0:0:0:
96,120,130489,5,0,0:0:0:0:
128,120,130553,1,0,0:0:0:0:
160,120,130617,1,0,0:0:0:0:
128,208,130745,5,8,0:0:0:0:
96,208,130809,1,0,0:0:0:0:
64,208,130873,1,0,0:0:0:0:
32,296,131002,6,0,B|56:296,7,22.5
80,296,131258,2,0,B|104:320,7,22.5
112,328,131514,6,0,B|160:352|208:328,1,90
256,256,131771,1,8,0:0:0:0:
256,256,131899,1,0,0:0:0:0:
312,328,132027,1,0,0:0:0:0:
312,328,132091,1,0,0:0:0:0:
312,328,132155,1,0,0:0:0:0:
312,328,132283,2,0,B|360:352|408:328,1,90,8|0,0:0|0:0,0:0:0:0:
360,248,132540,6,0,B|360:192,1,45
448,224,132732,2,0,B|448:168,1,45,0|8,0:0|0:0,0:0:0:0:
384,112,132924,1,0,0:0:0:0:
472,88,133052,1,0,0:0:0:0:
448,48,133116,2,0,B|416:16|360:24,1,90
320,40,133309,2,0,B|280:72|280:120,1,90,8|0,0:0|0:0,0:0:0:0:
248,200,133565,6,0,B|248:248,3,45
240,288,133821,2,0,B|224:336|176:352,1,90,8|0,0:0|0:0,0:0:0:0:
88,352,134078,1,0,0:0:0:0:
56,344,134142,1,0,0:0:0:0:
32,320,134206,1,0,0:0:0:0:
24,288,134270,1,0,0:0:0:0:
24,256,134334,2,0,B|24:208,2,45,8|0|0,0:0|0:0|0:0,0:0:0:0:
112,272,134590,6,0,B|112:176,1,90
40,120,134847,2,0,B|40:32,1,90,8|0,0:0|0:0,0:0:0:0:
120,64,135103,1,0,0:0:0:0:
148,48,135167,1,0,0:0:0:0:
176,36,135231,1,0,0:0:0:0:
208,28,135295,1,0,0:0:0:0:
240,24,135359,1,8,0:0:0:0:
272,24,135423,1,0,0:0:0:0:
304,28,135487,1,8,0:0:0:0:
336,36,135552,1,0,0:0:0:0:
364,48,135616,6,0,B|428:112,1,90
464,192,135872,1,8,0:0:0:0:
432,272,136000,1,0,0:0:0:0:
344,296,136128,2,0,B|344:344,2,45
256,272,136385,2,0,B|256:224,2,45,8|0|0,0:0|0:0|0:0,0:0:0:0:
168,296,136641,6,0,B|168:344,2,45
80,272,136897,1,8,0:0:0:0:
48,192,137025,1,0,0:0:0:0:
80,104,137154,2,0,B|112:64|160:64,1,90
192,64,137346,1,0,0:0:0:0:
224,72,137410,1,8,0:0:0:0:
248,96,137474,1,0,0:0:0:0:
264,128,137538,1,0,0:0:0:0:
176,152,137666,6,0,B|160:208,3,45
208,192,137923,2,0,B|216:240,3,45,8|0|0|0,0:0|0:0|0:0|0:0,0:0:0:0:
256,208,138179,2,0,B|280:248,3,45
304,208,138435,2,0,B|344:232,3,45,8|0|0|0,0:0|0:0|0:0|0:0,0:0:0:0:
352,184,138692,6,0,B|400:192,3,45,8|0|0|0,0:0|0:0|0:0|0:0,0:0:0:0:
384,144,138948,2,0,B|432:136,3,45,8|0|0|0,0:0|0:0|0:0|0:0,0:0:0:0:
408,96,139204,1,8,0:0:0:0:
272,32,139332,1,8,0:0:0:0:
136,112,139461,1,8,0:0:0:0:
112,264,139589,1,8,0:0:0:0:
256,320,139717,6,0,B|288:360|336:352,1,90,12|0,0:0|0:0,0:0:0:0:
416,304,139973,2,0,B|384:264|336:272,1,90,8|0,0:0|0:0,0:0:0:0:
296,192,140230,2,0,B|296:144,2,45
384,192,140486,2,0,B|432:192|464:152,1,90,8|0,0:0|0:0,0:0:0:0:
384,104,140742,5,0,0:0:0:0:
384,104,140806,1,0,0:0:0:0:
384,104,140870,1,0,0:0:0:0:
464,56,140999,2,0,B|434:19|386:19,1,90,8|0,0:0|0:0,0:0:0:0:
304,64,141255,1,0,0:0:0:0:
272,56,141319,1,0,0:0:0:0:
240,56,141383,1,0,0:0:0:0:
208,48,141447,1,0,0:0:0:0:
176,48,141511,2,0,B|88:48,1,90,8|0,0:0|0:0,0:0:0:0:
56,136,141768,6,0,B|8:136,2,45
144,136,142024,2,0,B|192:136,2,45,8|0|0,0:0|0:0|0:0,0:0:0:0:
96,216,142280,1,0,0:0:0:0:
96,216,142344,1,0,0:0:0:0:
96,216,142408,1,0,0:0:0:0:
184,216,142537,2,0,B|184:272|136:296,1,90,8|0,0:0|0:0,0:0:0:0:
64,328,142793,6,0,B|48:280,2,45
96,360,142985,1,0,0:0:0:0:
136,368,143049,2,0,B|180:380|224:368,1,90,8|0,0:0|0:0,0:0:0:0:
272,288,143306,1,0,0:0:0:0:
296,304,143370,1,0,0:0:0:0:
328,312,143434,1,0,0:0:0:0:
360,312,143498,1,0,0:0:0:0:
392,304,143562,1,8,0:0:0:0:
416,288,143626,1,0,0:0:0:0:
440,264,143690,1,8,0:0:0:0:
456,232,143754,1,0,0:0:0:0:
464,200,143818,6,0,B|464:112,2,90,0|0|8,0:0|0:0|0:0,0:0:0:0:
384,152,144203,1,0,0:0:0:0:
384,184,144267,1,0,0:0:0:0:
376,216,144331,1,0,0:0:0:0:
288,184,144459,2,0,B|256:216,2,45,0|0|8,0:0|0:0|0:0,0:0:0:0:
312,96,144715,1,0,0:0:0:0:
232,56,144844,6,0,B|144:32,1,90
168,120,145100,2,0,B|80:96,1,90,8|0,0:0|0:0,0:0:0:0:
96,184,145356,2,0,B|0:160,1,90
24,248,145613,5,8,0:0:0:0:
24,248,145741,1,0,0:0:0:0:
24,248,145869,2,0,B|112:272,1,90
152,264,146061,1,0,0:0:0:0:
192,256,146125,2,0,B|288:288,1,90,8|0,0:0|0:0,0:0:0:0:
208,344,146382,1,0,0:0:0:0:
248,360,146446,2,0,B|280:376|312:368|336:336,1,90
352,304,146638,2,0,B|370:280|402:272|434:288,1,90,8|0,0:0|0:0,0:0:0:0:
408,376,146894,5,0,0:0:0:0:
496,344,147022,1,0,0:0:0:0:
496,344,147087,1,0,0:0:0:0:
496,344,147151,1,8,0:0:0:0:
512,256,147279,1,0,0:0:0:0:
448,192,147407,2,0,B|432:176,7,22.5
432,152,147663,2,0,B|448:136,7,22.5
448,112,147920,6,0,B|440:64|392:48,1,90
304,48,148176,2,0,B|256:65|248:113,1,90,8|0,0:0|0:0,0:0:0:0:
248,200,148432,2,0,B|248:256,4,45,0|0|0|0|8,0:0|0:0|0:0|0:0|0:0,0:0:0:0:
168,152,148817,1,0,0:0:0:0:
168,64,148945,5,0,0:0:0:0:
168,64,149009,1,0,0:0:0:0:
88,24,149137,1,0,0:0:0:0:
88,24,149201,1,8,0:0:0:0:
88,112,149329,2,0,B|32:112,2,45
88,200,149586,2,0,B|120:232,2,45,0|0|8,0:0|0:0|0:0,0:0:0:0:
24,264,149842,1,0,0:0:0:0:
88,328,149970,5,0,0:0:0:0:
128,344,150034,2,0,B|176:352|224:344,1,90
264,328,150227,2,0,B|312:320|360:328,1,90,8|0,0:0|0:0,0:0:0:0:
440,344,150483,1,0,0:0:0:0:
456,320,150547,1,0,0:0:0:0:
448,288,150611,1,0,0:0:0:0:
464,264,150675,1,0,0:0:0:0:
456,232,150739,2,0,B|456:184|472:144,1,90,8|0,0:0|0:0,0:0:0:0:
432,64,150996,6,0,B|464:32,2,45
344,48,151252,2,0,B|344:0,2,45,8|0|0,0:0|0:0|0:0,0:0:0:0:
256,48,151508,1,0,0:0:0:0:
224,48,151572,1,0,0:0:0:0:
192,56,151636,1,0,0:0:0:0:
160,72,151701,1,0,0:0:0:0:
136,96,151765,1,8,0:0:0:0:
120,128,151829,1,0,0:0:0:0:
112,160,151893,1,8,0:0:0:0:
112,192,151957,1,0,0:0:0:0:
120,224,152021,6,0,B|136:272|184:280,2,90,0|0|8,0:0|0:0|0:0,0:0:0:0:
200,192,152405,2,0,B|200:160|208:144,2,45
272,248,152662,1,0,0:0:0:0:
312,272,152726,1,0,0:0:0:0:
360,272,152790,2,0,B|408:272|440:232,1,90,8|0,0:0|0:0,0:0:0:0:
360,192,153046,5,0,0:0:0:0:
360,192,153110,1,0,0:0:0:0:
440,152,153239,1,0,0:0:0:0:
440,152,153303,1,8,0:0:0:0:
360,112,153431,1,0,0:0:0:0:
360,112,153559,2,0,B|360:56,2,45
320,128,153751,1,0,0:0:0:0:
280,112,153815,2,0,B|236:100|192:112,1,90,8|0,0:0|0:0,0:0:0:0:
128,176,154072,6,0,B|88:192,3,45
128,216,154328,2,0,B|88:232,3,45,8|0|0|0,0:0|0:0|0:0|0:0,0:0:0:0:
128,256,154584,2,0,B|88:272,3,45
128,296,154841,2,0,B|80:320,3,45,8|0|0|0,0:0|0:0|0:0|0:0,0:0:0:0:
128,336,155097,5,8,0:0:0:0:
160,336,155161,1,0,0:0:0:0:
192,328,155225,1,0,0:0:0:0:
224,312,155289,1,0,0:0:0:0:
248,296,155353,1,8,0:0:0:0:
272,272,155417,1,0,0:0:0:0:
288,248,155481,1,0,0:0:0:0:
296,216,155546,1,0,0:0:0:0:
296,184,155610,5,8,0:0:0:0:
288,152,155674,1,8,0:0:0:0:
272,128,155738,1,8,0:0:0:0:
248,104,155802,1,8,0:0:0:0:
224,88,155866,1,8,0:0:0:0:
192,72,155930,1,8,0:0:0:0:
160,64,155994,1,8,0:0:0:0:
128,64,156058,1,8,0:0:0:0:
96,72,156122,2,0,B|72:88|64:112,1,45,2|0,0:0|0:0,0:0:0:0:
96,152,163471,6,0,B|96:104|136:64,2,90,6|0|8,0:0|0:0|0:0,0:0:0:0:
96,240,163876,1,0,0:0:0:0:
104,272,163943,1,0,0:0:0:0:
128,288,164011,1,0,0:0:0:0:
136,320,164079,1,0,0:0:0:0:
160,336,164146,1,0,0:0:0:0:
248,336,164281,2,0,B|336:336,1,90,8|0,0:0|0:0,0:0:0:0:
432,336,164552,5,2,0:0:0:0:
432,336,164619,1,0,0:0:0:0:
432,336,164687,1,0,0:0:0:0:
392,256,164822,2,0,B|304:256,1,90,8|0,0:0|0:0,0:0:0:0:
344,176,165092,1,0,0:0:0:0:
336,144,165160,1,0,0:0:0:0:
320,112,165227,1,0,0:0:0:0:
304,88,165295,1,0,0:0:0:0:
280,64,165362,2,0,B|240:32|192:32,1,90,8|0,0:0|0:0,0:0:0:0:
104,32,165633,6,0,B|48:32,2,45,2|0|0,0:0|0:0|0:0,0:0:0:0:
152,112,165903,2,0,B|208:112,2,45,8|0|0,0:0|0:0|0:0,0:0:0:0:
64,112,166173,1,0,0:0:0:0:
56,144,166241,1,0,0:0:0:0:
64,176,166308,1,0,0:0:0:0:
56,208,166376,1,0,0:0:0:0:
64,240,166443,2,0,B|64:328,1,90,8|0,0:0|0:0,0:0:0:0:
152,328,166714,6,0,B|152:280,2,45
240,304,166984,2,0,B|240:352,2,45,8|0|0,0:0|0:0|0:0,0:0:0:0:
328,328,167254,1,0,0:0:0:0:
360,328,167322,1,0,0:0:0:0:
392,320,167389,1,0,0:0:0:0:
424,304,167457,1,0,0:0:0:0:
448,280,167525,2,0,B|464:256|464:224,3,45,8|0|8|0,0:0|0:0|0:0|0:0,0:0:0:0:
464,208,167795,6,0,B|464:120,1,90,2|0,0:0|0:0,0:0:0:0:
424,40,168065,1,8,0:0:0:0:
336,40,168200,1,0,0:0:0:0:
304,40,168268,1,0,0:0:0:0:
272,40,168335,1,0,0:0:0:0:
240,40,168403,1,0,0:0:0:0:
208,40,168471,1,0,0:0:0:0:
120,40,168606,2,0,B|72:40,2,45,8|0|0,0:0|0:0|0:0,0:0:0:0:
160,120,168876,6,0,B|104:120|88:176,1,90,2|0,0:0|0:0,0:0:0:0:
72,208,169079,1,0,0:0:0:0:
88,248,169146,2,0,B|101:295|157:295,1,90,8|0,0:0|0:0,0:0:0:0:
168,208,169416,2,0,B|224:208,3,45
256,208,169687,2,0,B|344:208,1,90,8|0,0:0|0:0,0:0:0:0:
304,288,169957,6,0,B|264:328,2,45
392,288,170227,2,0,B|400:336|448:352,1,90,8|0,0:0|0:0,0:0:0:0:
480,264,170498,5,0,0:0:0:0:
480,240,170565,1,0,0:0:0:0:
480,216,170633,1,0,0:0:0:0:
480,128,170768,2,0,B|480:32,1,90,8|0,0:0|0:0,0:0:0:0:
400,80,171038,6,0,B|360:56,3,45
320,40,171308,2,0,B|280:56,3,45,8|0|0|0,0:0|0:0|0:0|0:0,0:0:0:0:
240,72,171579,2,0,B|192:48,3,45
160,32,171849,1,8,0:0:0:0:
120,16,171916,1,0,0:0:0:0:
72,24,171984,1,8,0:0:0:0:
40,56,172052,1,0,0:0:0:0:
32,104,172119,6,0,B|32:160,2,45,6|0|0,0:0|0:0|0:0,0:0:0:0:
120,104,172389,2,0,B|120:200,1,90,8|0,0:0|0:0,0:0:0:0:
40,232,172660,1,0,0:0:0:0:
112,288,172795,1,0,0:0:0:0:
120,320,172862,1,0,0:0:0:0:
144,344,172930,1,8,0:0:0:0:
176,352,172998,1,0,0:0:0:0:
208,352,173065,1,0,0:0:0:0:
200,264,173200,5,2,0:0:0:0:
200,264,173268,1,0,0:0:0:0:
200,176,173403,1,0,0:0:0:0:
200,176,173471,2,0,B|248:168|296:176,1,90,8|0,0:0|0:0,0:0:0:0:
288,264,173741,2,0,B|288:312,3,45
320,336,174011,2,0,B|364:352|408:336,1,90,8|0,0:0|0:0,0:0:0:0:
368,256,174281,5,2,0:0:0:0:
456,240,174416,1,0,0:0:0:0:
432,200,174484,1,0,0:0:0:0:
408,160,174552,1,8,0:0:0:0:
496,144,174687,1,0,0:0:0:0:
440,72,174822,2,0,B|384:72,3,45
352,72,175092,2,0,B|264:72,1,90,8|0,0:0|0:0,0:0:0:0:
176,72,175362,5,0,0:0:0:0:
64,120,175498,1,0,0:0:0:0:
168,192,175633,1,8,0:0:0:0:
48,240,175768,1,0,0:0:0:0:
160,304,175903,5,8,0:0:0:0:
288,200,176038,1,0,0:0:0:0:
328,360,176173,1,8,0:0:0:0:
456,256,176308,1,0,0:0:0:0:
456,256,176376,1,0,0:0:0:0:
456,256,176443,6,0,B|488:212|456:168,1,90,2|0,0:0|0:0,0:0:0:0:
368,160,176714,2,0,B|336:116|368:72,1,90,8|0,0:0|0:0,0:0:0:0:
456,56,176984,2,0,B|352:96|296:16,1,180,0|8,0:0|0:0,0:0:0:0:
208,16,177389,1,0,0:0:0:0:
120,16,177525,5,2,0:0:0:0:
120,16,177592,1,0,0:0:0:0:
120,16,177660,1,0,0:0:0:0:
40,48,177795,2,0,B|56:96|112:104,1,90,8|0,0:0|0:0,0:0:0:0:
192,104,178065,2,0,B|240:104,2,45
184,152,178268,1,0,0:0:0:0:
152,184,178335,2,0,B|128:208|96:208|72:184,1,90,8|0,0:0|0:0,0:0:0:0:
32,264,178606,5,0,0:0:0:0:
120,288,178741,1,0,0:0:0:0:
120,288,178808,1,0,0:0:0:0:
120,288,178876,1,8,0:0:0:0:
200,256,179011,1,0,0:0:0:0:
288,272,179146,2,0,B|376:304,1,90
440,240,179416,2,0,B|344:208,1,90,8|0,0:0|0:0,0:0:0:0:
424,152,179687,6,0,B|408:104,3,45
368,136,179957,2,0,B|336:96,3,45,8|0|0|0,0:0|0:0|0:0|0:0,0:0:0:0:
312,136,180227,1,0,0:0:0:0:
288,112,180295,1,0,0:0:0:0:
256,96,180362,1,0,0:0:0:0:
224,88,180430,1,0,0:0:0:0:
184,88,180498,2,0,B|160:88,7,22.5,8|0|0|0|0|0|0|0,0:0|0:0|0:0|0:0|0:0|0:0|0:0|0:0,0:0:0:0:
144,88,180768,6,0,B|56:88,1,90,6|0,0:0|0:0,0:0:0:0:
96,168,181038,2,0,B|136:208,2,45,8|0|0,0:0|0:0|0:0,0:0:0:0:
32,232,181308,2,0,B|112:256|128:336,1,135
168,320,181579,2,0,B|264:320,1,90,8|0,0:0|0:0,0:0:0:0:
344,320,181849,5,2,0:0:0:0:
368,320,181916,1,0,0:0:0:0:
392,320,181984,2,0,B|400:272|392:224,1,90,0|8,0:0|0:0,0:0:0:0:
304,232,182254,2,0,B|256:232,2,45
344,152,182525,1,0,0:0:0:0:
432,136,182660,1,8,0:0:0:0:
456,48,182795,1,0,0:0:0:0:
368,64,182930,5,0,0:0:0:0:
344,72,182998,1,0,0:0:0:0:
320,80,183065,2,0,B|240:32,1,90,0|8,0:0|0:0,0:0:0:0:
152,32,183335,1,0,0:0:0:0:
128,32,183403,1,0,0:0:0:0:
104,32,183471,1,0,0:0:0:0:
40,96,183606,1,0,0:0:0:0:
128,120,183741,1,8,0:0:0:0:
64,184,183876,1,0,0:0:0:0:
152,208,184011,6,0,B|160:256,2,45
80,264,184281,2,0,B|72:312,2,45,8|0|0,0:0|0:0|0:0,0:0:0:0:
144,328,184552,1,0,0:0:0:0:
172,324,184619,1,0,0:0:0:0:
200,316,184687,1,0,0:0:0:0:
224,304,184754,1,0,0:0:0:0:
248,288,184822,1,8,0:0:0:0:
268,268,184889,1,0,0:0:0:0:
284,248,184957,1,8,0:0:0:0:
300,224,185025,1,0,0:0:0:0:
312,200,185092,6,0,B|320:152|312:104,1,90,2|0,0:0|0:0,0:0:0:0:
336,96,185295,1,0,0:0:0:0:
360,80,185362,2,0,B|408:88|456:80,2,90,8|0|0,0:0|0:0|0:0,0:0:0:0:
408,160,185768,2,0,B|408:208,4,45,0|0|8|0|0,0:0|0:0|0:0|0:0|0:0,0:0:0:0:
496,192,186173,5,2,0:0:0:0:
496,192,186241,1,0,0:0:0:0:
496,192,186308,1,0,0:0:0:0:
464,272,186443,2,0,B|424:360,1,90,8|0,0:0|0:0,0:0:0:0:
336,352,186714,1,0,0:0:0:0:
312,336,186781,1,0,0:0:0:0:
288,328,186849,1,0,0:0:0:0:
264,336,186916,1,0,0:0:0:0:
240,352,186984,1,8,0:0:0:0:
152,352,187119,1,0,0:0:0:0:
64,352,187254,6,0,B|16:352,2,45
104,272,187525,2,0,B|112:224|104:176,1,90,8|0,0:0|0:0,0:0:0:0:
24,224,187795,6,0,B|24:280,2,45
24,136,188065,2,0,B|56:104|80:64,1,90,8|0,0:0|0:0,0:0:0:0:
160,32,188335,5,0,0:0:0:0:
288,32,188471,1,0,0:0:0:0:
208,128,188606,1,8,0:0:0:0:
336,152,188741,1,0,0:0:0:0:
240,232,188876,5,0,0:0:0:0:
272,248,188943,1,0,0:0:0:0:
304,264,189011,1,0,0:0:0:0:
336,280,189079,1,0,0:0:0:0:
368,296,189146,1,8,0:0:0:0:
400,312,189214,1,0,0:0:0:0:
432,328,189281,1,8,0:0:0:0:
472,248,189416,6,0,B|424:232|416:176,1,90,2|0,0:0|0:0,0:0:0:0:
504,160,189687,2,0,B|496:112|448:92,1,90,8|0,0:0|0:0,0:0:0:0:
360,88,189957,2,0,B|304:88|304:88|240:80|240:80|176:80,1,180,0|8,0:0|0:0,0:0:0:0:
88,80,190362,1,0,0:0:0:0:
136,160,190498,6,0,B|184:160,2,45,2|0|0,0:0|0:0|0:0,0:0:0:0:
48,160,190768,2,0,B|8:224|48:296,1,135,8|0,0:0|0:0,0:0:0:0:
80,312,191038,2,0,B|144:312|144:312|192:296|192:296|256:296,1,180,0|8,0:0|0:0,0:0:0:0:
320,232,191443,1,0,0:0:0:0:
336,320,191579,5,0,0:0:0:0:
336,320,191646,1,0,0:0:0:0:
336,320,191714,1,0,0:0:0:0:
400,256,191849,2,0,B|448:280,2,45,8|0|0,0:0|0:0|0:0,0:0:0:0:
392,168,192119,2,0,B|336:144,2,45
472,200,192389,1,8,0:0:0:0:
472,200,192457,1,0,0:0:0:0:
472,200,192525,1,0,0:0:0:0:
464,112,192660,6,0,B|504:128,2,45
424,96,192862,1,0,0:0:0:0:
384,80,192930,2,0,B|296:40|296:40,1,90,8|0,0:0|0:0,0:0:0:0:
216,40,193200,1,0,0:0:0:0:
184,48,193268,1,0,0:0:0:0:
152,64,193335,1,0,0:0:0:0:
120,72,193403,1,0,0:0:0:0:
88,88,193471,2,0,B|48:104,3,45,8|0|8|0,0:0|0:0|0:0|0:0,0:0:0:0:
16,136,193741,6,0,B|8:184|16:232,1,90,2|0,0:0|0:0,0:0:0:0:
56,224,193943,1,0,0:0:0:0:
104,224,194011,2,0,B|112:272|104:320,1,90,8|0,0:0|0:0,0:0:0:0:
192,312,194281,1,0,0:0:0:0:
224,320,194349,1,0,0:0:0:0:
256,312,194416,1,0,0:0:0:0:
288,320,194484,1,0,0:0:0:0:
320,312,194552,2,0,B|368:304|416:312,1,90,8|0,0:0|0:0,0:0:0:0:
368,232,194822,6,0,B|312:232,2,45,2|0|0,0:0|0:0|0:0,0:0:0:0:
456,232,195092,2,0,B|456:144,1,90,8|0,0:0|0:0,0:0:0:0:
448,56,195362,1,0,0:0:0:0:
376,112,195498,1,0,0:0:0:0:
368,24,195633,1,8,0:0:0:0:
296,80,195768,1,0,0:0:0:0:
224,24,195903,6,0,B|192:112,1,90
128,48,196173,2,0,B|96:144,1,90,8|0,0:0|0:0,0:0:0:0:
224,360,196443,6,0,B|192:272,1,90
128,336,196713,2,0,B|96:240,1,90,8|0,0:0|0:0,0:0:0:0:
168,192,196984,5,0,0:0:0:0:
304,192,197119,1,0,0:0:0:0:
216,192,197254,1,8,0:0:0:0:
352,192,197389,1,0,0:0:0:0:
256,192,197525,5,0,0:0:0:0:
256,224,197592,1,0,0:0:0:0:
256,256,197660,1,0,0:0:0:0:
256,288,197727,1,0,0:0:0:0:
256,320,197795,2,0,B|256:352,7,22.5,8|0|0|0|0|0|0|0,0:0|0:0|0:0|0:0|0:0|0:0|0:0|0:0,0:0:0:0:
256,360,198065,1,4,0:0:0:0:
296,56,200227,6,0,B|272:32|240:32|216:56,1,90,4|0,0:0|0:0,0:0:0:0:
216,328,202389,6,0,B|240:352|272:352|296:328,1,90,4|0,0:0|0:0,0:0:0:0:
256,192,204552,5,0,0:0:0:0:
120,192,204957,5,0,0:0:0:0:
392,192,205092,1,4,0:0:0:0:
328,72,205498,5,0,0:0:0:0:
184,312,205633,1,4,0:0:0:0:
120,192,205903,1,4,0:0:0:0:
392,192,206173,1,4,0:0:0:0:
392,192,206443,1,4,0:0:0:0:
392,192,206579,1,4,0:0:0:0:
184,72,206714,1,4,0:0:0:0:
256,192,206781,12,4,208741,0:0:0:0:
256,56,215092,5,8,0:0:0:0:
256,56,215227,1,8,0:0:0:0:
256,56,215362,6,0,B|168:32,1,90,2|0,0:0|0:0,0:0:0:0:
120,32,215565,1,0,0:0:0:0:
72,32,215633,2,0,B|32:64|32:112,1,90,8|0,0:0|0:0,0:0:0:0:
120,112,215903,2,0,B|168:128,2,45
80,192,216173,2,0,B|80:288,1,90,8|0,0:0|0:0,0:0:0:0:
160,240,216443,6,0,B|160:192,2,45,2|0|0,0:0|0:0|0:0,0:0:0:0:
168,328,216714,2,0,B|216:328|240:280,1,90,8|0,0:0|0:0,0:0:0:0:
240,192,216984,1,0,0:0:0:0:
248,168,217052,1,0,0:0:0:0:
264,144,217119,1,0,0:0:0:0:
272,120,217187,1,0,0:0:0:0:
288,96,217254,2,0,B|336:88|384:96,1,90,8|0,0:0|0:0,0:0:0:0:
400,112,217457,1,0,0:0:0:0:
416,128,217525,6,0,B|424:176|416:224,1,90
336,264,217795,2,0,B|328:216|336:168,1,90,8|0,0:0|0:0,0:0:0:0:
416,312,218065,2,0,B|392:376|304:384|264:328,1,180,0|8,0:0|0:0,0:0:0:0:
240,248,218471,2,0,B|232:216|240:184,2,45
176,312,218741,1,0,0:0:0:0:
152,336,218808,1,0,0:0:0:0:
120,344,218876,2,0,B|72:344|40:304,1,90,8|0,0:0|0:0,0:0:0:0:
112,256,219146,1,0,0:0:0:0:
112,224,219214,1,0,0:0:0:0:
104,192,219281,1,0,0:0:0:0:
88,160,219349,1,0,0:0:0:0:
64,136,219416,2,0,B|16:112|16:64,1,90,8|0,0:0|0:0,0:0:0:0:
104,56,219687,6,0,B|104:8,2,45,2|0|0,0:0|0:0|0:0,0:0:0:0:
168,120,219957,2,0,B|184:176,2,45,8|0|0,0:0|0:0|0:0,0:0:0:0:
224,56,220227,2,0,B|224:8,2,45
288,120,220498,2,0,B|304:168,2,45,8|0|0,0:0|0:0|0:0,0:0:0:0:
352,56,220768,5,2,0:0:0:0:
376,40,220835,1,0,0:0:0:0:
400,32,220903,1,0,0:0:0:0:
416,120,221038,2,0,B|488:192,1,90,8|0,0:0|0:0,0:0:0:0:
392,216,221308,2,0,B|424:248,3,45
456,280,221579,2,0,B|448:328|400:352,1,90,8|0,0:0|0:0,0:0:0:0:
320,320,221849,5,0,0:0:0:0:
232,208,221984,1,0,0:0:0:0:
232,352,222119,1,8,0:0:0:0:
320,240,222254,1,0,0:0:0:0:
184,280,222389,2,0,B|120:304|120:304|56:280,1,135
56,232,222660,2,0,B|56:128,1,90,8|0,0:0|0:0,0:0:0:0:
104,64,222930,6,0,B|136:104,3,45
176,40,223200,2,0,B|208:80,3,45,8|0|0|0,0:0|0:0|0:0|0:0,0:0:0:0:
256,24,223471,2,0,B|288:72,1,45
344,24,223606,2,0,B|368:64,1,45
432,32,223741,2,0,B|464:80,1,45,8|0,0:0|0:0,0:0:0:0:
464,112,223876,1,8,0:0:0:0:
456,152,223943,1,0,0:0:0:0:
416,176,224011,6,0,B|368:176,2,45,2|0|0,0:0|0:0|0:0,0:0:0:0:
440,264,224281,2,0,B|488:248|520:216,2,90,8|0|0,0:0|0:0|0:0,0:0:0:0:
376,328,224687,2,0,B|416:344,4,45,0|0|8|0|0,0:0|0:0|0:0|0:0|0:0,0:0:0:0:
312,264,225092,5,2,0:0:0:0:
288,280,225160,1,0,0:0:0:0:
264,296,225227,2,0,B|216:304|168:296,1,90,0|8,0:0|0:0,0:0:0:0:
224,224,225498,2,0,B|264:192,2,45
136,216,225768,1,0,0:0:0:0:
120,192,225835,1,0,0:0:0:0:
112,168,225903,1,8,0:0:0:0:
96,144,225971,1,0,0:0:0:0:
88,120,226038,1,0,0:0:0:0:
144,48,226173,6,0,B|176:80,3,45
240,48,226443,2,0,B|272:80,3,45,8|0|0|0,0:0|0:0|0:0|0:0,0:0:0:0:
336,48,226714,1,0,0:0:0:0:
456,136,226849,1,0,0:0:0:0:
328,192,226984,1,8,0:0:0:0:
408,312,227119,1,0,0:0:0:0:
264,312,227254,6,0,B|280:368,2,45
176,336,227525,2,0,B|128:344|80:336,1,90,8|0,0:0|0:0,0:0:0:0:
136,264,227795,2,0,B|88:240,3,45
136,184,228065,2,0,B|88:160,3,45,8|0|0|0,0:0|0:0|0:0|0:0,0:0:0:0:
136,104,228335,6,0,B|96:80,2,45,2|0|0,0:0|0:0|0:0,0:0:0:0:
216,144,228606,2,0,B|280:160|344:88|304:16,2,180,8|0|8,0:0|0:0|0:0,0:0:0:0:
224,56,229281,1,0,0:0:0:0:
224,56,229349,1,0,0:0:0:0:
224,56,229416,6,0,B|368:200,1,180,2|8,0:0|0:0,0:0:0:0:
440,168,229822,1,0,0:0:0:0:
440,168,229957,2,0,B|400:128,2,45
408,248,230227,2,0,B|440:280,2,45,8|0|0,0:0|0:0|0:0,0:0:0:0:
320,256,230498,5,0,0:0:0:0:
368,328,230633,2,0,B|408:368,2,45,0|0|8,0:0|0:0|0:0,0:0:0:0:
280,336,230903,1,0,0:0:0:0:
232,264,231038,2,0,B|176:344|72:320,1,180,0|8,0:0|0:0,0:0:0:0:
32,240,231443,1,0,0:0:0:0:
72,160,231579,6,0,B|64:112,3,45
136,120,231849,2,0,B|144:72,3,45,8|0|0|0,0:0|0:0|0:0|0:0,0:0:0:0:
208,104,232119,1,0,0:0:0:0:
224,80,232187,1,0,0:0:0:0:
248,56,232254,1,0,0:0:0:0:
280,40,232322,1,0,0:0:0:0:
312,32,232389,2,0,B|360:32,3,45,8|0|8|0,0:0|0:0|0:0|0:0,0:0:0:0:
400,32,232660,1,4,0:0:0:0:
368,120,232795,6,0,B|448:168,1,90,8|0,0:0|0:0,0:0:0:0:
360,200,233065,2,0,B|424:280,1,90,8|0,0:0|0:0,0:0:0:0:
328,280,233335,2,0,B|368:360,2,90,8|0|8,0:0|0:0|0:0,0:0:0:0:
256,224,233741,1,0,0:0:0:0:
144,120,233876,6,0,B|64:168,1,90,8|0,0:0|0:0,0:0:0:0:
152,200,234146,2,0,B|88:280,1,90,8|8,0:0|0:0,0:0:0:0:
184,280,234416,2,0,B|144:360,2,90,0|8|8,0:0|0:0|0:0,0:0:0:0:
256,224,234822,1,0,0:0:0:0:
256,136,234957,6,0,B|256:88,2,45,8|0|0,0:0|0:0|0:0,0:0:0:0:
344,152,235227,2,0,B|360:104,2,45,8|0|0,0:0|0:0|0:0,0:0:0:0:
424,200,235498,2,0,B|456:160,2,45,8|0|0,0:0|0:0|0:0,0:0:0:0:
448,288,235768,2,0,B|496:288,2,45,8|0|0,0:0|0:0|0:0,0:0:0:0:
360,288,236038,5,8,0:0:0:0:
360,288,236173,1,8,0:0:0:0:
272,288,236308,1,0,0:0:0:0:
272,288,236376,1,0,0:0:0:0:
272,288,236443,2,0,B|128:320,1,135,8|0,0:0|0:0,0:0:0:0:
96,328,236714,2,0,B|72:240,1,90,8|8,0:0|0:0,0:0:0:0:
160,216,236984,1,0,0:0:0:0:
96,152,237119,6,0,B|40:152,2,45,8|0|0,0:0|0:0|0:0,0:0:0:0:
184,128,237389,2,0,B|168:80|112:64,1,90,8|0,0:0|0:0,0:0:0:0:
208,32,237660,6,0,B|256:32,2,45,8|0|0,0:0|0:0|0:0,0:0:0:0:
264,104,237930,2,0,B|312:96|328:40,1,90,8|0,0:0|0:0,0:0:0:0:
416,32,238200,5,8,0:0:0:0:
416,32,238335,1,0,0:0:0:0:
384,112,238471,1,8,0:0:0:0:
384,112,238606,1,8,0:0:0:0:
472,96,238741,1,0,0:0:0:0:
432,224,238876,1,8,0:0:0:0:
488,344,239011,1,8,0:0:0:0:
368,280,239146,1,0,0:0:0:0:
240,328,239281,6,0,B|184:328,2,45,8|0|0,0:0|0:0|0:0,0:0:0:0:
256,240,239552,2,0,B|304:240,2,45,8|0|0,0:0|0:0|0:0,0:0:0:0:
168,240,239822,2,0,B|120:256|104:304,1,90,8|0,0:0|0:0,0:0:0:0:
16,320,240092,2,0,B|16:232,1,90,8|0,0:0|0:0,0:0:0:0:
88,184,240362,5,8,0:0:0:0:
160,64,240498,1,8,0:0:0:0:
24,64,240633,1,0,0:0:0:0:
24,64,240700,1,0,0:0:0:0:
24,64,240768,2,0,B|88:136|184:144,1,180,8|8,0:0|0:0,0:0:0:0:
256,88,241173,1,8,0:0:0:0:
331,143,241308,6,0,B|424:136|488:64,2,180,6|8|0,0:0|0:0|0:0,0:0:0:0:
256,200,241984,1,0,0:0:0:0:
256,224,242052,1,0,0:0:0:0:
256,248,242119,1,8,0:0:0:0:
296,328,242254,1,0,0:0:0:0:
208,328,242389,6,0,B|144:280|72:296,1,135,2|0,0:0|0:0,0:0:0:0:
32,296,242660,2,0,B|32:208,1,90,8|0,0:0|0:0,0:0:0:0:
120,200,242930,2,0,B|112:152|64:128,1,90
40,120,243133,1,0,0:0:0:0:
24,96,243200,1,8,0:0:0:0:
24,72,243268,1,0,0:0:0:0:
40,48,243335,1,0,0:0:0:0:
128,48,243471,6,0,B|176:48,3,45
184,120,243741,2,0,B|216:88,3,45,8|0|0|0,0:0|0:0|0:0|0:0,0:0:0:0:
264,144,244011,1,0,0:0:0:0:
408,112,244146,1,0,0:0:0:0:
312,216,244281,1,8,0:0:0:0:
320,72,244416,1,0,0:0:0:0:
392,200,244552,6,0,B|472:208|480:304,1,135
472,336,244822,2,0,B|368:336,1,90,8|0,0:0|0:0,0:0:0:0:
296,304,245092,1,0,0:0:0:0:
264,312,245160,1,0,0:0:0:0:
232,312,245227,1,0,0:0:0:0:
200,320,245295,1,0,0:0:0:0:
168,320,245362,2,0,B|64:320,1,90,8|0,0:0|0:0,0:0:0:0:
120,240,245633,6,0,B|120:48,2,180,2|8|0,0:0|0:0|0:0,0:0:0:0:
200,200,246308,1,0,0:0:0:0:
256,272,246443,1,8,0:0:0:0:
312,200,246579,1,0,0:0:0:0:
392,240,246714,6,0,B|392:48,2,180,2|8|0,0:0|0:0|0:0,0:0:0:0:
312,200,247389,1,0,0:0:0:0:
288,240,247457,1,0,0:0:0:0:
256,272,247525,1,8,0:0:0:0:
200,200,247660,1,0,0:0:0:0:
256,128,247795,6,0,B|256:72,2,45,0|8|8,0:0|0:0|0:0,0:0:0:0:
168,112,248065,2,0,B|176:48,2,45,0|8|8,0:0|0:0|0:0,0:0:0:0:
80,80,248335,2,0,B|96:40,2,45,0|8|8,0:0|0:0|0:0,0:0:0:0:
104,168,248606,1,8,0:0:0:0:
16,144,248741,1,8,0:0:0:0:
40,232,248876,5,0,0:0:0:0:
56,240,248943,1,0,0:0:0:0:
72,248,249011,1,0,0:0:0:0:
88,256,249079,1,0,0:0:0:0:
104,264,249146,1,8,0:0:0:0:
120,272,249214,1,0,0:0:0:0:
136,280,249281,1,0,0:0:0:0:
152,288,249349,1,0,0:0:0:0:
168,296,249416,2,0,B|216:320,3,45
248,312,249687,2,0,B|296:280,3,45,8|0|8|0,0:0|0:0|0:0|0:0,0:0:0:0:
320,264,249957,1,4,0:0:0:0:
200,48,258606,6,0,B|152:48,2,45
176,128,258876,2,0,B|120:128,2,45,8|0|0,0:0|0:0|0:0,0:0:0:0:
152,208,259147,2,0,B|104:208,2,45
216,256,259417,1,8,0:0:0:0:
296,256,259552,1,8,0:0:0:0:
360,208,259687,6,0,B|405:208,2,45
336,128,259958,2,0,B|381:128,2,45,8|0|0,0:0|0:0|0:0,0:0:0:0:
312,48,260228,2,0,B|357:48,2,45,0|0|0,0:0|0:0|0:0,0:0:0:0:
256,112,260498,1,8,0:0:0:0:
256,192,260633,1,8,0:0:0:0:
296,264,260768,6,0,B|328:304,3,45
360,320,261038,2,0,B|408:328|456:320,1,90,8|0,0:0|0:0,0:0:0:0:
216,264,261308,6,0,B|184:304,3,45
152,320,261578,2,0,B|104:328|56:320,1,90,8|0,0:0|0:0,0:0:0:0:
104,248,261849,5,0,0:0:0:0:
108,224,261916,1,0,0:0:0:0:
116,204,261984,1,0,0:0:0:0:
128,184,262052,1,0,0:0:0:0:
140,164,262119,1,8,0:0:0:0:
156,148,262187,1,0,0:0:0:0:
172,132,262254,1,0,0:0:0:0:
192,120,262322,1,0,0:0:0:0:
212,112,262389,2,0,B|256:112,7,45,0|0|0|0|8|0|8|0,0:0|0:0|0:0|0:0|0:0|0:0|0:0|0:0,0:0:0:0:
280,112,262930,6,0,B|344:112,3,45,2|0|0|0,0:0|0:0|0:0|0:0,0:0:0:0:
368,112,263200,2,0,B|416:120|456:136,1,90,8|0,0:0|0:0,0:0:0:0:
392,200,263471,2,0,B|376:256,2,45
480,216,263741,2,0,B|480:312,1,90,8|0,0:0|0:0,0:0:0:0:
392,328,264011,5,2,0:0:0:0:
368,320,264079,1,0,0:0:0:0:
344,328,264146,1,0,0:0:0:0:
320,320,264214,1,0,0:0:0:0:
296,328,264281,2,0,B|248:344|216:304,1,90,8|0,0:0|0:0,0:0:0:0:
280,240,264552,2,0,B|304:192,2,45
192,216,264822,2,0,B|144:232|128:280,1,90,8|0,0:0|0:0,0:0:0:0:
48,320,265092,1,6,0:0:0:0:
256,192,265160,12,0,267119,0:0:0:0:
256,72,267254,6,0,B|176:32,1,90,4|0,0:0|0:0,0:0:0:0:
88,32,267525,2,0,B|48:72|88:112,1,90,8|0,0:0|0:0,0:0:0:0:
168,144,267795,2,0,B|208:168,2,45
88,184,268065,2,0,B|48:208,2,45,8|0|0,0:0|0:0|0:0,0:0:0:0:
160,240,268335,6,0,B|176:288,2,45
80,280,268606,2,0,B|80:328|120:360,1,90,8|0,0:0|0:0,0:0:0:0:
208,360,268876,1,0,0:0:0:0:
248,344,268943,1,0,0:0:0:0:
296,352,269011,1,0,0:0:0:0:
336,336,269079,1,0,0:0:0:0:
376,344,269146,2,0,B|472:344,1,90,8|8,0:0|0:0,0:0:0:0:
424,264,269416,6,0,B|464:232,2,45
336,264,269687,2,0,B|296:232,2,45,8|0|0,0:0|0:0|0:0,0:0:0:0:
384,184,269957,2,0,B|384:80,1,90
344,72,270160,1,0,0:0:0:0:
304,48,270227,2,0,B|256:40|208:48,1,90,8|0,0:0|0:0,0:0:0:0:
256,128,270498,6,0,B|256:184,2,45
168,120,270768,2,0,B|128:96|128:40,1,90,8|0,0:0|0:0,0:0:0:0:
40,40,271038,1,0,0:0:0:0:
24,72,271106,1,0,0:0:0:0:
16,104,271173,1,0,0:0:0:0:
24,136,271241,1,0,0:0:0:0:
40,168,271308,2,0,B|64:208,3,45,8|0|8|0,0:0|0:0|0:0|0:0,0:0:0:0:
96,240,271579,6,0,B|128:272|176:280,1,90
416,240,271849,2,0,B|384:272|336:280,1,90,8|0,0:0|0:0,0:0:0:0:
64,328,272119,6,0,B|104:352|152:368,1,90
448,328,272389,2,0,B|408:352|360:368,1,90,8|0,0:0|0:0,0:0:0:0:
256,360,272660,5,0,0:0:0:0:
256,272,272795,1,0,0:0:0:0:
256,248,272862,1,0,0:0:0:0:
256,224,272930,1,8,0:0:0:0:
256,200,272998,1,0,0:0:0:0:
256,176,273065,1,0,0:0:0:0:
256,88,273200,2,0,B|256:32,2,45
336,128,273471,2,0,B|336:80,2,45,8|0|0,0:0|0:0|0:0,0:0:0:0:
384,208,273741,6,0,B|424:176|424:128,1,90
128,208,274011,2,0,B|88:176|88:128,1,90,8|0,0:0|0:0,0:0:0:0:
176,136,274281,1,0,0:0:0:0:
184,296,274416,1,0,0:0:0:0:
256,152,274552,1,8,0:0:0:0:
328,296,274687,1,0,0:0:0:0:
336,136,274822,5,0,0:0:0:0:
336,136,274889,1,0,0:0:0:0:
336,136,274957,1,0,0:0:0:0:
296,56,275092,2,0,B|256:32|208:40,1,90,8|0,0:0|0:0,0:0:0:0:
120,64,275362,1,8,0:0:0:0:
48,176,275498,1,8,0:0:0:0:
184,192,275633,1,8,0:0:0:0:
120,312,275768,1,8,0:0:0:0:
256,312,275903,6,0,B|336:352,1,90,4|0,0:0|0:0,0:0:0:0:
424,352,276174,2,0,B|464:312|424:272,1,90,8|0,0:0|0:0,0:0:0:0:
344,240,276444,2,0,B|304:216,2,45
424,200,276714,2,0,B|464:176,2,45,8|0|0,0:0|0:0|0:0,0:0:0:0:
352,144,276984,6,0,B|336:96,2,45
432,104,277255,2,0,B|432:56|392:24,1,90,8|0,0:0|0:0,0:0:0:0:
304,24,277525,1,0,0:0:0:0:
264,40,277592,1,0,0:0:0:0:
216,32,277660,1,0,0:0:0:0:
176,48,277728,1,0,0:0:0:0:
136,40,277795,2,0,B|40:40,1,90,8|8,0:0|0:0,0:0:0:0:
88,120,278065,6,0,B|48:152,2,45
176,120,278336,2,0,B|216:152,2,45,8|0|0,0:0|0:0|0:0,0:0:0:0:
128,200,278606,2,0,B|128:304,1,90
168,312,278809,1,0,0:0:0:0:
208,336,278876,2,0,B|256:344|304:336,1,90,8|0,0:0|0:0,0:0:0:0:
256,256,279147,6,0,B|256:200,2,45
344,264,279417,2,0,B|384:288|384:344,1,90,8|0,0:0|0:0,0:0:0:0:
472,344,279687,1,0,0:0:0:0:
488,312,279755,1,0,0:0:0:0:
496,280,279822,1,0,0:0:0:0:
488,248,279890,1,0,0:0:0:0:
472,216,279957,2,0,B|448:176,3,45,8|0|8|0,0:0|0:0|0:0|0:0,0:0:0:0:
416,144,280228,6,0,B|384:112|336:104,1,90
96,144,280498,2,0,B|128:112|176:104,1,90,8|0,0:0|0:0,0:0:0:0:
448,56,280768,6,0,B|408:32|360:16,1,90
64,56,281038,2,0,B|104:32|152:16,1,90,8|0,0:0|0:0,0:0:0:0:
256,24,281309,5,0,0:0:0:0:
256,112,281444,1,0,0:0:0:0:
256,136,281511,1,0,0:0:0:0:
256,160,281579,1,8,0:0:0:0:
256,184,281647,1,0,0:0:0:0:
256,208,281714,1,0,0:0:0:0:
256,296,281849,2,0,B|256:352,2,45
176,256,282120,2,0,B|176:304,2,45,8|0|0,0:0|0:0|0:0,0:0:0:0:
128,176,282390,6,0,B|88:208|88:256,1,90
384,176,282660,2,0,B|424:208|424:256,1,90,8|0,0:0|0:0,0:0:0:0:
336,248,282930,1,0,0:0:0:0:
328,88,283065,1,0,0:0:0:0:
256,232,283201,1,8,0:0:0:0:
184,88,283336,1,0,0:0:0:0:
176,248,283471,5,0,0:0:0:0:
176,248,283538,1,0,0:0:0:0:
176,248,283606,1,0,0:0:0:0:
216,328,283741,2,0,B|256:352|304:344,1,90,8|0,0:0|0:0,0:0:0:0:
392,320,284011,1,0,0:0:0:0:
416,312,284079,1,0,0:0:0:0:
440,296,284147,1,0,0:0:0:0:
456,272,284214,1,0,0:0:0:0:
464,248,284282,2,0,B|464:192,3,45,8|0|8|0,0:0|0:0|0:0|0:0,0:0:0:0:
464,160,284552,1,4,0:0:0:0:
160,48,293200,6,0,B|112:40|64:48,1,90,4|0,0:0|0:0,0:0:0:0:
112,128,293471,2,0,B|112:216,1,90,8|0,0:0|0:0,0:0:0:0:
160,296,293741,2,0,B|128:328,2,45
248,320,294011,1,8,0:0:0:0:
256,320,294079,1,0,0:0:0:0:
264,320,294146,1,0,0:0:0:0:
272,320,294214,1,0,0:0:0:0:
280,320,294281,6,0,B|328:312|344:264,1,90
256,232,294552,2,0,B|216:192,2,45,8|0|0,0:0|0:0|0:0,0:0:0:0:
320,168,294822,2,0,B|288:136,4,45,0|0|0|0|8,0:0|0:0|0:0|0:0|0:0,0:0:0:0:
408,192,295227,1,0,0:0:0:0:
432,280,295362,5,0,0:0:0:0:
472,264,295430,2,0,B|504:224|496:168,1,90
488,136,295633,2,0,B|448:96|400:96,1,90,8|0,0:0|0:0,0:0:0:0:
328,56,295903,1,0,0:0:0:0:
304,48,295971,1,0,0:0:0:0:
280,40,296038,1,0,0:0:0:0:
192,40,296173,2,0,B|144:40|112:88,1,90,8|0,0:0|0:0,0:0:0:0:
192,128,296443,6,0,B|232:160,2,45
112,168,296714,2,0,B|72:192,2,45,8|0|0,0:0|0:0|0:0,0:0:0:0:
176,232,296984,1,0,0:0:0:0:
152,240,297052,1,0,0:0:0:0:
128,256,297119,1,0,0:0:0:0:
112,272,297187,1,0,0:0:0:0:
96,296,297254,2,0,B|96:344,3,45,8|0|8|0,0:0|0:0|0:0|0:0,0:0:0:0:
144,344,297525,5,0,0:0:0:0:
176,232,297660,1,0,0:0:0:0:
288,264,297795,1,8,0:0:0:0:
256,376,297930,1,0,0:0:0:0:
144,344,298065,5,0,0:0:0:0:
232,232,298200,1,0,0:0:0:0:
152,112,298335,1,8,0:0:0:0:
56,224,298470,1,0,0:0:0:0:
112,360,298606,6,0,B|56:360,2,45
176,296,298876,2,0,B|168:232,2,45,8|0|0,0:0|0:0|0:0,0:0:0:0:
256,248,299146,2,0,B|256:200,2,45
336,296,299416,2,0,B|344:248,2,45,8|0|0,0:0|0:0|0:0,0:0:0:0:
400,360,299687,5,0,0:0:0:0:
464,296,299822,1,0,0:0:0:0:
464,200,299957,1,8,0:0:0:0:
400,112,300092,1,0,0:0:0:0:
288,72,300227,5,8,0:0:0:0:
160,96,300362,1,0,0:0:0:0:
72,200,300498,1,8,0:0:0:0:
104,336,300633,1,0,0:0:0:0:
256,352,300768,5,0,0:0:0:0:
256,328,300835,1,0,0:0:0:0:
256,304,300903,1,0,0:0:0:0:
256,280,300971,1,0,0:0:0:0:
256,256,301038,2,0,B|256:192,3,45,8|0|0|0,0:0|0:0|0:0|0:0,0:0:0:0:
256,184,301308,1,0,0:0:0:0:
256,160,301376,1,0,0:0:0:0:
256,136,301443,1,0,0:0:0:0:
256,112,301511,1,0,0:0:0:0:
256,88,301579,2,0,B|256:32,3,45,8|0|8|0,0:0|0:0|0:0|0:0,0:0:0:0:
256,16,301849,1,4,0:0:0:0:
256,368,302930,5,8,0:0:0:0:
432,192,304011,5,8,0:0:0:0:
80,192,305092,5,8,0:0:0:0:
80,192,305633,1,8,0:0:0:0:
80,192,306173,6,0,B|176:192,2,90,8|0|8,0:0|0:0|0:0,0:0:0:0:
128,112,306579,1,0,0:0:0:0:
144,24,306714,2,0,B|80:16|40:64|40:112,2,135,8|8|8,0:0|0:0|0:0,0:0:0:0:
208,88,307254,5,8,0:0:0:0:
272,24,307389,1,0,0:0:0:0:
288,112,307525,1,8,0:0:0:0:
368,72,307660,1,0,0:0:0:0:
360,160,307795,2,0,B|432:160|480:224,2,135,8|8|8,0:0|0:0|0:0,0:0:0:0:
280,200,308335,6,0,B|272:256,2,45,8|0|0,0:0|0:0|0:0,0:0:0:0:
360,240,308606,2,0,B|352:296,2,45,8|0|0,0:0|0:0|0:0,0:0:0:0:
440,280,308876,1,0,0:0:0:0:
400,360,309011,1,0,0:0:0:0:
400,360,309079,1,8,0:0:0:0:
312,352,309214,1,0,0:0:0:0:
312,352,309281,1,8,0:0:0:0:
256,192,309416,12,0,310227,0:0:0:0:
256,192,310498,5,4,0:0:0:0:
456,208,319146,5,4,0:0:0:0:
424,128,319281,1,0,0:0:0:0:
368,200,319416,1,8,0:0:0:0:
296,144,319552,1,0,0:0:0:0:
288,232,319687,1,8,0:0:0:0:
200,208,319822,1,0,0:0:0:0:
200,208,319889,1,8,0:0:0:0:
224,296,320025,1,0,0:0:0:0:
224,296,320092,1,8,0:0:0:0:
136,296,320227,6,0,B|40:296,1,90
40,272,320430,1,0,0:0:0:0:
32,248,320498,2,0,B|24:200|32:152,1,90,8|0,0:0|0:0,0:0:0:0:
112,200,320768,2,0,B|120:136|112:64,1,135,8|8,0:0|0:0,0:0:0:0:
152,48,321038,2,0,B|240:48,1,90,0|8,0:0|0:0,0:0:0:0:
328,48,321308,6,0,B|376:48,2,45
288,128,321579,2,0,B|240:128,2,45,8|0|0,0:0|0:0|0:0,0:0:0:0:
376,128,321849,1,8,0:0:0:0:
464,128,321984,1,0,0:0:0:0:
464,152,322052,2,0,B|464:240,1,90,8|0,0:0|0:0,0:0:0:0:
464,272,322254,1,8,0:0:0:0:
376,272,322389,5,0,0:0:0:0:
288,352,322525,1,0,0:0:0:0:
216,256,322660,1,8,0:0:0:0:
304,184,322795,1,0,0:0:0:0:
376,272,322930,5,8,0:0:0:0:
248,312,323065,1,0,0:0:0:0:
176,200,323200,1,8,0:0:0:0:
48,240,323335,1,0,0:0:0:0:
0,112,323471,6,0,B|48:32,1,90
72,32,323673,1,0,0:0:0:0:
96,32,323741,2,0,B|192:32,1,90,8|0,0:0|0:0,0:0:0:0:
272,32,324011,2,0,B|360:32,1,90,8|0,0:0|0:0,0:0:0:0:
408,32,324214,1,8,0:0:0:0:
480,88,324349,2,0,B|480:144,1,45,0|8,0:0|0:0,0:0:0:0:
480,224,324552,6,0,B|480:320,2,90,0|0|8,0:0|0:0|0:0,0:0:0:0:
408,176,324957,1,0,0:0:0:0:
408,176,325025,1,0,0:0:0:0:
408,176,325092,2,0,B|408:128|368:88|304:96,2,135,8|8|8,0:0|0:0|0:0,0:0:0:0:
320,184,325633,6,0,B|304:224,3,45,0|0|0|0,0:0|0:0|0:0|0:0,0:0:0:0:
352,224,325903,2,0,B|344:280,3,45,8|0|0|0,0:0|0:0|0:0|0:0,0:0:0:0:
392,256,326173,1,8,0:0:0:0:
376,344,326308,1,0,0:0:0:0:
376,344,326376,1,8,0:0:0:0:
288,336,326511,1,0,0:0:0:0:
288,336,326579,1,8,0:0:0:0:
256,192,326714,12,0,327525,0:0:0:0:
56,176,327795,5,4,0:0:0:0:
88,256,327930,1,0,0:0:0:0:
144,184,328065,1,8,0:0:0:0:
216,240,328201,1,0,0:0:0:0:
224,152,328336,1,8,0:0:0:0:
312,176,328471,1,0,0:0:0:0:
312,176,328538,1,8,0:0:0:0:
288,88,328674,1,0,0:0:0:0:
288,88,328741,1,8,0:0:0:0:
376,88,328876,6,0,B|472:88,1,90
472,112,329079,1,0,0:0:0:0:
480,136,329147,2,0,B|488:184|480:232,1,90,8|0,0:0|0:0,0:0:0:0:
400,184,329417,2,0,B|392:248|400:320,1,135,8|8,0:0|0:0,0:0:0:0:
360,336,329687,2,0,B|272:336,1,90,0|8,0:0|0:0,0:0:0:0:
184,336,329957,6,0,B|136:336,2,45
224,256,330228,2,0,B|272:256,2,45,8|0|0,0:0|0:0|0:0,0:0:0:0:
136,256,330498,1,8,0:0:0:0:
48,256,330633,1,0,0:0:0:0:
48,232,330701,2,0,B|48:144,1,90,8|0,0:0|0:0,0:0:0:0:
48,112,330903,1,8,0:0:0:0:
136,112,331038,5,0,0:0:0:0:
224,32,331174,1,0,0:0:0:0:
296,128,331309,1,8,0:0:0:0:
208,200,331444,1,0,0:0:0:0:
136,112,331579,5,8,0:0:0:0:
264,72,331714,1,0,0:0:0:0:
336,184,331849,1,8,0:0:0:0:
464,144,331984,1,0,0:0:0:0:
512,272,332120,6,0,B|464:352,1,90
440,352,332322,1,0,0:0:0:0:
416,352,332390,2,0,B|320:352,1,90,8|0,0:0|0:0,0:0:0:0:
240,352,332660,2,0,B|152:352,1,90,8|0,0:0|0:0,0:0:0:0:
104,352,332863,1,8,0:0:0:0:
32,296,332998,2,0,B|32:240,1,45,0|8,0:0|0:0,0:0:0:0:
32,160,333201,6,0,B|32:64,2,90,0|0|8,0:0|0:0|0:0,0:0:0:0:
104,208,333606,1,0,0:0:0:0:
104,208,333674,1,0,0:0:0:0:
104,208,333741,2,0,B|104:256|144:296|208:288,2,135,8|8|8,0:0|0:0|0:0,0:0:0:0:
192,200,334282,6,0,B|208:160,3,45
160,160,334552,2,0,B|168:104,3,45,8|0|0|0,0:0|0:0|0:0|0:0,0:0:0:0:
120,128,334822,1,0,0:0:0:0:
136,40,334957,1,0,0:0:0:0:
136,40,335025,1,8,0:0:0:0:
224,48,335160,1,0,0:0:0:0:
224,48,335228,1,8,0:0:0:0:
312,56,335362,6,0,B|400:64,1,90
440,144,335633,2,0,B|352:136,1,90,8|0,0:0|0:0,0:0:0:0:
304,128,335835,1,8,0:0:0:0:
296,216,335971,1,0,0:0:0:0:
296,216,336038,1,8,0:0:0:0:
384,224,336173,1,0,0:0:0:0:
384,224,336241,1,8,0:0:0:0:
472,232,336376,1,0,0:0:0:0:
472,232,336443,1,12,0:0:0:0:
256,72,345092,6,0,B|336:32,1,90,4|0,0:0|0:0,0:0:0:0:
424,32,345363,2,0,B|464:72|424:112,1,90,8|0,0:0|0:0,0:0:0:0:
344,144,345633,2,0,B|304:168,2,45
424,184,345903,2,0,B|464:208,2,45,8|0|0,0:0|0:0|0:0,0:0:0:0:
352,240,346173,6,0,B|336:288,2,45
432,280,346444,2,0,B|432:328|392:360,1,90,8|0,0:0|0:0,0:0:0:0:
304,360,346714,1,0,0:0:0:0:
264,344,346781,1,0,0:0:0:0:
216,352,346849,1,0,0:0:0:0:
176,336,346917,1,0,0:0:0:0:
136,344,346984,2,0,B|40:344,1,90,8|8,0:0|0:0,0:0:0:0:
88,264,347254,6,0,B|48:232,2,45
176,264,347525,2,0,B|216:232,2,45,8|0|0,0:0|0:0|0:0,0:0:0:0:
128,184,347795,2,0,B|128:80,1,90
168,72,347998,1,0,0:0:0:0:
208,48,348065,2,0,B|256:40|304:48,1,90,8|0,0:0|0:0,0:0:0:0:
256,128,348336,6,0,B|256:184,2,45
344,120,348606,2,0,B|384:96|384:40,1,90,8|0,0:0|0:0,0:0:0:0:
472,40,348876,1,0,0:0:0:0:
488,72,348944,1,0,0:0:0:0:
496,104,349011,1,0,0:0:0:0:
488,136,349079,1,0,0:0:0:0:
472,168,349146,2,0,B|448:208,3,45,8|0|8|0,0:0|0:0|0:0|0:0,0:0:0:0:
416,240,349417,6,0,B|384:272|336:280,1,90
96,240,349687,2,0,B|128:272|176:280,1,90,8|0,0:0|0:0,0:0:0:0:
448,328,349957,6,0,B|408:352|360:368,1,90
64,328,350227,2,0,B|104:352|152:368,1,90,8|0,0:0|0:0,0:0:0:0:
256,360,350498,5,0,0:0:0:0:
256,272,350633,1,0,0:0:0:0:
256,248,350700,1,0,0:0:0:0:
256,224,350768,1,8,0:0:0:0:
256,200,350836,1,0,0:0:0:0:
256,176,350903,1,0,0:0:0:0:
256,88,351038,2,0,B|256:32,2,45
176,128,351309,2,0,B|176:80,2,45,8|0|0,0:0|0:0|0:0,0:0:0:0:
128,208,351579,6,0,B|88:176|88:128,1,90
384,208,351849,2,0,B|424:176|424:128,1,90,8|0,0:0|0:0,0:0:0:0:
336,136,352119,1,0,0:0:0:0:
328,296,352254,1,0,0:0:0:0:
256,152,352390,1,8,0:0:0:0:
184,296,352525,1,0,0:0:0:0:
176,136,352660,5,0,0:0:0:0:
176,136,352727,1,0,0:0:0:0:
176,136,352795,1,0,0:0:0:0:
216,56,352930,2,0,B|256:32|304:40,1,90,8|0,0:0|0:0,0:0:0:0:
392,64,353200,1,8,0:0:0:0:
464,176,353336,1,8,0:0:0:0:
328,192,353471,1,8,0:0:0:0:
392,312,353606,1,8,0:0:0:0:
256,312,353741,6,0,B|176:352,1,90,4|0,0:0|0:0,0:0:0:0:
88,352,354012,2,0,B|48:312|88:272,1,90,8|0,0:0|0:0,0:0:0:0:
168,240,354282,2,0,B|208:216,2,45
88,200,354552,2,0,B|48:176,2,45,8|0|0,0:0|0:0|0:0,0:0:0:0:
160,144,354822,6,0,B|176:96,2,45
80,104,355093,2,0,B|80:56|120:24,1,90,8|0,0:0|0:0,0:0:0:0:
208,24,355363,1,0,0:0:0:0:
248,40,355430,1,0,0:0:0:0:
296,32,355498,1,0,0:0:0:0:
336,48,355566,1,0,0:0:0:0:
376,40,355633,2,0,B|472:40,1,90,8|8,0:0|0:0,0:0:0:0:
424,120,355903,6,0,B|464:152,2,45
336,120,356174,2,0,B|296:152,2,45,8|0|0,0:0|0:0|0:0,0:0:0:0:
384,200,356444,2,0,B|384:304,1,90
344,312,356647,1,0,0:0:0:0:
304,336,356714,2,0,B|256:344|208:336,1,90,8|0,0:0|0:0,0:0:0:0:
256,256,356985,6,0,B|256:200,2,45
168,264,357255,2,0,B|128:288|128:344,1,90,8|0,0:0|0:0,0:0:0:0:
40,344,357525,1,0,0:0:0:0:
24,312,357593,1,0,0:0:0:0:
16,280,357660,1,0,0:0:0:0:
24,248,357728,1,0,0:0:0:0:
40,216,357795,2,0,B|64:176,3,45,8|0|8|0,0:0|0:0|0:0|0:0,0:0:0:0:
96,144,358066,6,0,B|128:112|176:104,1,90
416,144,358336,2,0,B|384:112|336:104,1,90,8|0,0:0|0:0,0:0:0:0:
64,56,358606,6,0,B|104:32|152:16,1,90
448,56,358876,2,0,B|408:32|360:16,1,90,8|0,0:0|0:0,0:0:0:0:
256,24,359147,5,0,0:0:0:0:
256,112,359282,1,0,0:0:0:0:
256,136,359349,1,0,0:0:0:0:
256,160,359417,1,8,0:0:0:0:
256,184,359485,1,0,0:0:0:0:
256,208,359552,1,0,0:0:0:0:
256,296,359687,2,0,B|256:352,2,45
336,256,359958,2,0,B|336:304,2,45,8|0|0,0:0|0:0|0:0,0:0:0:0:
384,176,360228,6,0,B|424:208|424:256,1,90
128,176,360498,2,0,B|88:208|88:256,1,90,8|0,0:0|0:0,0:0:0:0:
176,248,360768,1,0,0:0:0:0:
184,88,360903,1,0,0:0:0:0:
256,232,361039,1,8,0:0:0:0:
328,88,361174,1,0,0:0:0:0:
336,248,361309,5,0,0:0:0:0:
336,248,361376,1,0,0:0:0:0:
336,248,361444,1,0,0:0:0:0:
296,328,361579,2,0,B|256:352|208:344,1,90,8|0,0:0|0:0,0:0:0:0:
120,320,361849,1,0,0:0:0:0:
96,312,361917,1,0,0:0:0:0:
72,296,361985,1,0,0:0:0:0:
56,272,362052,1,0,0:0:0:0:
48,248,362120,2,0,B|48:192,3,45,8|0|8|0,0:0|0:0|0:0|0:0,0:0:0:0:
48,160,362389,6,0,B|48:64,1,90
136,40,362660,2,0,B|136:128,1,90,8|0,0:0|0:0,0:0:0:0:
224,160,362930,1,0,0:0:0:0:
224,136,362998,1,0,0:0:0:0:
224,112,363065,1,0,0:0:0:0:
304,80,363200,1,8,0:0:0:0:
320,56,363268,1,0,0:0:0:0:
344,40,363335,1,0,0:0:0:0:
392,120,363471,6,0,B|416:104|424:80,2,45
320,168,363741,2,0,B|352:208|400:208,1,90,8|0,0:0|0:0,0:0:0:0:
480,168,364011,2,0,B|496:216|472:256,1,90
392,296,364281,2,0,B|368:312,7,22.5,8|0|0|0|0|0|0|0,0:0|0:0|0:0|0:0|0:0|0:0|0:0|0:0,0:0:0:0:
352,320,364552,6,0,B|312:344|264:344,1,90
176,344,364822,1,8,0:0:0:0:
88,320,364957,1,0,0:0:0:0:
48,240,365092,2,0,B|48:192,2,45
136,240,365362,2,0,B|184:240,2,45,8|0|0,0:0|0:0|0:0,0:0:0:0:
136,152,365633,6,0,B|112:112|64:104,1,90
128,40,365903,2,0,B|216:40,1,90,8|0,0:0|0:0,0:0:0:0:
224,128,366173,6,0,B|224:152,4,22.5
312,128,366443,2,0,B|312:88,7,22.5,8|0|0|0|0|0|0|0,0:0|0:0|0:0|0:0|0:0|0:0|0:0|0:0,0:0:0:0:
312,80,366714,5,0,0:0:0:0:
400,56,366849,1,0,0:0:0:0:
488,80,366984,2,0,B|472:128|416:144,1,90,8|0,0:0|0:0,0:0:0:0:
360,208,367254,5,0,0:0:0:0:
448,216,367389,1,0,0:0:0:0:
472,304,367525,1,8,0:0:0:0:
384,296,367660,1,0,0:0:0:0:
296,288,367795,6,0,B|288:336,2,45
208,304,368065,2,0,B|200:360,2,45,8|0|0,0:0|0:0|0:0,0:0:0:0:
120,320,368335,5,0,0:0:0:0:
120,320,368471,1,0,0:0:0:0:
32,304,368606,2,0,B|32:280,7,22.5,8|0|0|0|0|0|0|0,0:0|0:0|0:0|0:0|0:0|0:0|0:0|0:0,0:0:0:0:
32,256,368876,6,0,B|32:160,2,90,0|0|8,0:0|0:0|0:0,0:0:0:0:
120,232,369281,1,0,0:0:0:0:
120,232,369349,1,0,0:0:0:0:
120,232,369416,2,0,B|120:136,1,90
128,120,369619,1,0,0:0:0:0:
136,96,369687,2,0,B|184:88|232:96,1,90,8|0,0:0|0:0,0:0:0:0:
200,184,369957,5,0,0:0:0:0:
312,200,370092,1,0,0:0:0:0:
208,264,370227,5,8,0:0:0:0:
304,120,370362,1,0,0:0:0:0:
120,232,370498,5,8,0:0:0:0:
392,152,370633,1,0,0:0:0:0:
136,320,370767,5,8,0:0:0:0:
136,320,370835,1,0,0:0:0:0:
136,320,370902,1,0,0:0:0:0:
48,296,371038,6,0,B|16:256|32:208,1,90
88,144,371308,1,8,0:0:0:0:
88,144,371443,1,0,0:0:0:0:
32,72,371578,1,0,0:0:0:0:
56,56,371646,1,0,0:0:0:0:
80,56,371713,1,0,0:0:0:0:
104,40,371781,1,0,0:0:0:0:
128,40,371849,2,0,B|224:40,1,90,8|0,0:0|0:0,0:0:0:0:
304,40,372119,5,0,0:0:0:0:
312,64,372187,1,0,0:0:0:0:
336,80,372254,1,0,0:0:0:0:
416,40,372389,5,8,0:0:0:0:
440,56,372457,1,0,0:0:0:0:
448,80,372525,1,0,0:0:0:0:
392,152,372660,2,0,B|400:240,1,90
472,192,372930,2,0,B|480:288,1,90,8|0,0:0|0:0,0:0:0:0:
400,328,373200,6,0,B|360:344,3,45
320,320,373471,2,0,B|280:336,3,45,8|0|0|0,0:0|0:0|0:0|0:0,0:0:0:0:
248,304,373741,2,0,B|160:328,1,90
72,344,374011,1,8,0:0:0:0:
48,256,374146,1,0,0:0:0:0:
136,232,374281,5,0,0:0:0:0:
136,232,374349,1,0,0:0:0:0:
136,232,374416,1,0,0:0:0:0:
112,144,374552,1,8,0:0:0:0:
112,144,374619,1,0,0:0:0:0:
112,144,374687,1,0,0:0:0:0:
24,168,374822,6,0,B|0:176,4,22.5
56,80,375092,2,0,B|80:72,7,22.5,8|0|0|0|0|0|0|0,0:0|0:0|0:0|0:0|0:0|0:0|0:0|0:0,0:0:0:0:
96,64,375362,5,0,0:0:0:0:
184,80,375498,1,0,0:0:0:0:
264,40,375633,1,8,0:0:0:0:
352,56,375768,1,0,0:0:0:0:
432,16,375903,2,0,B|472:32,2,45
424,104,376173,2,0,B|472:120,2,45,8|0|0,0:0|0:0|0:0,0:0:0:0:
344,144,376443,5,0,0:0:0:0:
320,136,376511,1,0,0:0:0:0:
296,128,376579,1,0,0:0:0:0:
272,136,376646,1,0,0:0:0:0:
248,144,376714,1,8,0:0:0:0:
296,224,376849,2,0,B|296:272,2,45
208,232,377119,1,0,0:0:0:0:
160,152,377254,2,0,B|128:152,7,22.5,8|0|0|0|0|0|0|0,0:0|0:0|0:0|0:0|0:0|0:0|0:0|0:0,0:0:0:0:
112,152,377525,6,0,B|64:160|40:208,1,90
40,296,377795,2,0,B|61:339|109:347,1,90,8|0,0:0|0:0,0:0:0:0:
128,256,378065,1,0,0:0:0:0:
192,320,378200,1,0,0:0:0:0:
280,304,378335,1,8,0:0:0:0:
352,352,378471,1,0,0:0:0:0:
440,336,378606,6,0,B|464:296,3,45
440,232,378876,2,0,B|464:192,3,45,8|0|0|0,0:0|0:0|0:0|0:0,0:0:0:0:
440,128,379146,2,0,B|464:88,3,45
440,24,379416,1,8,0:0:0:0:
344,128,379552,1,8,0:0:0:0:
200,96,379687,5,0,0:0:0:0:
200,96,379822,1,0,0:0:0:0:
256,48,384112,6,0,B|216:48,15,22.5
208,48,384573,6,0,B|120:48,1,90,4|0,0:0|0:0,0:0:0:0:
80,128,384804,1,8,0:0:0:0:
80,128,384862,1,0,0:0:0:0:
80,128,384919,1,0,0:0:0:0:
168,128,385035,2,0,B|216:128,2,45
120,208,385265,2,0,B|176:208,2,45,8|0|0,0:0|0:0|0:0,0:0:0:0:
32,208,385496,5,0,0:0:0:0:
40,240,385554,1,0,0:0:0:0:
56,264,385612,1,0,0:0:0:0:
80,280,385669,1,0,0:0:0:0:
112,288,385727,1,8,0:0:0:0:
200,288,385842,2,0,B|200:336,2,45
248,208,386073,2,0,B|248:152,2,45,0|0|8,0:0|0:0|0:0,0:0:0:0:
296,288,386304,1,8,0:0:0:0:
296,288,386362,1,0,0:0:0:0:
296,288,386419,6,0,B|328:328|376:312,1,90
352,224,386643,2,0,B|368:136,1,90,8|0,0:0|0:0,0:0:0:0:
432,72,386868,2,0,B|400:32|352:48,1,90,0|0,0:0|0:0,0:0:0:0:
280,104,387093,2,0,B|216:40,1,90,8|0,0:0|0:0,0:0:0:0:
128,40,387317,5,0,0:0:0:0:
40,40,387430,2,8,B|8:72,2,45
80,120,387654,1,8,0:0:0:0:
168,120,387767,2,0,B|168:176|128:200,1,90,0|8,0:0|0:0,0:0:0:0:
40,200,387992,1,0,0:0:0:0:
48,232,388048,1,0,0:0:0:0:
64,256,388104,1,8,0:0:0:0:
88,272,388160,1,0,0:0:0:0:
120,280,388216,6,0,B|208:280,1,90
256,288,388385,1,0,0:0:0:0:
296,296,388441,2,0,B|384:296,1,90,8|0,0:0|0:0,0:0:0:0:
480,296,388666,6,0,B|480:208,1,90
464,168,388834,1,0,0:0:0:0:
448,128,388890,2,0,B|432:88,2,45,8|0|0,0:0|0:0|0:0,0:0:0:0:
368,168,389115,5,0,0:0:0:0:
320,40,389227,1,0,0:0:0:0:
216,128,389340,1,8,0:0:0:0:
160,8,389452,1,0,0:0:0:0:
64,104,389565,6,0,B|40:128|40:160|64:184,1,90
152,192,389789,2,0,B|176:216|176:248|152:272,1,90,8|8,0:0|0:0,0:0:0:0:
64,280,390014,5,0,0:0:0:0:
120,352,390126,1,0,0:0:0:0:
120,352,390183,1,0,0:0:0:0:
120,352,390239,2,0,B|216:352,1,90,8|0,0:0|0:0,0:0:0:0:
256,272,390463,1,0,0:0:0:0:
304,352,390576,1,0,0:0:0:0:
304,352,390632,1,0,0:0:0:0:
304,352,390688,2,0,B|392:352,1,90,8|0,0:0|0:0,0:0:0:0:
456,280,390913,6,0,B|472:240,3,45
472,192,391138,2,0,B|456:152,3,45,8|0|0|0,0:0|0:0|0:0|0:0,0:0:0:0:
432,112,391362,1,0,0:0:0:0:
328,32,391475,1,0,0:0:0:0:
200,72,391587,1,8,0:0:0:0:
200,72,391812,6,0,B|200:160,1,90,6|0,0:0|0:0,0:0:0:0:
120,200,392042,2,0,B|120:104,1,90,8|0,0:0|0:0,0:0:0:0:
40,72,392273,2,0,B|40:160,1,90
40,208,392446,1,0,0:0:0:0:
48,248,392504,2,0,B|72:288|128:288,1,90,8|0,0:0|0:0,0:0:0:0:
200,240,392735,6,0,B|200:192,4,45,0|0|0|0|8,0:0|0:0|0:0|0:0|0:0,0:0:0:0:
200,328,393081,1,0,0:0:0:0:
200,328,393138,1,0,0:0:0:0:
200,328,393196,2,0,B|288:328,1,90
336,256,393427,2,0,B|384:280|384:336,1,90,8|8,0:0|0:0,0:0:0:0:
472,328,393658,6,0,B|504:360,2,45
448,240,393888,2,0,B|416:184|360:152|296:160,1,180,8|0,0:0|0:0,0:0:0:0:
208,160,394235,2,0,B|152:160,2,45,0|0|8,0:0|0:0|0:0,0:0:0:0:
256,80,394465,1,0,0:0:0:0:
256,80,394581,5,0,0:0:0:0:
168,80,394696,1,8,0:0:0:0:
136,80,394754,1,8,0:0:0:0:
104,80,394812,1,8,0:0:0:0:
16,80,394927,1,8,0:0:0:0:
56,160,395042,2,0,B|32:224|56:296,1,135
72,320,395273,1,8,0:0:0:0:
96,336,395331,1,0,0:0:0:0:
128,344,395388,1,8,0:0:0:0:
160,344,395446,1,0,0:0:0:0:
192,344,395504,6,0,B|288:344,1,90
376,344,395728,2,0,B|424:344|448:296,1,90,8|0,0:0|0:0,0:0:0:0:
376,248,395953,2,0,B|280:248,1,90
240,248,396121,1,0,0:0:0:0:
192,248,396178,2,0,B|144:248,2,45,8|0|0,0:0|0:0|0:0,0:0:0:0:
216,160,396402,6,0,B|192:136|192:104|216:80,1,90
296,120,396627,1,8,0:0:0:0:
296,120,396739,1,0,0:0:0:0:
376,160,396852,2,0,B|424:160,2,45
376,72,397077,1,8,0:0:0:0:
376,72,397133,1,0,0:0:0:0:
376,72,397189,1,8,0:0:0:0:
296,32,397301,5,0,0:0:0:0:
216,72,397414,1,0,0:0:0:0:
216,72,397470,1,0,0:0:0:0:
216,72,397526,1,8,0:0:0:0:
136,32,397638,1,0,0:0:0:0:
56,72,397751,6,0,B|40:112,3,45,2|0|0|0,0:0|0:0|0:0|0:0,0:0:0:0:
40,160,397975,2,0,B|56:200,3,45,8|0|0|0,0:0|0:0|0:0|0:0,0:0:0:0:
72,232,398200,5,0,0:0:0:0:
88,256,398256,1,0,0:0:0:0:
112,280,398312,1,0,0:0:0:0:
144,296,398369,1,0,0:0:0:0:
176,304,398425,1,8,0:0:0:0:
208,304,398481,1,0,0:0:0:0:
240,296,398537,2,0,B|272:264,2,45
240,296,399099,6,0,B|240:320,8,22.5,2|0|0|0|0|0|0|0|0,0:0|0:0|0:0|0:0|0:0|0:0|0:0|0:0|0:0,0:0:0:0:
240,208,399445,2,0,B|264:208,4,22.5,2|0|0|0|0,0:0|0:0|0:0|0:0|0:0,0:0:0:0:
184,136,399675,2,0,B|200:120,4,22.5,2|0|0|0|2,0:0|0:0|0:0|0:0|0:0,0:0:0:0:
96,136,399906,1,0,0:0:0:0:
40,64,400022,6,0,B|40:40,8,22.5,2|0|0|0|0|0|0|0|0,0:0|0:0|0:0|0:0|0:0|0:0|0:0|0:0|0:0,0:0:0:0:
128,56,400368,2,0,B|128:32,4,22.5,2|0|0|0|0,0:0|0:0|0:0|0:0|0:0,0:0:0:0:
216,48,400599,2,0,B|216:24,4,22.5,2|0|0|0|2,0:0|0:0|0:0|0:0|0:0,0:0:0:0:
304,56,400829,1,0,0:0:0:0:
392,64,400945,6,0,B|408:48,8,22.5,2|0|0|0|0|0|0|0|0,0:0|0:0|0:0|0:0|0:0|0:0|0:0|0:0|0:0,0:0:0:0:
428,148,401291,2,0,B|452:148,4,22.5,2|0|0|0|0,0:0|0:0|0:0|0:0|0:0,0:0:0:0:
428,236,401522,2,0,B|452:236,4,22.5,2|0|0|0|2,0:0|0:0|0:0|0:0|0:0,0:0:0:0:
392,320,401752,1,0,0:0:0:0:
304,328,401868,6,0,B|304:352,8,22.5,2|0|0|0|0|0|0|0|0,0:0|0:0|0:0|0:0|0:0|0:0|0:0|0:0|0:0,0:0:0:0:
216,336,402214,2,0,B|216:358,4,22.5,2|0|0|0|2,0:0|0:0|0:0|0:0|0:0,0:0:0:0:
128,328,402445,2,0,B|128:350,4,22.5,2|0|0|0|2,0:0|0:0|0:0|0:0|0:0,0:0:0:0:
40,320,402675,1,0,0:0:0:0:
88,248,402791,6,0,B|136:256|168:216,2,90,2|0|0,0:0|0:0|0:0,0:0:0:0:
96,160,403128,2,0,B|64:72,1,90,2|0,0:0|0:0,0:0:0:0:
136,16,403352,1,2,0:0:0:0:
136,16,403465,2,0,B|168:112,1,90,2|0,0:0|0:0,0:0:0:0:
232,160,403689,6,0,B|336:184|400:104,1,180,2|0,0:0|0:0,0:0:0:0:
448,40,404026,2,0,B|374:98|398:201,1,180,2|2,0:0|0:0,0:0:0:0:
488,224,404364,1,2,0:0:0:0:
424,288,404476,1,0,0:0:0:0:
336,264,404588,6,0,B|272:232|200:264|200:344,1,180,2|0,0:0|0:0,0:0:0:0:
288,328,404925,2,0,B|288:261|216:229|152:261,1,180,2|2,0:0|0:0,0:0:0:0:
104,336,405262,2,0,B|64:304|64:256,1,90,2|0,0:0|0:0,0:0:0:0:
104,176,405487,5,2,0:0:0:0:
16,176,405599,1,0,0:0:0:0:
24,144,405656,1,0,0:0:0:0:
40,120,405712,1,2,0:0:0:0:
64,104,405768,1,0,0:0:0:0:
96,96,405824,1,0,0:0:0:0:
128,96,405880,1,0,0:0:0:0:
160,104,405937,1,2,0:0:0:0:
160,104,406386,6,0,B|248:152|336:72,1,180,2|0,0:0|0:0,0:0:0:0:
400,24,406728,2,0,B|304:64|328:176,1,180,2|2,0:0|0:0,0:0:0:0:
392,232,407070,1,2,0:0:0:0:
392,232,407298,5,2,0:0:0:0:
344,312,407412,1,0,0:0:0:0:
256,328,407526,1,0,0:0:0:0:
168,312,407640,2,0,B|120:304|96:352,2,90,2|0|2,0:0|0:0|0:0,0:0:0:0:
120,232,407982,1,2,0:0:0:0:
120,232,408211,6,0,B|16:232,2,90,2|0|0,0:0|0:0|0:0,0:0:0:0:
72,152,408553,2,0,B|0:80,2,90,2|0|2,0:0|0:0|0:0,0:0:0:0:
120,72,408895,2,0,B|120:24,2,45,2|0|0,0:0|0:0|0:0,0:0:0:0:
168,152,409123,6,0,B|264:136|304:40,1,180,2|0,0:0|0:0,0:0:0:0:
209,44,409465,2,0,B|248:136|344:152,1,180,2|2,0:0|0:0,0:0:0:0:
432,152,409808,1,0,0:0:0:0:
472,72,409922,1,2,0:0:0:0:
384,72,410036,6,0,B|384:288,1,180,2|0,0:0|0:0,0:0:0:0:
432,328,410378,2,0,B|480:304|480:248,2,90,2|0|2,0:0|0:0|0:0,0:0:0:0:
344,328,410720,2,0,B|256:328,1,90,2|0,0:0|0:0,0:0:0:0:
160,328,410948,6,0,B|160:280,2,45,2|0|0,0:0|0:0|0:0,0:0:0:0:
72,328,411176,1,0,0:0:0:0:
72,240,411290,2,0,B|24:240,2,45,2|0|0,0:0|0:0|0:0,0:0:0:0:
72,152,411519,1,2,0:0:0:0:
72,152,411633,1,2,0:0:0:0:
120,72,411747,1,0,0:0:0:0:
168,152,411861,6,0,B|264:136|304:40,1,180,2|0,0:0|0:0,0:0:0:0:
209,44,412203,2,0,B|248:136|344:152,1,180,2|2,0:0|0:0,0:0:0:0:
392,72,412545,1,2,0:0:0:0:
440,152,412659,1,0,0:0:0:0:
384,224,412773,6,0,B|384:280,3,45,2|0|0|0,0:0|0:0|0:0|0:0,0:0:0:0:
352,304,413001,2,0,B|320:336,3,45,0|0|2|0,0:0|0:0|0:0|0:0,0:0:0:0:
272,336,413230,2,0,B|240:336,14,22.5
480,128,415055,6,2,B|480:176,1,45
440,152,415169,2,2,B|432:200,1,45
392,168,415283,2,2,B|376:208,1,45
344,176,415397,2,2,B|320:216,1,45
296,176,415511,2,2,B|264:216,1,45
248,168,415625,2,2,B|216:200,1,45
208,152,415739,2,2,B|168:176,1,45
168,128,415853,2,2,B|120:136,1,45
136,96,415967,6,0,B|72:72|8:128|24:192,1,180,2|0,0:0|0:0,0:0:0:0:
23,190,416537,1,0,0:0:0:0:
23,190,416651,1,0,0:0:0:0:
376,288,416880,6,0,B|440:312|504:256|488:192,1,180,2|0,0:0|0:0,0:0:0:0:
488,193,417450,1,0,0:0:0:0:
488,193,417564,1,0,0:0:0:0:
400,40,417792,6,0,B|216:40,1,180,2|0,0:0|0:0,0:0:0:0:
128,40,418362,1,0,0:0:0:0:
40,40,418477,1,0,0:0:0:0:
112,344,418705,6,0,B|296:344,1,180,2|0,0:0|0:0,0:0:0:0:
384,344,419275,1,0,0:0:0:0:
472,344,419389,1,0,0:0:0:0:
376,192,419617,6,0,B|472:192,2,90,2|0|0,0:0|0:0|0:0,0:0:0:0:
296,240,420188,1,0,0:0:0:0:
296,152,420302,1,0,0:0:0:0:
136,192,420530,6,0,B|40:192,2,90,2|0|0,0:0|0:0|0:0,0:0:0:0:
216,240,421100,1,0,0:0:0:0:
216,152,421214,1,0,0:0:0:0:
256,328,421442,5,2,0:0:0:0:
256,328,421670,1,0,0:0:0:0:
216,152,421899,1,0,0:0:0:0:
296,152,422013,1,0,0:0:0:0:
256,72,422127,1,0,0:0:0:0:
80,72,422355,5,0,0:0:0:0:
168,72,422469,2,0,B|168:40,2,22.5,2|2|2,0:0|0:0|0:0,0:0:0:0:
120,152,422697,1,2,0:0:0:0:
32,152,422811,2,0,B|32:208,1,45,0|2,0:0|0:0,0:0:0:0:
112,240,423039,2,0,B|112:296,1,45,0|2,0:0|0:0,0:0:0:0:
32,320,423267,5,2,0:0:0:0:
32,320,423496,1,0,0:0:0:0:
192,248,423724,1,0,0:0:0:0:
256,312,423838,1,0,0:0:0:0:
320,248,423952,1,0,0:0:0:0:
480,64,424180,5,2,0:0:0:0:
480,64,424408,1,0,0:0:0:0:
320,136,424636,1,0,0:0:0:0:
256,72,424750,1,0,0:0:0:0:
192,136,424864,1,0,0:0:0:0:
192,136,425093,6,0,B|128:72,2,90,2|0|0,0:0|0:0|0:0,0:0:0:0:
120,192,425663,1,0,0:0:0:0:
48,136,425777,1,0,0:0:0:0:
320,136,426005,6,0,B|384:72,2,90,2|0|0,0:0|0:0|0:0,0:0:0:0:
392,192,426575,1,0,0:0:0:0:
464,136,426689,1,0,0:0:0:0:
464,320,426918,6,0,B|376:336|376:336|288:320,1,180,2|0,0:0|0:0,0:0:0:0:
312,232,427488,1,0,0:0:0:0:
392,192,427602,1,0,0:0:0:0:
48,320,427830,6,0,B|136:336|136:336|224:320,1,180,2|0,0:0|0:0,0:0:0:0:
200,232,428401,1,0,0:0:0:0:
120,192,428515,1,0,0:0:0:0:
256,72,428743,5,2,0:0:0:0:
256,72,428971,1,0,0:0:0:0:
256,72,429199,2,0,B|256:16,2,45
256,192,429655,12,0,430340,0:0:0:0:
152,48,430568,6,0,B|128:24|96:24|72:48,1,90,2|0,0:0|0:0,0:0:0:0:
72,136,430796,2,0,B|96:160|128:160|152:136,1,90,8|0,0:0|0:0,0:0:0:0:
224,88,431024,2,0,B|256:56,2,45
224,176,431252,2,0,B|272:176,2,45,8|0|0,0:0|0:0|0:0,0:0:0:0:
152,232,431480,6,0,B|128:256|96:256|72:232,1,90,2|0,0:0|0:0,0:0:0:0:
32,312,431708,1,8,0:0:0:0:
32,312,431823,1,0,0:0:0:0:
120,344,431937,1,0,0:0:0:0:
152,336,431994,1,0,0:0:0:0:
184,336,432051,1,0,0:0:0:0:
216,328,432108,1,0,0:0:0:0:
248,328,432165,2,0,B|336:328,1,90,8|0,0:0|0:0,0:0:0:0:
424,328,432393,6,0,B|480:328,2,45,2|0|0,0:0|0:0|0:0,0:0:0:0:
384,248,432621,2,0,B|336:248,2,45,8|0|0,0:0|0:0|0:0,0:0:0:0:
472,248,432849,2,0,B|472:152,1,90
472,72,433077,2,0,B|424:72|392:112,1,90,8|0,0:0|0:0,0:0:0:0:
320,160,433305,5,0,0:0:0:0:
208,88,433420,1,0,0:0:0:0:
256,216,433534,1,8,0:0:0:0:
304,88,433648,1,0,0:0:0:0:
192,160,433762,5,8,0:0:0:0:
256,328,433876,1,0,0:0:0:0:
320,160,433990,1,8,0:0:0:0:
168,256,434104,1,0,0:0:0:0:
344,256,434218,6,0,B|440:256,1,90,2|0,0:0|0:0,0:0:0:0:
456,216,434389,1,0,0:0:0:0:
472,176,434446,2,0,B|472:144|448:120|408:120,1,90,8|0,0:0|0:0,0:0:0:0:
328,88,434674,1,0,0:0:0:0:
296,80,434731,1,0,0:0:0:0:
272,64,434788,1,0,0:0:0:0:
240,56,434845,1,0,0:0:0:0:
208,48,434902,2,0,B|120:48,1,90,8|0,0:0|0:0,0:0:0:0:
72,128,435131,6,0,B|40:96,2,45,2|0|0,0:0|0:0|0:0,0:0:0:0:
72,216,435359,2,0,B|40:248,2,45,8|0|0,0:0|0:0|0:0,0:0:0:0:
144,168,435587,2,0,B|232:168,1,90
184,248,435815,2,0,B|120:312,1,90,8|0,0:0|0:0,0:0:0:0:
208,328,436043,6,0,B|264:328,3,45
296,328,436271,2,0,B|352:328,3,45,8|0|0|0,0:0|0:0|0:0|0:0,0:0:0:0:
384,328,436499,2,0,B|432:328,3,45
472,328,436728,2,0,B|520:328,3,45,8|0|0|0,0:0|0:0|0:0|0:0,0:0:0:0:
256,192,436956,12,8,437640,0:0:0:0:
360,336,437868,6,0,B|384:360|416:360|440:336,1,90,2|0,0:0|0:0,0:0:0:0:
440,248,438096,2,0,B|416:224|384:224|360:248,1,90,8|0,0:0|0:0,0:0:0:0:
288,296,438324,2,0,B|256:328,2,45
288,208,438553,2,0,B|240:208,2,45,8|0|0,0:0|0:0|0:0,0:0:0:0:
360,152,438781,6,0,B|384:128|416:128|440:152,1,90,2|0,0:0|0:0,0:0:0:0:
480,72,439009,1,8,0:0:0:0:
480,72,439123,1,0,0:0:0:0:
392,40,439237,1,0,0:0:0:0:
360,48,439294,1,0,0:0:0:0:
328,48,439351,1,0,0:0:0:0:
296,56,439408,1,0,0:0:0:0:
264,56,439465,2,0,B|176:56,1,90,8|0,0:0|0:0,0:0:0:0:
88,56,439693,6,0,B|32:56,2,45,2|0|0,0:0|0:0|0:0,0:0:0:0:
128,136,439921,2,0,B|176:136,2,45,8|0|0,0:0|0:0|0:0,0:0:0:0:
40,136,440150,2,0,B|40:232,1,90
40,312,440378,2,0,B|88:312|120:272,1,90,8|0,0:0|0:0,0:0:0:0:
192,224,440606,5,0,0:0:0:0:
304,296,440720,1,0,0:0:0:0:
256,168,440834,1,8,0:0:0:0:
208,296,440948,1,0,0:0:0:0:
320,224,441062,5,8,0:0:0:0:
256,56,441176,1,0,0:0:0:0:
192,224,441290,1,8,0:0:0:0:
344,128,441404,1,0,0:0:0:0:
168,128,441518,6,0,B|72:128,1,90,2|0,0:0|0:0,0:0:0:0:
56,168,441689,1,0,0:0:0:0:
40,208,441747,2,0,B|40:240|64:264|104:264,1,90,8|0,0:0|0:0,0:0:0:0:
184,296,441975,1,0,0:0:0:0:
216,304,442032,1,0,0:0:0:0:
240,320,442089,1,0,0:0:0:0:
272,328,442146,1,0,0:0:0:0:
304,336,442203,2,0,B|392:336,1,90,8|0,0:0|0:0,0:0:0:0:
440,256,442431,6,0,B|472:288,2,45,2|0|0,0:0|0:0|0:0,0:0:0:0:
440,168,442659,2,0,B|472:136,2,45,8|0|0,0:0|0:0|0:0,0:0:0:0:
368,216,442887,2,0,B|280:216,1,90
328,136,443115,2,0,B|392:72,1,90,8|0,0:0|0:0,0:0:0:0:
304,56,443343,6,0,B|248:56,3,45
216,56,443572,2,0,B|160:56,3,45,8|0|0|0,0:0|0:0|0:0|0:0,0:0:0:0:
128,56,443800,2,0,B|80:56,3,45
40,56,444028,2,0,B|-8:56,3,45,8|0|0|0,0:0|0:0|0:0|0:0,0:0:0:0:
256,192,444256,12,0,444940,0:0:0:0:
256,192,445169,5,4,0:0:0:0:
256,192,449047,5,6,0:0:0:0:
256,192,449389,2,0,B|216:212|216:212|176:192,1,90
176,104,449731,1,0,0:0:0:0:
256,192,449959,5,6,0:0:0:0:
256,192,450302,2,0,B|296:172|296:172|336:192,1,90
336,280,450644,1,0,0:0:0:0:
256,192,450872,12,0,452469,0:0:0:0:
176,64,452697,6,0,B|132:52|88:64,1,90,2|0,0:0|0:0,0:0:0:0:
88,152,453039,2,0,B|132:164|176:152,1,90
256,104,453381,1,0,0:0:0:0:
336,320,453610,6,0,B|380:332|424:320,1,90,2|0,0:0|0:0,0:0:0:0:
424,232,453952,2,0,B|380:220|336:232,1,90
256,280,454294,1,0,0:0:0:0:
256,192,454522,12,0,456119,0:0:0:0:
296,64,456347,5,2,0:0:0:0:
296,64,456684,2,0,B|272:40|240:40|216:64,1,90
256,144,457021,1,0,0:0:0:0:
216,320,457245,5,2,0:0:0:0:
216,320,457582,2,0,B|240:344|272:344|296:320,1,90
256,240,457920,1,0,0:0:0:0:
256,192,458144,12,0,459717,0:0:0:0:
136,80,459942,6,0,B|136:32,2,45,2|0|0,0:0|0:0|0:0,0:0:0:0:
224,80,460279,2,0,B|224:128|176:160,1,90
88,152,460616,1,0,0:0:0:0:
376,304,460841,6,0,B|376:352,2,45,2|0|0,0:0|0:0|0:0,0:0:0:0:
288,304,461178,2,0,B|288:256|336:224,1,90
424,232,461515,1,0,0:0:0:0:
256,192,461740,12,0,463313,0:0:0:0:
184,56,463560,5,2,0:0:0:0:
184,56,463674,1,0,0:0:0:0:
96,32,463788,1,8,0:0:0:0:
96,32,463902,1,0,0:0:0:0:
120,120,464017,2,0,B|72:120,2,45
208,144,464245,2,0,B|264:144,2,45,8|0|0,0:0|0:0|0:0,0:0:0:0:
144,208,464474,6,0,B|56:208,1,90,2|0,0:0|0:0,0:0:0:0:
48,296,464702,2,0,B|144:296,1,90,8|0,0:0|0:0,0:0:0:0:
216,256,464931,1,0,0:0:0:0:
240,232,464988,1,0,0:0:0:0:
272,216,465045,1,0,0:0:0:0:
304,208,465102,1,0,0:0:0:0:
336,208,465159,2,0,B|384:208|424:232,1,90,8|0,0:0|0:0,0:0:0:0:
480,160,465388,6,0,B|424:120|352:120,1,135
312,120,465617,2,0,B|312:24,1,90,8|0,0:0|0:0,0:0:0:0:
232,72,465845,2,0,B|200:32|152:32,1,90
64,32,466074,2,0,B|16:32,2,45,8|0|0,0:0|0:0|0:0,0:0:0:0:
104,112,466302,6,0,B|88:160,3,45
120,192,466531,2,0,B|104:240,3,45,8|0|0|0,0:0|0:0|0:0|0:0,0:0:0:0:
136,272,466759,2,0,B|120:320,3,45
160,344,466988,1,8,0:0:0:0:
192,344,467045,1,0,0:0:0:0:
224,344,467102,1,0,0:0:0:0:
256,344,467159,1,0,0:0:0:0:
288,344,467217,6,0,B|400:344,1,90,2|0,0:0|0:0,0:0:0:0:
472,344,467445,2,0,B|472:296|424:264,1,90,8|0,0:0|0:0,0:0:0:0:
344,256,467674,2,0,B|288:256,2,45
400,184,467902,2,0,B|448:184,2,45,8|0|0,0:0|0:0|0:0,0:0:0:0:
312,168,468131,5,2,0:0:0:0:
312,168,468188,1,0,0:0:0:0:
312,168,468245,1,0,0:0:0:0:
368,96,468359,2,0,B|336:56|288:80,1,90,8|0,0:0|0:0,0:0:0:0:
224,144,468588,1,0,0:0:0:0:
216,112,468645,1,0,0:0:0:0:
200,88,468702,1,0,0:0:0:0:
176,64,468759,1,0,0:0:0:0:
152,48,468817,2,0,B|108:36|64:48,1,90,8|0,0:0|0:0,0:0:0:0:
104,128,469045,6,0,B|136:160,2,45
40,192,469274,2,0,B|88:208|96:264,1,90,8|0,0:0|0:0,0:0:0:0:
184,264,469502,6,0,B|184:208,2,45
256,320,469731,1,8,0:0:0:0:
256,320,469845,1,0,0:0:0:0:
256,192,469959,12,0,470645,0:0:0:0:
328,328,470874,5,2,0:0:0:0:
328,328,470988,1,0,0:0:0:0:
416,352,471102,1,8,0:0:0:0:
416,352,471217,1,0,0:0:0:0:
392,264,471331,2,0,B|440:264,2,45
304,240,471559,2,0,B|248:240,2,45,8|0|0,0:0|0:0|0:0,0:0:0:0:
368,176,471788,6,0,B|456:176,1,90,2|0,0:0|0:0,0:0:0:0:
464,88,472017,2,0,B|368:88,1,90,8|0,0:0|0:0,0:0:0:0:
296,128,472245,1,0,0:0:0:0:
272,152,472302,1,0,0:0:0:0:
240,168,472359,1,0,0:0:0:0:
208,176,472417,1,0,0:0:0:0:
176,176,472474,2,0,B|128:176|88:152,1,90,8|0,0:0|0:0,0:0:0:0:
32,224,472702,6,0,B|88:264|160:264,1,135
200,264,472931,2,0,B|200:360,1,90,8|0,0:0|0:0,0:0:0:0:
280,312,473159,2,0,B|312:352|360:352,1,90
448,352,473388,2,0,B|496:352,2,45,8|0|0,0:0|0:0|0:0,0:0:0:0:
408,272,473617,6,0,B|424:224,3,45
392,192,473845,2,0,B|408:144,3,45,8|0|0|0,0:0|0:0|0:0|0:0,0:0:0:0:
376,112,474074,2,0,B|392:64,3,45
352,40,474302,1,8,0:0:0:0:
320,40,474359,1,0,0:0:0:0:
288,40,474417,1,0,0:0:0:0:
256,40,474474,1,0,0:0:0:0:
224,40,474531,6,0,B|112:40,1,90,2|0,0:0|0:0,0:0:0:0:
40,40,474759,2,0,B|40:88|88:120,1,90,8|0,0:0|0:0,0:0:0:0:
168,128,474988,2,0,B|224:128,2,45
112,200,475217,2,0,B|64:200,2,45,8|0|0,0:0|0:0|0:0,0:0:0:0:
200,216,475445,5,2,0:0:0:0:
200,216,475502,1,0,0:0:0:0:
200,216,475559,1,0,0:0:0:0:
144,288,475674,2,0,B|176:328|224:304,1,90,8|0,0:0|0:0,0:0:0:0:
288,240,475902,1,0,0:0:0:0:
296,272,475959,1,0,0:0:0:0:
312,296,476017,1,0,0:0:0:0:
336,320,476074,1,0,0:0:0:0:
360,336,476131,2,0,B|404:348|448:336,1,90,8|0,0:0|0:0,0:0:0:0:
408,256,476359,6,0,B|376:224,2,45
472,192,476588,2,0,B|424:176|416:120,1,90,8|0,0:0|0:0,0:0:0:0:
328,120,476817,6,0,B|328:176,2,45
256,64,477045,1,8,0:0:0:0:
256,64,477159,1,0,0:0:0:0:
184,120,477274,6,0,B|152:88,3,45
104,88,477502,2,0,B|64:128,3,45,8|0|0|0,0:0|0:0|0:0|0:0,0:0:0:0:
72,168,477731,2,0,B|136:232,1,90
48,248,477959,2,0,B|112:312,1,90,8|0,0:0|0:0,0:0:0:0:
200,304,478188,6,2,B|272:376|360:288|304:232|256:184|352:88|424:160,1,360,2|0,0:0|0:0,0:0:0:0:
144,56,483270,6,0,B|100:40|56:56,1,90,4|0,0:0|0:0,0:0:0:0:
56,144,483574,2,0,B|100:160|144:144,1,90,8|0,0:0|0:0,0:0:0:0:
224,96,483879,1,0,0:0:0:0:
248,80,483955,1,0,0:0:0:0:
280,80,484031,1,0,0:0:0:0:
304,64,484107,1,0,0:0:0:0:
336,64,484183,2,0,B|432:64,1,90,8|0,0:0|0:0,0:0:0:0:
392,144,484488,6,0,B|336:144,2,45
432,224,484792,2,0,B|480:224,2,45,8|0|0,0:0|0:0|0:0,0:0:0:0:
472,144,485097,1,0,0:0:0:0:
352,224,485249,1,0,0:0:0:0:
256,336,485401,1,8,0:0:0:0:
160,224,485554,1,0,0:0:0:0:
40,144,485706,6,0,B|16:100|40:56,1,90,2|0,0:0|0:0,0:0:0:0:
120,96,486011,2,0,B|208:48,1,90,8|0,0:0|0:0,0:0:0:0:
256,120,486315,1,0,0:0:0:0:
256,120,486391,1,0,0:0:0:0:
256,120,486467,1,0,0:0:0:0:
312,52,486620,2,0,B|392:96,1,90,8|0,0:0|0:0,0:0:0:0:
473,57,486924,6,0,B|496:100|472:144,1,90,0|0,0:0|0:0,0:0:0:0:
392,176,487229,1,8,0:0:0:0:
464,232,487381,1,0,0:0:0:0:
376,264,487533,1,0,0:0:0:0:
360,280,487610,1,0,0:0:0:0:
344,296,487686,1,0,0:0:0:0:
328,312,487762,1,0,0:0:0:0:
312,328,487838,1,8,0:0:0:0:
256,256,487990,1,0,0:0:0:0:
200,328,488143,6,0,B|176:312|168:288,2,45,2|0|0,0:0|0:0|0:0,0:0:0:0:
112,352,488447,1,8,0:0:0:0:
112,352,488523,1,0,0:0:0:0:
112,352,488599,1,0,0:0:0:0:
24,328,488752,2,0,B|64:264|24:200,1,135
24,152,489056,2,0,B|24:64,1,90,8|0,0:0|0:0,0:0:0:0:
104,24,489361,5,0,0:0:0:0:
104,56,489437,1,0,0:0:0:0:
112,88,489513,1,0,0:0:0:0:
136,112,489589,1,0,0:0:0:0:
168,120,489665,1,8,0:0:0:0:
192,32,489818,1,0,0:0:0:0:
192,32,489894,1,0,0:0:0:0:
192,32,489970,5,0,0:0:0:0:
344,48,490122,1,0,0:0:0:0:
256,176,490275,1,8,0:0:0:0:
408,192,490427,1,0,0:0:0:0:
312,312,490579,6,0,B|240:240|144:288,1,180,2|8,0:0|0:0,0:0:0:0:
64,328,491036,1,0,0:0:0:0:
64,328,491112,1,0,0:0:0:0:
64,328,491188,2,0,B|40:280|64:232,1,90
144,208,491493,2,0,B|192:192,2,45,8|0|0,0:0|0:0|0:0,0:0:0:0:
72,152,491797,6,0,B|40:112,3,45
40,72,492102,2,0,B|72:32|128:32,1,90,8|0,0:0|0:0,0:0:0:0:
192,80,492407,1,0,0:0:0:0:
280,56,492559,1,0,0:0:0:0:
352,104,492711,1,8,0:0:0:0:
440,80,492863,1,0,0:0:0:0:
480,104,492940,1,8,0:0:0:0:
496,144,493016,6,0,B|456:240|356:236,1,180,2|8,0:0|0:0,0:0:0:0:
356,147,493473,1,0,0:0:0:0:
356,147,493549,1,0,0:0:0:0:
356,147,493625,2,0,B|456:144|496:240,1,180,0|8,0:0|0:0,0:0:0:0:
456,320,494082,1,0,0:0:0:0:
368,336,494234,5,0,0:0:0:0:
352,336,494310,1,0,0:0:0:0:
320,256,494462,1,0,0:0:0:0:
304,256,494539,1,8,0:0:0:0:
256,336,494691,1,0,0:0:0:0:
208,256,494843,1,0,0:0:0:0:
192,256,494919,1,0,0:0:0:0:
160,336,495072,1,0,0:0:0:0:
144,336,495148,1,8,0:0:0:0:
56,320,495300,1,0,0:0:0:0:
72,232,495452,6,0,B|112:248,2,45,2|0|0,0:0|0:0|0:0,0:0:0:0:
56,144,495757,2,0,B|16:104|56:64,1,90,8|0,0:0|0:0,0:0:0:0:
144,64,496061,1,0,0:0:0:0:
176,72,496138,1,0,0:0:0:0:
208,72,496214,1,0,0:0:0:0:
240,64,496290,1,0,0:0:0:0:
264,48,496366,1,8,0:0:0:0:
264,48,496518,1,0,0:0:0:0:
264,48,496671,6,0,B|344:112,1,90
272,168,496975,2,0,B|232:136,2,45,8|0|0,0:0|0:0|0:0,0:0:0:0:
360,184,497280,1,0,0:0:0:0:
368,208,497356,1,0,0:0:0:0:
392,224,497432,1,0,0:0:0:0:
416,232,497508,1,0,0:0:0:0:
440,232,497584,1,8,0:0:0:0:
464,240,497660,1,0,0:0:0:0:
488,256,497737,1,0,0:0:0:0:
496,280,497813,1,8,0:0:0:0:
496,304,497889,6,0,B|496:352|440:368,1,90,2|0,0:0|0:0,0:0:0:0:
376,312,498193,2,0,B|320:304|296:264,1,90,8|0,0:0|0:0,0:0:0:0:
256,192,498498,1,0,0:0:0:0:
256,192,498574,1,0,0:0:0:0:
256,192,498650,1,0,0:0:0:0:
212,269,498802,2,0,B|192:304|136:312,1,90,8|0,0:0|0:0,0:0:0:0:
69,367,499107,6,0,B|16:352|16:304,1,90,0|0,0:0|0:0,0:0:0:0:
16,256,499335,1,0,0:0:0:0:
16,208,499412,1,8,0:0:0:0:
16,120,499564,1,0,0:0:0:0:
96,160,499716,1,0,0:0:0:0:
128,152,499792,1,0,0:0:0:0:
152,136,499868,1,0,0:0:0:0:
176,112,499945,1,0,0:0:0:0:
192,88,500021,1,8,0:0:0:0:
200,56,500097,1,0,0:0:0:0:
200,24,500173,1,0,0:0:0:0:
288,24,500325,6,0,B|472:24,1,180,2|8,0:0|0:0,0:0:0:0:
440,112,500782,2,0,B|384:112,2,45
464,200,501087,2,0,B|504:232|496:288,2,90,0|8|0,0:0|0:0|0:0,0:0:0:0:
376,200,501544,6,0,B|376:248,3,45
336,232,501848,2,0,B|328:280,3,45,8|0|0|0,0:0|0:0|0:0|0:0,0:0:0:0:
288,248,502153,2,0,B|272:296,3,45
240,264,502457,1,8,0:0:0:0:
224,288,502533,1,0,0:0:0:0:
200,312,502610,1,0,0:0:0:0:
176,328,502686,1,0,0:0:0:0:
144,344,502762,6,0,B|100:360|56:344,1,90,2|0,0:0|0:0,0:0:0:0:
96,264,503066,1,8,0:0:0:0:
96,264,503219,2,0,B|96:168,1,90
32,112,503523,1,0,0:0:0:0:
24,80,503599,1,0,0:0:0:0:
16,48,503676,1,8,0:0:0:0:
112,96,503828,1,0,0:0:0:0:
120,64,503904,1,0,0:0:0:0:
128,32,503980,1,0,0:0:0:0:
184,136,504132,6,0,B|232:56,1,90,0|8,0:0|0:0,0:0:0:0:
280,136,504437,2,0,B|368:72,1,90
360,176,504742,5,0,0:0:0:0:
488,264,504894,1,8,0:0:0:0:
336,264,505046,1,0,0:0:0:0:
464,176,505198,5,2,0:0:0:0:
464,176,505351,1,0,0:0:0:0:
464,176,505427,1,0,0:0:0:0:
464,176,505503,1,8,0:0:0:0:
464,176,505655,2,0,B|384:232|408:336,1,180
320,344,506112,1,8,0:0:0:0:
320,344,506264,2,0,B|272:336|256:288,1,90
184,344,506569,6,0,B|96:344,1,90,0|8,0:0|0:0,0:0:0:0:
136,264,506874,2,0,B|184:264,2,45
48,264,507178,5,0,0:0:0:0:
24,112,507330,1,8,0:0:0:0:
152,32,507483,1,0,0:0:0:0:
280,120,507635,5,2,0:0:0:0:
280,120,507787,2,0,B|320:80,2,45,0|0|8,0:0|0:0|0:0,0:0:0:0:
192,112,508092,2,0,B|192:184|256:224|320:200,1,180
376,136,508549,2,0,B|408:88|376:48,2,90,8|0|0,0:0|0:0|0:0,0:0:0:0:
400,224,509006,6,0,B|440:304,2,90,0|8|0,0:0|0:0|0:0,0:0:0:0:
336,288,509462,1,0,0:0:0:0:
336,288,509615,2,0,B|352:352,2,45,0|0|8,0:0|0:0|0:0,0:0:0:0:
248,304,509919,1,0,0:0:0:0:
240,320,509995,1,0,0:0:0:0:
232,336,510072,5,2,0:0:0:0:
168,272,510224,1,0,0:0:0:0:
88,240,510376,1,8,0:0:0:0:
0,240,510528,2,0,B|72:168|32:72,1,180
120,40,510985,1,8,0:0:0:0:
120,40,511138,2,0,B|176:40,2,45
120,128,511442,6,0,B|192:184,1,90,0|8,0:0|0:0,0:0:0:0:
280,152,511747,2,0,B|200:96,1,90
264,32,512051,5,0,0:0:0:0:
416,32,512204,1,8,0:0:0:0:
496,168,512356,1,0,0:0:0:0:
416,296,512508,5,2,0:0:0:0:
416,296,512660,2,0,B|456:336,2,45,0|0|8,0:0|0:0|0:0,0:0:0:0:
328,296,512965,2,0,B|224:272|160:352,1,180
72,344,513422,1,8,0:0:0:0:
72,344,513574,2,0,B|72:256,1,90
160,256,513879,6,0,B|192:224,2,45,0|0|8,0:0|0:0|0:0,0:0:0:0:
120,176,514183,2,0,B|72:152|32:176,1,90
24,88,514488,1,0,0:0:0:0:
56,80,514564,1,0,0:0:0:0:
80,56,514640,1,8,0:0:0:0:
168,88,514792,1,0,0:0:0:0:
216,168,514945,6,0,B|264:136|264:80,1,90,2|0,0:0|0:0,0:0:0:0:
264,64,515173,1,0,0:0:0:0:
264,32,515249,1,8,0:0:0:0:
352,32,515401,2,0,B|448:32,1,90
424,120,515706,2,0,B|376:120|352:168,2,90,0|8|0,0:0|0:0|0:0,0:0:0:0:
432,208,516163,1,0,0:0:0:0:
352,256,516315,6,0,B|296:256,2,45,0|0|8,0:0|0:0|0:0,0:0:0:0:
432,304,516620,2,0,B|488:304,2,45
352,352,516924,5,0,0:0:0:0:
200,352,517077,1,8,0:0:0:0:
104,232,517229,1,0,0:0:0:0:
104,80,517381,5,2,0:0:0:0:
104,80,517533,2,0,B|48:80,2,45,0|0|8,0:0|0:0|0:0,0:0:0:0:
176,32,517838,1,0,0:0:0:0:
256,72,517990,1,0,0:0:0:0:
336,32,518143,1,0,0:0:0:0:
368,64,518219,1,0,0:0:0:0:
408,80,518295,2,0,B|456:80|488:120,1,90,8|0,0:0|0:0,0:0:0:0:
408,168,518599,1,0,0:0:0:0:
320,144,518752,5,0,0:0:0:0:
320,144,518828,1,0,0:0:0:0:
320,144,518904,1,8,0:0:0:0:
344,232,519056,1,0,0:0:0:0:
432,256,519209,1,0,0:0:0:0:
368,320,519361,5,0,0:0:0:0:
368,320,519437,1,0,0:0:0:0:
368,320,519513,1,8,0:0:0:0:
280,296,519665,1,0,0:0:0:0:
192,320,519818,6,0,B|152:360|112:320,1,90,2|0,0:0|0:0,0:0:0:0:
152,240,520122,2,0,B|152:192,2,45,8|0|0,0:0|0:0|0:0,0:0:0:0:
64,240,520427,1,0,0:0:0:0:
40,216,520503,1,0,0:0:0:0:
16,192,520579,1,0,0:0:0:0:
64,112,520731,1,8,0:0:0:0:
40,88,520808,1,0,0:0:0:0:
16,64,520884,1,0,0:0:0:0:
96,32,521036,6,0,B|144:32,3,45
184,32,521341,2,0,B|232:32|256:80,1,90,8|0,0:0|0:0,0:0:0:0:
176,112,521645,1,0,0:0:0:0:
176,112,521797,5,0,0:0:0:0:
336,48,521950,1,8,0:0:0:0:
496,112,522102,1,0,0:0:0:0:
336,168,522254,1,4,0:0:0:0:
256,192,522330,12,6,524691,0:0:0:0:
256,192,524767,12,6,527127,0:0:0:0:
256,192,527204,12,6,529564,0:0:0:0:
256,192,529640,12,2,531696,0:0:0:0:
184,80,532000,6,0,B|104:40,1,90,4|0,0:0|0:0,0:0:0:0:
24,88,532305,2,0,B|80:104|80:152,1,90,8|0,0:0|0:0,0:0:0:0:
24,224,532610,2,0,B|0:176,2,45
112,224,532914,2,0,B|112:272|64:304,1,90,8|0,0:0|0:0,0:0:0:0:
152,344,533219,6,0,B|152:304|184:288,1,45
240,344,533447,2,0,B|296:344,1,45,0|8,0:0|0:0,0:0:0:0:
376,344,533676,1,0,0:0:0:0:
464,344,533828,1,0,0:0:0:0:
456,312,533904,1,0,0:0:0:0:
456,280,533980,1,0,0:0:0:0:
448,248,534056,1,0,0:0:0:0:
448,216,534132,2,0,B|448:128,1,90,8|0,0:0|0:0,0:0:0:0:
376,72,534437,6,0,B|312:32|248:72,1,135,2|0,0:0|0:0,0:0:0:0:
248,120,534742,2,0,B|248:168|208:200,1,90,8|0,0:0|0:0,0:0:0:0:
160,120,535046,2,0,B|160:72,2,45
72,104,535351,2,0,B|72:48,2,45,8|0|0,0:0|0:0|0:0,0:0:0:0:
104,192,535655,6,0,B|48:264,1,90
96,344,535960,2,0,B|152:272,1,90,8|0,0:0|0:0,0:0:0:0:
224,320,536264,1,0,0:0:0:0:
256,328,536341,1,0,0:0:0:0:
288,320,536417,1,0,0:0:0:0:
320,328,536493,1,0,0:0:0:0:
352,320,536569,1,8,0:0:0:0:
440,328,536721,1,0,0:0:0:0:
440,328,536797,1,0,0:0:0:0:
440,328,536874,6,0,B|496:248|440:160,1,180,2|8,0:0|0:0,0:0:0:0:
360,120,537330,1,0,0:0:0:0:
328,136,537407,1,0,0:0:0:0:
304,160,537483,1,0,0:0:0:0:
384,208,537635,2,0,B|400:240|384:272,2,45,0|0|8,0:0|0:0|0:0,0:0:0:0:
304,248,537940,1,0,0:0:0:0:
224,200,538092,5,0,0:0:0:0:
216,168,538168,1,0,0:0:0:0:
224,136,538244,1,0,0:0:0:0:
216,104,538320,1,0,0:0:0:0:
224,72,538396,1,8,0:0:0:0:
144,32,538549,1,0,0:0:0:0:
64,72,538701,1,0,0:0:0:0:
72,104,538777,1,0,0:0:0:0:
64,136,538853,1,0,0:0:0:0:
72,168,538929,1,0,0:0:0:0:
64,200,539006,1,8,0:0:0:0:
72,232,539082,1,0,0:0:0:0:
64,264,539158,1,0,0:0:0:0:
72,296,539234,1,0,0:0:0:0:
64,328,539310,6,0,B|88:376|144:352,1,90,2|0,0:0|0:0,0:0:0:0:
160,264,539615,1,8,0:0:0:0:
224,328,539767,1,0,0:0:0:0:
312,344,539919,1,0,0:0:0:0:
344,344,539995,1,0,0:0:0:0:
376,336,540072,1,0,0:0:0:0:
400,320,540148,1,0,0:0:0:0:
424,296,540224,2,0,B|448:256|448:208,1,90,8|0,0:0|0:0,0:0:0:0:
392,136,540528,6,0,B|432:120,2,45
304,112,540833,2,0,B|336:72,2,45,8|0|0,0:0|0:0|0:0,0:0:0:0:
216,104,541138,1,0,0:0:0:0:
200,108,541214,1,0,0:0:0:0:
184,116,541290,1,0,0:0:0:0:
168,128,541366,1,0,0:0:0:0:
156,140,541442,1,8,0:0:0:0:
148,156,541518,1,0,0:0:0:0:
144,172,541594,1,0,0:0:0:0:
140,192,541671,1,8,0:0:0:0:
140,208,541747,6,0,B|140:300,1,90,6|0,0:0|0:0,0:0:0:0:
176,328,541975,1,0,0:0:0:0:
216,344,542051,2,0,B|264:360|312:344,1,90,8|0,0:0|0:0,0:0:0:0:
256,272,542356,1,0,0:0:0:0:
344,264,542508,1,0,0:0:0:0:
384,288,542584,1,0,0:0:0:0:
432,288,542660,2,0,B|472:264|472:208,1,90,8|0,0:0|0:0,0:0:0:0:
384,184,542965,5,0,0:0:0:0:
392,152,543041,1,0,0:0:0:0:
416,128,543117,1,0,0:0:0:0:
448,120,543193,1,0,0:0:0:0:
480,120,543270,1,8,0:0:0:0:
448,40,543422,1,0,0:0:0:0:
416,48,543498,1,0,0:0:0:0:
384,56,543574,1,0,0:0:0:0:
312,112,543726,1,0,0:0:0:0:
256,40,543879,1,8,0:0:0:0:
200,112,544031,1,0,0:0:0:0:
128,64,544183,6,0,B|80:48,2,45,2|0|0,0:0|0:0|0:0,0:0:0:0:
80,144,544488,2,0,B|128:160,2,45,8|0|0,0:0|0:0|0:0,0:0:0:0:
56,232,544792,2,0,B|8:216|-8:168,2,90,0|0|8,0:0|0:0|0:0,0:0:0:0:
144,248,545249,1,0,0:0:0:0:
88,320,545401,5,0,0:0:0:0:
120,328,545478,1,0,0:0:0:0:
152,336,545554,1,0,0:0:0:0:
184,328,545630,1,0,0:0:0:0:
216,320,545706,1,8,0:0:0:0:
256,240,545858,1,0,0:0:0:0:
296,320,546011,5,0,0:0:0:0:
328,328,546087,1,0,0:0:0:0:
360,336,546163,1,0,0:0:0:0:
392,328,546239,1,0,0:0:0:0:
424,320,546316,1,8,0:0:0:0:
456,240,546467,1,0,0:0:0:0:
456,192,546544,1,8,0:0:0:0:
456,144,546620,6,0,B|464:72|408:24|328:48,1,180,2|8,0:0|0:0,0:0:0:0:
368,128,547077,1,0,0:0:0:0:
280,96,547229,2,0,B|240:64,3,45
208,40,547533,2,0,B|164:24|120:40,1,90,8|0,0:0|0:0,0:0:0:0:
168,120,547838,5,0,0:0:0:0:
152,144,547914,1,0,0:0:0:0:
144,176,547990,1,0,0:0:0:0:
128,200,548066,1,0,0:0:0:0:
120,232,548143,2,0,B|88:320,1,90,8|0,0:0|0:0,0:0:0:0:
176,344,548447,1,0,0:0:0:0:
200,320,548523,1,0,0:0:0:0:
224,304,548599,1,0,0:0:0:0:
256,288,548676,1,0,0:0:0:0:
288,280,548752,1,8,0:0:0:0:
344,344,548904,1,0,0:0:0:0:
432,344,549056,6,0,B|488:344,2,45,2|0|0,0:0|0:0|0:0,0:0:0:0:
392,264,549361,2,0,B|440:264|472:224,1,90,8|0,0:0|0:0,0:0:0:0:
464,136,549665,1,0,0:0:0:0:
456,104,549742,1,0,0:0:0:0:
440,72,549818,1,0,0:0:0:0:
416,48,549894,1,0,0:0:0:0:
384,32,549970,1,8,0:0:0:0:
296,32,550122,1,0,0:0:0:0:
208,32,550275,5,0,0:0:0:0:
72,104,550427,1,0,0:0:0:0:
224,104,550579,1,8,0:0:0:0:
88,176,550731,1,0,0:0:0:0:
240,176,550884,5,0,0:0:0:0:
216,192,550960,1,0,0:0:0:0:
200,216,551036,1,0,0:0:0:0:
192,248,551112,1,0,0:0:0:0:
192,280,551188,1,8,0:0:0:0:
200,312,551264,1,0,0:0:0:0:
216,336,551341,1,0,0:0:0:0:
240,352,551417,1,8,0:0:0:0:
272,360,551493,6,0,B|320:360|352:320,1,90,2|0,0:0|0:0,0:0:0:0:
280,264,551797,1,8,0:0:0:0:
280,264,551874,1,0,0:0:0:0:
280,264,551950,1,0,0:0:0:0:
336,192,552102,2,0,B|320:144,2,45
408,240,552407,2,0,B|456:224,2,45,8|0|0,0:0|0:0|0:0,0:0:0:0:
408,152,552711,5,0,0:0:0:0:
432,128,552787,1,0,0:0:0:0:
440,96,552863,1,0,0:0:0:0:
432,64,552940,1,0,0:0:0:0:
408,40,553016,1,8,0:0:0:0:
320,40,553168,1,0,0:0:0:0:
320,40,553244,1,0,0:0:0:0:
320,40,553320,1,0,0:0:0:0:
232,40,553473,2,0,B|232:96|184:120,2,90,0|8|0,0:0|0:0|0:0,0:0:0:0:
144,40,553929,5,2,0:0:0:0:
112,40,554006,1,0,0:0:0:0:
80,40,554082,1,0,0:0:0:0:
32,120,554234,5,8,0:0:0:0:
64,120,554310,1,0,0:0:0:0:
96,120,554386,1,0,0:0:0:0:
144,200,554539,5,0,0:0:0:0:
112,200,554615,1,0,0:0:0:0:
80,200,554691,1,0,0:0:0:0:
32,280,554843,5,8,0:0:0:0:
64,280,554919,1,0,0:0:0:0:
96,280,554995,1,0,0:0:0:0:
128,280,555072,1,0,0:0:0:0:
160,280,555148,6,0,B|208:280,2,45
112,352,555452,2,0,B|56:352,2,45,8|0|0,0:0|0:0|0:0,0:0:0:0:
200,352,555757,1,0,0:0:0:0:
288,352,555909,2,0,B|384:352,2,90,0|8|8,0:0|0:0|0:0,0:0:0:0:
288,264,556366,6,0,B|296:216|256:184,2,90,6|0|8,0:0|0:0|0:0,0:0:0:0:
376,264,556823,2,0,B|464:264,1,90
424,184,557127,1,0,0:0:0:0:
464,104,557280,1,8,0:0:0:0:
424,24,557432,1,0,0:0:0:0:
384,104,557584,6,0,B|328:24|224:40,1,180,0|8,0:0|0:0,0:0:0:0:
168,104,558041,2,0,B|168:160,2,45
104,40,558346,2,0,B|56:40,2,45,0|0|8,0:0|0:0|0:0,0:0:0:0:
80,128,558650,1,0,0:0:0:0:
16,192,558802,6,0,B|16:280,1,90,2|0,0:0|0:0,0:0:0:0:
40,320,559031,1,0,0:0:0:0:
80,336,559107,2,0,B|124:352|124:352|168:336,1,90,8|0,0:0|0:0,0:0:0:0:
120,256,559412,2,0,B|120:200,4,45,0|0|0|0|8,0:0|0:0|0:0|0:0|0:0,0:0:0:0:
208,256,559868,1,0,0:0:0:0:
256,336,560021,6,0,B|264:264|336:232|400:264,1,180,0|8,0:0|0:0,0:0:0:0:
344,336,560478,1,0,0:0:0:0:
344,336,560554,1,0,0:0:0:0:
344,336,560630,2,0,B|256:168,1,180,0|8,0:0|0:0,0:0:0:0:
168,176,561087,1,0,0:0:0:0:
120,176,561163,1,8,0:0:0:0:
72,176,561239,6,0,B|24:160|16:112,1,90,2|0,0:0|0:0,0:0:0:0:
104,96,561544,2,0,B|168:32,1,90,8|0,0:0|0:0,0:0:0:0:
256,56,561848,1,0,0:0:0:0:
256,56,561924,1,0,0:0:0:0:
256,56,562000,1,0,0:0:0:0:
344,32,562153,2,0,B|408:96,1,90,8|0,0:0|0:0,0:0:0:0:
496,111,562458,6,0,B|488:160|440:176,1,90,0|0,0:0|0:0,0:0:0:0:
392,168,562686,1,0,0:0:0:0:
344,160,562762,2,0,B|295:176|287:224,1,90,8|0,0:0|0:0,0:0:0:0:
288,272,562990,1,0,0:0:0:0:
288,320,563066,2,0,B|304:360,3,45
232,320,563371,2,0,B|248:368,3,45,8|0|0|0,0:0|0:0|0:0|0:0,0:0:0:0:
176,320,563676,6,0,B|72:320,1,90,2|0,0:0|0:0,0:0:0:0:
56,280,563904,1,0,0:0:0:0:
32,240,563980,2,0,B|8:200|8:152,1,90,8|0,0:0|0:0,0:0:0:0:
8,64,564285,1,0,0:0:0:0:
40,56,564361,1,0,0:0:0:0:
72,56,564437,1,0,0:0:0:0:
104,48,564513,1,0,0:0:0:0:
136,48,564589,2,0,B|232:48,1,90,8|0,0:0|0:0,0:0:0:0:
320,48,564894,6,0,B|368:48,2,45
272,128,565198,2,0,B|272:184,2,45,8|0|0,0:0|0:0|0:0,0:0:0:0:
360,128,565503,1,0,0:0:0:0:
384,152,565579,1,0,0:0:0:0:
408,176,565655,1,0,0:0:0:0:
432,200,565731,1,0,0:0:0:0:
456,224,565808,1,8,0:0:0:0:
456,312,565960,1,0,0:0:0:0:
376,272,566112,6,0,B|344:240|344:240|296:240,1,90,2|0,0:0|0:0,0:0:0:0:
256,232,566341,1,0,0:0:0:0:
212,240,566417,2,0,B|168:240|168:240|136:272,1,90,8|0,0:0|0:0,0:0:0:0:
208,320,566721,2,0,B|264:320,2,45
128,360,567026,1,8,0:0:0:0:
88,344,567102,1,0,0:0:0:0:
56,312,567178,1,0,0:0:0:0:
56,224,567330,6,0,B|16:160|56:88,1,135
96,96,567635,2,0,B|144:96|176:56,1,90,8|0,0:0|0:0,0:0:0:0:
264,56,567940,2,0,B|320:56,2,45
216,136,568244,2,0,B|184:168,2,45,8|0|0,0:0|0:0|0:0,0:0:0:0:
304,136,568549,5,2,0:0:0:0:
256,216,568701,1,0,0:0:0:0:
344,216,568853,1,8,0:0:0:0:
392,136,569006,1,0,0:0:0:0:
424,120,569082,1,0,0:0:0:0:
456,120,569158,1,0,0:0:0:0:
488,136,569234,1,0,0:0:0:0:
504,168,569310,1,0,0:0:0:0:
432,216,569462,1,8,0:0:0:0:
384,296,569615,1,0,0:0:0:0:
296,296,569767,5,0,0:0:0:0:
280,296,569843,2,0,B|232:296,1,45
144,296,570072,1,8,0:0:0:0:
128,296,570148,2,0,B|72:296,1,45
48,216,570376,1,0,0:0:0:0:
24,192,570452,1,0,0:0:0:0:
16,160,570528,1,0,0:0:0:0:
24,128,570605,1,0,0:0:0:0:
48,104,570681,1,8,0:0:0:0:
120,160,570833,1,0,0:0:0:0:
128,72,570985,6,0,B|208:24,2,90,2|0|8,0:0|0:0|0:0,0:0:0:0:
200,128,571442,1,0,0:0:0:0:
224,112,571518,1,0,0:0:0:0:
248,96,571594,2,0,B|328:40,1,90
352,32,571823,1,0,0:0:0:0:
384,48,571899,2,0,B|464:96,1,90,8|0,0:0|0:0,0:0:0:0:
432,184,572204,6,0,B|400:128|312:128|280:192,2,180,0|8|0,0:0|0:0|0:0,0:0:0:0:
360,232,572965,1,0,0:0:0:0:
360,232,573041,1,0,0:0:0:0:
360,232,573117,2,0,B|328:280|272:272,1,90,8|0,0:0|0:0,0:0:0:0:
192,272,573422,6,0,B|104:272,2,90,2|0|8,0:0|0:0|0:0,0:0:0:0:
152,192,573879,1,0,0:0:0:0:
120,192,573955,1,0,0:0:0:0:
88,184,574031,1,0,0:0:0:0:
64,160,574107,1,0,0:0:0:0:
56,128,574183,1,0,0:0:0:0:
144,104,574335,2,0,B|216:32,1,90,8|0,0:0|0:0,0:0:0:0:
296,40,574640,6,0,B|384:40|384:40|480:72,1,180,0|8,0:0|0:0,0:0:0:0:
472,160,575097,1,0,0:0:0:0:
472,160,575173,1,0,0:0:0:0:
472,160,575249,1,0,0:0:0:0:
384,176,575401,1,0,0:0:0:0:
312,120,575554,1,8,0:0:0:0:
312,120,575706,1,0,0:0:0:0:
312,120,575782,1,0,0:0:0:0:
312,120,575858,6,0,B|224:144,1,90,6|0,0:0|0:0,0:0:0:0:
208,104,576087,1,0,0:0:0:0:
192,64,576163,2,0,B|144:56|96:64,1,90,8|0,0:0|0:0,0:0:0:0:
88,152,576467,1,0,0:0:0:0:
88,152,576544,1,0,0:0:0:0:
88,152,576620,1,0,0:0:0:0:
88,152,576696,1,0,0:0:0:0:
88,152,576772,2,0,B|136:168|152:216,1,90,8|0,0:0|0:0,0:0:0:0:
64,240,577077,5,0,0:0:0:0:
64,288,577153,2,0,B|88:328|136:344,1,90
176,344,577381,2,0,B|272:344,1,90,8|0,0:0|0:0,0:0:0:0:
360,344,577686,1,0,0:0:0:0:
392,344,577762,1,0,0:0:0:0:
424,336,577838,1,0,0:0:0:0:
448,320,577914,1,0,0:0:0:0:
464,296,577990,2,0,B|464:248,3,45,8|0|0|0,0:0|0:0|0:0|0:0,0:0:0:0:
464,208,578295,6,0,B|464:120,1,90,2|0,0:0|0:0,0:0:0:0:
456,72,578523,1,0,0:0:0:0:
424,40,578599,2,0,B|376:32|328:40,1,90,8|0,0:0|0:0,0:0:0:0:
376,120,578904,1,0,0:0:0:0:
376,152,578980,1,0,0:0:0:0:
368,184,579056,1,0,0:0:0:0:
344,208,579132,1,0,0:0:0:0:
312,216,579209,1,8,0:0:0:0:
280,208,579285,1,0,0:0:0:0:
256,184,579361,1,0,0:0:0:0:
256,96,579513,6,0,B|304:96,2,45
184,40,579818,2,0,B|128:40,2,45,8|0|0,0:0|0:0|0:0,0:0:0:0:
176,128,580122,1,0,0:0:0:0:
144,120,580198,1,0,0:0:0:0:
112,112,580275,1,0,0:0:0:0:
80,120,580351,1,0,0:0:0:0:
48,128,580427,1,8,0:0:0:0:
48,216,580579,1,0,0:0:0:0:
48,216,580655,1,8,0:0:0:0:
48,216,580731,6,0,B|56:264,3,45,2|0|0|0,0:0|0:0|0:0|0:0,0:0:0:0:
64,304,581036,1,8,0:0:0:0:
64,304,581188,1,0,0:0:0:0:
136,248,581341,6,0,B|144:296,3,45,0|0|0|0,0:0|0:0|0:0|0:0,0:0:0:0:
152,336,581646,1,8,0:0:0:0:
152,336,581798,1,0,0:0:0:0:
224,280,581950,5,0,0:0:0:0:
224,280,582026,1,0,0:0:0:0:
224,280,582102,1,0,0:0:0:0:
304,320,582254,1,8,0:0:0:0:
304,320,582330,1,0,0:0:0:0:
304,320,582407,1,0,0:0:0:0:
392,304,582559,2,0,B|440:320,1,45
432,272,582711,2,0,B|480:272,1,45
456,232,582863,2,0,B|496:208,2,45,8|0|0,0:0|0:0|0:0,0:0:0:0:
368,200,583168,6,0,B|336:248,2,45,2|0|0,0:0|0:0|0:0,0:0:0:0:
432,136,583473,1,8,0:0:0:0:
472,56,583625,1,0,0:0:0:0:
384,56,583777,1,0,0:0:0:0:
336,56,583853,1,0,0:0:0:0:
288,56,583929,1,0,0:0:0:0:
280,144,584082,2,0,B|328:128,2,45,8|0|0,0:0|0:0|0:0,0:0:0:0:
208,88,584386,5,0,0:0:0:0:
184,64,584462,1,0,0:0:0:0:
152,48,584539,1,0,0:0:0:0:
120,40,584615,1,0,0:0:0:0:
88,40,584691,2,0,B|40:40,2,45,8|0|0,0:0|0:0|0:0,0:0:0:0:
88,128,584995,1,0,0:0:0:0:
136,136,585072,1,0,0:0:0:0:
168,168,585148,1,0,0:0:0:0:
88,216,585300,1,8,0:0:0:0:
168,264,585452,1,0,0:0:0:0:
136,296,585528,1,8,0:0:0:0:
88,304,585605,5,2,0:0:0:0:
256,248,585909,1,8,0:0:0:0:
424,304,586214,1,0,0:0:0:0:
336,304,586366,2,0,B|312:352,2,45,0|0|8,0:0|0:0|0:0,0:0:0:0:
360,216,586671,1,0,0:0:0:0:
448,216,586823,6,0,B|464:168,3,45
448,128,587127,2,0,B|464:80,3,45,8|0|0|0,0:0|0:0|0:0|0:0,0:0:0:0:
448,40,587432,1,0,0:0:0:0:
416,48,587508,1,0,0:0:0:0:
384,48,587584,1,0,0:0:0:0:
352,40,587660,1,0,0:0:0:0:
320,40,587737,1,8,0:0:0:0:
288,48,587813,1,0,0:0:0:0:
256,48,587889,1,0,0:0:0:0:
224,40,587965,1,0,0:0:0:0:
192,40,588041,6,0,B|104:40,1,90,2|0,0:0|0:0,0:0:0:0:
88,72,588270,1,0,0:0:0:0:
72,104,588346,2,0,B|64:152|72:200,1,90,8|0,0:0|0:0,0:0:0:0:
152,152,588650,1,0,0:0:0:0:
176,136,588726,1,0,0:0:0:0:
208,136,588803,1,0,0:0:0:0:
232,120,588879,1,0,0:0:0:0:
264,120,588955,2,0,B|352:120,1,90,8|0,0:0|0:0,0:0:0:0:
440,120,589259,5,0,0:0:0:0:
440,120,589335,1,0,0:0:0:0:
400,200,589488,1,0,0:0:0:0:
400,200,589564,2,0,B|440:232,2,45,8|0|0,0:0|0:0|0:0,0:0:0:0:
320,216,589868,5,0,0:0:0:0:
328,248,589945,1,0,0:0:0:0:
344,272,590021,1,0,0:0:0:0:
368,288,590097,1,0,0:0:0:0:
400,296,590173,1,8,0:0:0:0:
336,360,590325,1,0,0:0:0:0:
304,344,590401,1,8,0:0:0:0:
272,328,590478,6,0,B|184:328,1,90,2|0,0:0|0:0,0:0:0:0:
160,304,590706,1,0,0:0:0:0:
136,280,590782,2,0,B|128:232|136:184,1,90,8|0,0:0|0:0,0:0:0:0:
160,168,591011,1,0,0:0:0:0:
184,152,591087,2,0,B|224:120,3,45
248,104,591391,1,8,0:0:0:0:
280,88,591467,1,0,0:0:0:0:
312,80,591544,1,0,0:0:0:0:
400,80,591696,6,0,B|464:80,2,45
360,160,592000,2,0,B|304:160|280:208,1,90,8|0,0:0|0:0,0:0:0:0:
360,248,592305,1,0,0:0:0:0:
440,208,592457,1,0,0:0:0:0:
456,248,592533,1,0,0:0:0:0:
440,288,592610,1,8,0:0:0:0:
360,336,592762,1,0,0:0:0:0:
280,288,592914,5,2,0:0:0:0:
248,304,592990,1,0,0:0:0:0:
216,320,593066,1,0,0:0:0:0:
136,288,593219,5,8,0:0:0:0:
96,304,593295,1,0,0:0:0:0:
56,320,593371,1,0,0:0:0:0:
24,232,593523,5,0,0:0:0:0:
40,184,593599,1,0,0:0:0:0:
56,136,593676,1,0,0:0:0:0:
136,176,593828,5,8,0:0:0:0:
152,120,593904,1,0,0:0:0:0:
168,64,593980,1,0,0:0:0:0:
256,64,594132,5,0,0:0:0:0:
304,168,594285,1,0,0:0:0:0:
408,120,594437,1,8,0:0:0:0:
360,16,594589,1,0,0:0:0:0:
256,64,594742,5,8,0:0:0:0:
360,152,594894,1,0,0:0:0:0:
328,280,595046,1,8,0:0:0:0:
448,344,595198,1,0,0:0:0:0:
448,344,595275,1,8,0:0:0:0:
448,344,595351,1,6,0:0:0:0:
256,192,595427,12,6,597787,0:0:0:0:
256,192,597863,12,6,600224,0:0:0:0:
256,192,600300,12,6,602660,0:0:0:0:
256,192,602737,12,6,605097,0:0:0:0:
224,64,614843,5,6,0:0:0:0:
136,64,614995,1,0,0:0:0:0:
104,64,615072,1,0,0:0:0:0:
72,72,615148,1,8,0:0:0:0:
24,144,615300,1,0,0:0:0:0:
72,216,615452,1,0,0:0:0:0:
56,248,615528,1,0,0:0:0:0:
56,280,615605,1,0,0:0:0:0:
72,312,615681,1,0,0:0:0:0:
96,328,615757,1,8,0:0:0:0:
152,256,615909,1,0,0:0:0:0:
184,336,616061,6,0,B|216:304,1,45
328,336,616290,2,0,B|296:304,1,45,0|8,0:0|0:0,0:0:0:0:
256,224,616518,1,0,0:0:0:0:
256,136,616671,2,0,B|256:88,3,45
256,48,616975,1,8,0:0:0:0:
256,48,617127,1,0,0:0:0:0:
168,72,617280,6,0,B|136:40,3,45,2|0|0|0,0:0|0:0|0:0|0:0,0:0:0:0:
96,24,617584,2,0,B|48:24|16:72,1,90,8|0,0:0|0:0,0:0:0:0:
96,120,617889,2,0,B|128:152,2,45
24,176,618193,2,0,B|24:272,1,90,8|0,0:0|0:0,0:0:0:0:
112,248,618498,5,0,0:0:0:0:
112,248,618574,1,0,0:0:0:0:
112,248,618650,1,0,0:0:0:0:
80,336,618802,2,0,B|8:352,2,45,8|0|0,0:0|0:0|0:0,0:0:0:0:
168,320,619107,1,0,0:0:0:0:
200,328,619183,1,0,0:0:0:0:
232,336,619259,1,0,0:0:0:0:
264,328,619335,1,0,0:0:0:0:
296,320,619412,1,8,0:0:0:0:
328,328,619488,1,0,0:0:0:0:
360,336,619564,1,0,0:0:0:0:
392,328,619640,1,8,0:0:0:0:
424,320,619716,6,0,B|512:272|488:168,1,180,2|8,0:0|0:0,0:0:0:0:
464,72,620173,2,0,B|448:24,2,45
392,136,620478,2,0,B|408:184,2,45,0|0|8,0:0|0:0|0:0,0:0:0:0:
368,40,620782,1,0,0:0:0:0:
296,104,620934,5,0,0:0:0:0:
272,88,621011,1,0,0:0:0:0:
248,72,621087,1,0,0:0:0:0:
224,56,621163,1,0,0:0:0:0:
200,40,621239,1,8,0:0:0:0:
112,40,621391,1,0,0:0:0:0:
152,120,621544,1,0,0:0:0:0:
120,120,621620,1,0,0:0:0:0:
88,128,621696,1,0,0:0:0:0:
64,144,621772,1,0,0:0:0:0:
40,168,621848,2,0,B|24:216|40:264,1,90,8|0,0:0|0:0,0:0:0:0:
120,216,622153,6,0,B|200:176|224:248|224:248|208:304,1,180,2|8,0:0|0:0,0:0:0:0:
302,297,622610,1,0,0:0:0:0:
302,297,622762,2,0,B|288:248|288:248|312:176|392:216,1,180,0|8,0:0|0:0,0:0:0:0:
448,144,623219,1,0,0:0:0:0:
392,72,623371,5,0,0:0:0:0:
368,96,623447,1,0,0:0:0:0:
336,8,623599,1,0,0:0:0:0:
320,40,623676,1,8,0:0:0:0:
256,104,623828,1,0,0:0:0:0:
192,40,623980,5,0,0:0:0:0:
176,8,624057,1,0,0:0:0:0:
144,96,624209,1,0,0:0:0:0:
120,72,624285,1,8,0:0:0:0:
56,136,624437,1,0,0:0:0:0:
56,136,624513,1,8,0:0:0:0:
56,136,624589,6,0,B|80:256|165:238|184:232|184:232|216:320,1,270,6|0,0:0|0:0,0:0:0:0:
298,312,625198,2,0,B|328:232|328:232|346:238|432:256|456:136,1,270,0|0,0:0|0:0,0:0:0:0:
392,72,625808,6,0,B|360:168,1,90
120,72,626112,2,0,B|152:168,1,90,8|0,0:0|0:0,0:0:0:0:
208,88,626417,1,0,0:0:0:0:
296,88,626569,1,0,0:0:0:0:
280,128,626645,1,0,0:0:0:0:
256,168,626721,1,8,0:0:0:0:
256,256,626874,1,0,0:0:0:0:
328,312,627026,6,0,B|368:280,2,45,2|0|0,0:0|0:0|0:0,0:0:0:0:
240,344,627330,1,8,0:0:0:0:
192,336,627407,1,0,0:0:0:0:
144,344,627483,1,0,0:0:0:0:
56,312,627635,1,0,0:0:0:0:
56,296,627711,1,0,0:0:0:0:
56,280,627787,1,0,0:0:0:0:
56,264,627863,1,0,0:0:0:0:
56,248,627940,2,0,B|56:160,1,90,8|0,0:0|0:0,0:0:0:0:
56,72,628244,6,0,B|96:40,3,45
136,64,628549,2,0,B|176:48,3,45,8|0|0|0,0:0|0:0|0:0|0:0,0:0:0:0:
216,72,628853,2,0,B|320:48|368:144,1,180,0|8,0:0|0:0,0:0:0:0:
312,208,629310,1,0,0:0:0:0:
312,208,629386,1,0,0:0:0:0:
312,208,629462,6,0,B|256:232|208:288|212:348,1,180,6|8,0:0|0:0,0:0:0:0:
300,345,629919,1,0,0:0:0:0:
300,345,629995,1,0,0:0:0:0:
300,345,630072,2,0,B|304:288|256:232|200:208,1,180,0|8,0:0|0:0,0:0:0:0:
120,248,630528,1,0,0:0:0:0:
120,160,630681,6,0,B|80:80,1,90
168,96,630985,2,0,B|168:40|224:16,1,90,8|0,0:0|0:0,0:0:0:0:
300,22,631290,6,0,B|344:40|344:96,1,90
432,79,631594,2,0,B|392:160,1,90,8|0,0:0|0:0,0:0:0:0:
368,248,631899,6,0,B|312:248|256:248|160:296|160:368|256:416|352:368|352:296|256:248|200:248|144:248,1,450,2|0,0:0|0:0,0:0:0:0:
56,248,632813,2,0,B|0:248,2,45,8|0|0,0:0|0:0|0:0,0:0:0:0:
104,168,633117,6,0,B|104:120,3,45
112,96,633422,1,8,0:0:0:0:
136,72,633498,1,0,0:0:0:0:
168,64,633574,1,0,0:0:0:0:
200,64,633650,1,0,0:0:0:0:
232,72,633726,2,0,B|264:104,3,45
280,128,634031,1,8,0:0:0:0:
304,144,634107,1,0,0:0:0:0:
336,152,634183,1,0,0:0:0:0:
368,152,634259,1,8,0:0:0:0:
400,144,634335,6,0,B|464:136|504:216|464:272,1,180,2|8,0:0|0:0,0:0:0:0:
384,312,634792,1,0,0:0:0:0:
392,224,634945,1,0,0:0:0:0:
392,224,635021,1,0,0:0:0:0:
392,224,635097,1,0,0:0:0:0:
392,224,635173,1,0,0:0:0:0:
392,224,635249,2,0,B|344:224|312:264,1,90,8|0,0:0|0:0,0:0:0:0:
256,328,635554,6,0,B|312:336,2,45
168,320,635858,2,0,B|120:328|72:320,1,90,8|0,0:0|0:0,0:0:0:0:
120,240,636163,1,0,0:0:0:0:
120,208,636239,1,0,0:0:0:0:
120,176,636315,1,0,0:0:0:0:
120,144,636391,1,0,0:0:0:0:
120,112,636467,2,0,B|120:64|160:32,1,90,8|0,0:0|0:0,0:0:0:0:
216,104,636772,6,0,B|392:40,1,180,2|8,0:0|0:0,0:0:0:0:
448,112,637229,1,0,0:0:0:0:
448,112,637305,1,0,0:0:0:0:
448,112,637381,2,0,B|272:176,1,180,0|8,0:0|0:0,0:0:0:0:
256,264,637838,1,0,0:0:0:0:
256,264,637990,6,0,B|320:248,3,45
344,240,638295,2,0,B|432:208,1,90,8|0,0:0|0:0,0:0:0:0:
472,288,638599,5,0,0:0:0:0:
456,296,638676,1,0,0:0:0:0:
440,304,638752,1,0,0:0:0:0:
424,312,638828,1,0,0:0:0:0:
408,320,638904,1,8,0:0:0:0:
320,344,639056,1,0,0:0:0:0:
320,344,639132,1,8,0:0:0:0:
320,344,639209,6,0,B|224:360,1,90,2|0,0:0|0:0,0:0:0:0:
168,296,639513,2,0,B|80:312,1,90,8|0,0:0|0:0,0:0:0:0:
24,240,639818,1,0,0:0:0:0:
16,192,639894,1,0,0:0:0:0:
24,144,639970,1,0,0:0:0:0:
79,71,640122,2,0,B|168:88,1,90,8|0,0:0|0:0,0:0:0:0:
231,25,640426,6,0,B|320:40,1,90
368,48,640655,1,0,0:0:0:0:
408,56,640731,2,0,B|456:64|472:120,1,90,8|0,0:0|0:0,0:0:0:0:
472,208,641036,1,0,0:0:0:0:
472,208,641112,1,0,0:0:0:0:
472,208,641188,1,0,0:0:0:0:
384,232,641341,1,8,0:0:0:0:
384,144,641493,1,0,0:0:0:0:
296,168,641645,5,2,0:0:0:0:
296,168,641721,1,0,0:0:0:0:
296,168,641797,1,0,0:0:0:0:
296,256,641950,2,0,B|320:304,2,45,8|0|0,0:0|0:0|0:0,0:0:0:0:
216,208,642254,2,0,B|184:128|248:64|320:80,1,180,0|8,0:0|0:0,0:0:0:0:
232,16,642711,1,0,0:0:0:0:
144,16,642863,5,0,0:0:0:0:
144,16,642940,1,0,0:0:0:0:
144,16,643016,1,0,0:0:0:0:
56,16,643168,1,8,0:0:0:0:
16,96,643320,1,0,0:0:0:0:
56,176,643473,2,0,B|104:176,2,45
32,208,643701,1,0,0:0:0:0:
16,248,643777,2,0,B|16:296|56:328,1,90,8|0,0:0|0:0,0:0:0:0:
96,336,644006,1,8,0:0:0:0:
136,328,644082,6,0,B|256:368|264:232|392:280,1,270,2|0,0:0|0:0,0:0:0:0:
440,208,644691,2,0,B|304:160|184:256,1,270
168,168,645300,2,0,B|224:128|296:112,1,135
336,112,645605,2,0,B|392:112|440:128,1,90,8|0,0:0|0:0,0:0:0:0:
432,32,645909,2,0,B|480:48,4,45,0|0|0|0|8,0:0|0:0|0:0|0:0|0:0,0:0:0:0:
344,16,646366,1,0,0:0:0:0:
256,16,646518,6,0,B|152:16,1,90,2|0,0:0|0:0,0:0:0:0:
72,16,646823,2,0,B|32:56|48:112,1,90,8|0,0:0|0:0,0:0:0:0:
136,104,647127,2,0,B|208:104,4,45,0|0|0|0|8,0:0|0:0|0:0|0:0|0:0,0:0:0:0:
88,184,647584,1,0,0:0:0:0:
40,264,647737,6,0,B|112:304|144:216|224:256,1,180,0|8,0:0|0:0,0:0:0:0:
256,328,648193,1,0,0:0:0:0:
256,328,648270,1,0,0:0:0:0:
256,328,648346,2,0,B|352:328,1,90
400,256,648650,2,0,B|312:256,1,90,8|0,0:0|0:0,0:0:0:0:
256,184,648955,6,0,B|352:184,1,90,2|0,0:0|0:0,0:0:0:0:
392,176,649183,1,0,0:0:0:0:
432,152,649259,2,0,B|452:108|432:64,1,90,8|0,0:0|0:0,0:0:0:0:
352,96,649564,1,0,0:0:0:0:
328,80,649640,1,0,0:0:0:0:
304,64,649716,1,0,0:0:0:0:
280,48,649792,1,0,0:0:0:0:
256,32,649868,1,8,0:0:0:0:
168,32,650021,1,0,0:0:0:0:
80,32,650173,5,0,0:0:0:0:
168,112,650325,1,0,0:0:0:0:
88,192,650478,1,8,0:0:0:0:
0,112,650630,1,0,0:0:0:0:
80,32,650782,5,8,0:0:0:0:
32,160,650934,1,0,0:0:0:0:
64,288,651087,1,8,0:0:0:0:
192,336,651239,1,0,0:0:0:0:
328,328,651391,6,0,B|416:304,1,90,2|0,0:0|0:0,0:0:0:0:
440,264,651620,1,0,0:0:0:0:
448,216,651696,2,0,B|456:160|408:128,1,90,8|0,0:0|0:0,0:0:0:0:
320,136,652000,2,0,B|320:80,3,45
312,48,652305,2,0,B|272:16|224:32,1,90,8|0,0:0|0:0,0:0:0:0:
152,80,652610,6,0,B|80:72|40:144,1,135
40,184,652914,2,0,B|40:280,1,90,8|0,0:0|0:0,0:0:0:0:
128,248,653219,1,0,0:0:0:0:
104,336,653371,1,0,0:0:0:0:
192,312,653523,1,8,0:0:0:0:
280,336,653676,1,0,0:0:0:0:
328,344,653752,1,0,0:0:0:0:
376,336,653828,6,0,B|440:272|392:152|464:80,1,270,6|0,0:0|0:0,0:0:0:0:
504,160,654437,2,0,B|414:192|326:98|241:129,1,270
200,208,655046,2,0,B|244:240|288:208,1,90
280,48,655351,2,0,B|236:16|192:48,1,90,8|0,0:0|0:0,0:0:0:0:
160,128,655655,1,0,0:0:0:0:
72,128,655808,1,0,0:0:0:0:
112,48,655960,1,8,0:0:0:0:
24,48,656112,1,0,0:0:0:0:
48,88,656188,1,0,0:0:0:0:
72,128,656264,6,0,B|112:208|72:304,1,180,2|8,0:0|0:0,0:0:0:0:
152,344,656721,1,0,0:0:0:0:
152,344,656797,1,0,0:0:0:0:
152,344,656874,2,0,B|240:344,1,90
328,344,657178,2,0,B|376:344|408:304,1,90,8|0,0:0|0:0,0:0:0:0:
336,256,657483,5,0,0:0:0:0:
336,256,657559,1,0,0:0:0:0:
416,216,657711,1,0,0:0:0:0:
416,216,657787,2,0,B|424:168|416:120,1,90,8|0,0:0|0:0,0:0:0:0:
336,96,658092,1,0,0:0:0:0:
336,96,658168,1,0,0:0:0:0:
336,96,658244,1,0,0:0:0:0:
336,96,658320,1,0,0:0:0:0:
336,96,658396,2,0,B|288:88|240:96,1,90,8|0,0:0|0:0,0:0:0:0:
168,128,658701,6,0,B|80:176,1,90,2|0,0:0|0:0,0:0:0:0:
88,216,658929,1,0,0:0:0:0:
112,256,659006,2,0,B|160:280|208:248,1,90,8|0,0:0|0:0,0:0:0:0:
256,184,659310,1,0,0:0:0:0:
256,184,659386,1,0,0:0:0:0:
256,184,659462,1,0,0:0:0:0:
313,253,659615,2,0,B|352:280|400:256,1,90,8|0,0:0|0:0,0:0:0:0:
448,328,659919,6,0,B|360:368|272:328,1,180,0|8,0:0|0:0,0:0:0:0:
256,240,660376,1,0,0:0:0:0:
238,328,660528,2,0,B|152:368|64:328,1,180,0|8,0:0|0:0,0:0:0:0:
48,240,660985,1,0,0:0:0:0:
48,240,661061,1,0,0:0:0:0:
48,240,661138,6,0,B|48:152,1,90,2|0,0:0|0:0,0:0:0:0:
48,64,661442,1,8,0:0:0:0:
48,64,661594,1,0,0:0:0:0:
128,104,661747,2,0,B|144:48|208:40,1,90
216,128,662051,1,8,0:0:0:0:
256,144,662127,1,0,0:0:0:0:
296,128,662204,1,0,0:0:0:0:
328,48,662356,6,0,B|384:128|488:104,1,180,0|8,0:0|0:0,0:0:0:0:
424,32,662813,1,0,0:0:0:0:
424,32,662965,2,0,B|360:208,1,180,0|8,0:0|0:0,0:0:0:0:
440,248,663422,2,2,B|464:192,2,45,0|8|2,0:0|0:0|0:0,0:0:0:0:
352,280,663726,5,0,0:0:0:0:
352,280,663802,1,0,0:0:0:0:
352,280,663879,1,8,0:0:0:0:
264,304,664031,1,0,0:0:0:0:
176,280,664183,2,0,B|152:328|104:336,1,90
96,248,664488,1,8,0:0:0:0:
96,248,664564,1,0,0:0:0:0:
96,248,664640,1,0,0:0:0:0:
32,304,664792,6,0,B|-8:240|16:176|96:160,1,180,0|8,0:0|0:0,0:0:0:0:
168,192,665249,1,0,0:0:0:0:
168,192,665325,1,0,0:0:0:0:
168,192,665401,1,0,0:0:0:0:
168,104,665554,1,0,0:0:0:0:
168,104,665630,1,0,0:0:0:0:
168,104,665706,1,8,0:0:0:0:
232,40,665858,1,0,0:0:0:0:
320,40,666011,6,0,B|400:24|408:104|488:88,1,180,2|8,0:0|0:0,0:0:0:0:
488,176,666467,1,0,0:0:0:0:
488,176,666620,2,0,B|488:232,3,45
488,264,666924,2,0,B|496:312|448:336,1,90,8|0,0:0|0:0,0:0:0:0:
400,248,667229,5,0,0:0:0:0:
376,296,667381,1,0,0:0:0:0:
320,320,667533,1,8,0:0:0:0:
248,328,667686,1,0,0:0:0:0:
168,328,667838,5,8,0:0:0:0:
80,304,667990,1,0,0:0:0:0:
32,216,668143,1,8,0:0:0:0:
32,112,668295,1,0,0:0:0:0:
80,8,668447,6,0,B|168:40,1,90,6|0,0:0|0:0,0:0:0:0:
432,8,668752,2,0,B|344:40,1,90,8|0,0:0|0:0,0:0:0:0:
120,112,669056,2,0,B|164:136|208:112,1,90
392,112,669361,2,0,B|348:136|304:112,1,90,8|0,0:0|0:0,0:0:0:0:
312,200,669665,5,0,0:0:0:0:
312,200,669742,1,0,0:0:0:0:
312,200,669818,1,0,0:0:0:0:
256,272,669970,2,0,B|296:288,2,45,8|0|0,0:0|0:0|0:0,0:0:0:0:
216,192,670275,2,0,B|168:224|168:272,1,90
208,344,670579,2,0,B|160:360|112:336,1,90,8|0,0:0|0:0,0:0:0:0:
88,256,670884,5,2,0:0:0:0:
88,208,670960,1,0,0:0:0:0:
88,160,671036,1,0,0:0:0:0:
88,72,671188,2,0,B|112:48|152:48|176:80,1,90,8|0,0:0|0:0,0:0:0:0:
256,104,671493,1,0,0:0:0:0:
288,88,671569,1,0,0:0:0:0:
320,72,671645,1,0,0:0:0:0:
408,72,671797,2,0,B|448:96|456:144,1,90,8|0,0:0|0:0,0:0:0:0:
456,232,672102,6,0,B|424:344|320:368|320:368|240:368,1,270
168,344,672711,2,0,B|128:328|128:328|104:288,1,90
104,240,672940,1,0,0:0:0:0:
120,200,673016,1,8,0:0:0:0:
184,264,673168,1,0,0:0:0:0:
216,176,673320,6,0,B|320:200|376:120,1,180,4|8,0:0|0:0,0:0:0:0:
448,64,673777,1,0,0:0:0:0:
464,88,673853,1,0,0:0:0:0:
456,120,673929,1,0,0:0:0:0:
472,144,674006,1,0,0:0:0:0:
464,176,674082,1,0,0:0:0:0:
384,216,674234,2,0,B|336:256,2,45,8|0|0,0:0|0:0|0:0,0:0:0:0:
456,264,674539,5,0,0:0:0:0:
456,264,674615,1,0,0:0:0:0:
456,264,674691,1,0,0:0:0:0:
384,320,674843,1,8,0:0:0:0:
384,320,674919,1,0,0:0:0:0:
384,320,674995,1,0,0:0:0:0:
296,336,675148,1,0,0:0:0:0:
208,320,675300,1,0,0:0:0:0:
120,336,675452,1,8,0:0:0:0:
32,312,675605,1,0,0:0:0:0:
8,224,675757,6,0,B|0:128|80:88,1,135,2|0,0:0|0:0,0:0:0:0:
96,96,676061,2,0,B|144:88|192:96,1,90,8|0,0:0|0:0,0:0:0:0:
144,176,676366,1,0,0:0:0:0:
144,176,676442,1,0,0:0:0:0:
144,176,676518,1,0,0:0:0:0:
232,176,676671,2,0,B|272:152|272:96,1,90,8|0,0:0|0:0,0:0:0:0:
352,56,676975,5,0,0:0:0:0:
464,24,677127,1,0,0:0:0:0:
496,136,677280,1,8,0:0:0:0:
384,168,677432,1,0,0:0:0:0:
352,56,677584,5,8,0:0:0:0:
448,176,677737,1,0,0:0:0:0:
400,320,677889,1,8,0:0:0:0:
248,344,678041,1,0,0:0:0:0:
144,232,678193,5,4,0:0:0:0:
144,232,678346,1,0,0:0:0:0:
144,232,678498,2,0,B|168:152|104:112,1,135,8|0,0:0|0:0,0:0:0:0:
64,112,678802,2,0,B|24:144|24:192,1,90
64,272,679107,2,0,B|48:320,2,45,8|0|0,0:0|0:0|0:0,0:0:0:0:
136,320,679412,5,0,0:0:0:0:
136,320,679488,1,0,0:0:0:0:
136,320,679564,1,0,0:0:0:0:
216,280,679716,2,0,B|240:240|224:192,1,90,8|0,0:0|0:0,0:0:0:0:
192,112,680021,1,0,0:0:0:0:
216,96,680097,1,0,0:0:0:0:
232,72,680173,1,0,0:0:0:0:
256,56,680249,1,0,0:0:0:0:
280,40,680325,2,0,B|328:32|376:40,1,90,8|0,0:0|0:0,0:0:0:0:
392,56,680554,1,0,0:0:0:0:
416,72,680630,6,0,B|424:120|416:168,1,90,2|0,0:0|0:0,0:0:0:0:
336,208,680934,2,0,B|328:160|336:112,1,90,8|0,0:0|0:0,0:0:0:0:
416,240,681239,6,0,B|424:288|416:336,1,90
336,376,681543,2,0,B|328:328|336:280,1,90,8|0,0:0|0:0,0:0:0:0:
304,272,681772,1,0,0:0:0:0:
272,264,681848,6,0,B|224:248,2,45
232,344,682153,2,0,B|144:304|48:344,1,180
24,256,682610,1,0,0:0:0:0:
40,232,682686,1,0,0:0:0:0:
48,208,682762,2,0,B|56:160|48:112,1,90,8|8,0:0|0:0,0:0:0:0:
40,88,682990,1,0,0:0:0:0:
48,56,683066,6,0,B|128:-8|224:16,1,180,6|8,0:0|0:0,0:0:0:0:
224,104,683523,1,0,0:0:0:0:
224,104,683599,1,0,0:0:0:0:
144,144,683752,1,0,0:0:0:0:
144,144,683828,1,0,0:0:0:0:
144,144,683904,1,0,0:0:0:0:
144,144,683980,2,0,B|160:192|208:200,1,90,8|0,0:0|0:0,0:0:0:0:
256,200,684209,1,0,0:0:0:0:
304,184,684285,5,0,0:0:0:0:
416,144,684437,1,0,0:0:0:0:
432,32,684589,1,8,0:0:0:0:
320,72,684742,1,0,0:0:0:0:
304,184,684894,5,8,0:0:0:0:
440,240,685046,1,0,0:0:0:0:
296,264,685198,1,8,0:0:0:0:
432,320,685351,1,0,0:0:0:0:
288,344,685503,6,0,B|200:304|120:368,1,180,2|8,0:0|0:0,0:0:0:0:
40,328,685960,1,0,0:0:0:0:
56,304,686036,1,0,0:0:0:0:
56,280,686112,1,0,0:0:0:0:
72,256,686188,1,0,0:0:0:0:
72,232,686264,1,0,0:0:0:0:
32,152,686417,2,0,B|8:96|72:64,1,90,8|0,0:0|0:0,0:0:0:0:
120,136,686721,6,0,B|168:152,3,45
184,112,687026,2,0,B|232:112,3,45,8|0|0|0,0:0|0:0|0:0|0:0,0:0:0:0:
240,72,687330,2,0,B|280:56,3,45
272,8,687635,1,8,0:0:0:0:
360,32,687787,1,8,0:0:0:0:
392,64,687863,1,0,0:0:0:0:
400,112,687940,6,0,B|400:160,2,45,2|0|0,0:0|0:0|0:0,0:0:0:0:
312,128,688244,2,0,B|264:224,1,90,8|0,0:0|0:0,0:0:0:0:
360,240,688549,1,0,0:0:0:0:
360,240,688625,1,0,0:0:0:0:
360,240,688701,1,0,0:0:0:0:
448,224,688853,2,0,B|456:312|368:352|304:312,1,180,8|0,0:0|0:0,0:0:0:0:
272,264,689310,5,0,0:0:0:0:
272,264,689386,1,0,0:0:0:0:
272,264,689462,1,8,0:0:0:0:
248,352,689615,1,0,0:0:0:0:
160,352,689767,1,0,0:0:0:0:
136,352,689843,1,0,0:0:0:0:
112,344,689919,1,0,0:0:0:0:
88,344,689995,1,0,0:0:0:0:
64,336,690072,2,0,B|16:328|8:272,1,90,8|0,0:0|0:0,0:0:0:0:
96,248,690376,6,0,B|88:194|40:186,1,90,2|0,0:0|0:0,0:0:0:0:
24,144,690605,1,0,0:0:0:0:
40,104,690681,2,0,B|88:96|136:104,1,90,8|0,0:0|0:0,0:0:0:0:
184,168,690985,1,0,0:0:0:0:
184,168,691061,1,0,0:0:0:0:
184,168,691138,1,0,0:0:0:0:
184,168,691214,1,0,0:0:0:0:
184,168,691290,2,0,B|232:176|280:168,1,90,8|0,0:0|0:0,0:0:0:0:
232,88,691594,6,0,B|304:24|400:32,1,180,0|8,0:0|0:0,0:0:0:0:
464,96,692051,2,0,B|488:56,2,45
392,152,692356,1,0,0:0:0:0:
392,152,692432,1,0,0:0:0:0:
392,152,692508,1,8,0:0:0:0:
312,120,692660,1,0,0:0:0:0:
304,208,692813,6,0,B|320:256|368:264,2,90,4|0|8,0:0|0:0|0:0,0:0:0:0:
232,152,693270,1,0,0:0:0:0:
208,128,693346,1,0,0:0:0:0:
184,104,693422,1,0,0:0:0:0:
144,184,693574,1,0,0:0:0:0:
112,168,693650,1,0,0:0:0:0:
80,152,693726,1,8,0:0:0:0:
72,240,693879,1,0,0:0:0:0:
72,240,694031,5,0,0:0:0:0:
72,240,694107,2,0,B|136:304,1,90
184,304,694335,2,0,B|248:240,1,90,8|0,0:0|0:0,0:0:0:0:
336,240,694640,5,0,0:0:0:0:
360,256,694716,1,0,0:0:0:0:
392,264,694792,1,0,0:0:0:0:
424,256,694868,1,0,0:0:0:0:
448,240,694945,1,8,0:0:0:0:
392,168,695097,1,0,0:0:0:0:
392,80,695249,6,0,B|440:80,2,45,2|0|0,0:0|0:0|0:0,0:0:0:0:
312,128,695554,2,0,B|312:72|264:32,1,90,8|0,0:0|0:0,0:0:0:0:
192,48,695858,1,0,0:0:0:0:
160,48,695934,1,0,0:0:0:0:
128,56,696011,1,0,0:0:0:0:
104,72,696087,1,0,0:0:0:0:
80,96,696163,2,0,B|64:144|64:184,1,90,8|0,0:0|0:0,0:0:0:0:
152,160,696467,5,0,0:0:0:0:
152,160,696544,1,0,0:0:0:0:
120,240,696696,1,0,0:0:0:0:
120,240,696772,2,0,B|200:296,1,90,8|0,0:0|0:0,0:0:0:0:
360,160,697077,5,0,0:0:0:0:
360,160,697154,1,0,0:0:0:0:
392,240,697306,1,0,0:0:0:0:
392,240,697382,2,0,B|312:296,1,90,8|0,0:0|0:0,0:0:0:0:
256,232,697686,6,0,B|256:144,1,90,2|0,0:0|0:0,0:0:0:0:
320,80,697990,1,8,0:0:0:0:
256,16,698143,1,0,0:0:0:0:
216,40,698219,1,0,0:0:0:0:
176,64,698295,2,0,B|136:88|136:88|96:64,1,90
24,16,698599,1,8,0:0:0:0:
16,64,698676,1,0,0:0:0:0:
24,112,698752,1,0,0:0:0:0:
104,160,698904,6,0,B|16:208|8:312,2,180,0|8|0,0:0|0:0|0:0,0:0:0:0:
192,160,699665,2,0,B|232:144,2,45,0|0|8,0:0|0:0|0:0,0:0:0:0:
144,240,699970,1,0,0:0:0:0:
232,240,700122,5,2,0:0:0:0:
184,320,700275,1,0,0:0:0:0:
272,320,700427,1,8,0:0:0:0:
320,240,700579,1,0,0:0:0:0:
336,272,700655,1,0,0:0:0:0:
360,296,700731,1,0,0:0:0:0:
392,312,700808,1,0,0:0:0:0:
424,320,700884,1,0,0:0:0:0:
464,240,701036,2,0,B|416:240|392:192,1,90,8|0,0:0|0:0,0:0:0:0:
472,152,701341,5,0,0:0:0:0:
472,152,701493,1,0,0:0:0:0:
472,64,701645,1,8,0:0:0:0:
472,64,701721,1,0,0:0:0:0:
472,64,701797,1,0,0:0:0:0:
392,112,701950,1,0,0:0:0:0:
376,80,702026,1,0,0:0:0:0:
352,56,702102,1,0,0:0:0:0:
320,40,702178,1,0,0:0:0:0:
288,32,702254,1,8,0:0:0:0:
200,32,702407,1,0,0:0:0:0:
112,32,702559,6,0,B|64:32,2,45,6|0|0,0:0|0:0|0:0,0:0:0:0:
152,112,702863,2,0,B|208:112,2,45,8|0|0,0:0|0:0|0:0,0:0:0:0:
64,112,703168,2,0,B|64:208,1,90
152,200,703473,2,0,B|152:248|112:280,1,90,8|0,0:0|0:0,0:0:0:0:
176,344,703777,6,0,B|248:280|240:176,1,180,0|8,0:0|0:0,0:0:0:0:
320,144,704234,1,0,0:0:0:0:
320,144,704310,1,0,0:0:0:0:
320,144,704386,1,0,0:0:0:0:
320,232,704539,1,0,0:0:0:0:
352,320,704691,1,8,0:0:0:0:
440,352,704843,1,0,0:0:0:0:
352,320,704995,6,0,B|416:256,1,90,2|0,0:0|0:0,0:0:0:0:
440,216,705224,1,0,0:0:0:0:
456,176,705300,2,0,B|472:128|456:80,1,90,8|0,0:0|0:0,0:0:0:0:
368,64,705605,2,0,B|320:48,3,45
280,40,705909,1,8,0:0:0:0:
240,24,705985,1,0,0:0:0:0:
200,40,706061,1,0,0:0:0:0:
240,120,706214,6,0,B|240:176,1,45
152,144,706442,2,0,B|152:96,1,45,0|8,0:0|0:0,0:0:0:0:
64,120,706671,1,0,0:0:0:0:
64,120,706823,2,0,B|64:176,3,45
64,208,707127,2,0,B|64:296,1,90,8|0,0:0|0:0,0:0:0:0:
152,296,707432,6,0,B|152:248,2,45,2|0|0,0:0|0:0|0:0,0:0:0:0:
240,272,707737,2,0,B|240:320,2,45,8|0|0,0:0|0:0|0:0,0:0:0:0:
328,296,708041,2,0,B|328:248,2,45
416,272,708346,1,8,0:0:0:0:
416,240,708422,1,0,0:0:0:0:
416,208,708498,1,0,0:0:0:0:
416,176,708574,1,0,0:0:0:0:
416,144,708650,6,0,B|392:64|320:40,1,135
288,40,708955,2,0,B|152:40,1,135,8|0,0:0|0:0,0:0:0:0:
112,40,709259,1,0,0:0:0:0:
56,112,709412,1,0,0:0:0:0:
136,152,709564,1,8,0:0:0:0:
80,224,709716,1,0,0:0:0:0:
160,256,709868,6,0,B|136:304,3,45,2|0|0|0,0:0|0:0|0:0|0:0,0:0:0:0:
184,296,710173,2,0,B|184:344,3,45,8|0|0|0,0:0|0:0|0:0|0:0,0:0:0:0:
224,320,710478,2,0,B|248:368,3,45
272,328,710782,2,0,B|312:352,3,45,8|0|0|0,0:0|0:0|0:0|0:0,0:0:0:0:
320,304,711087,6,0,B|320:240|320:240|328:192|328:192|328:120,1,180,0|8,0:0|0:0,0:0:0:0:
256,72,711544,1,0,0:0:0:0:
184,128,711696,1,0,0:0:0:0:
184,128,711772,1,0,0:0:0:0:
184,128,711848,1,0,0:0:0:0:
112,72,712000,1,8,0:0:0:0:
40,128,712153,1,0,0:0:0:0:
112,184,712305,1,4,0:0:0:0:
120,128,722301,6,0,B|80:48,2,90,4|0|8,0:0|0:0|0:0,0:0:0:0:
88,216,722769,1,0,0:0:0:0:
120,248,722847,2,0,B|164:272|208:248,1,90
240,216,723082,1,0,0:0:0:0:
208,128,723238,2,0,B|248:48,1,90,8|0,0:0|0:0,0:0:0:0:
336,48,723551,5,0,0:0:0:0:
384,40,723629,1,0,0:0:0:0:
432,48,723707,1,0,0:0:0:0:
472,72,723785,1,0,0:0:0:0:
496,112,723863,2,0,B|504:160|496:208,1,90,8|0,0:0|0:0,0:0:0:0:
416,160,724176,1,0,0:0:0:0:
416,160,724254,1,0,0:0:0:0:
416,160,724332,1,0,0:0:0:0:
416,248,724488,1,8,0:0:0:0:
496,296,724644,1,0,0:0:0:0:
416,344,724801,5,0,0:0:0:0:
376,328,724879,1,0,0:0:0:0:
336,336,724957,1,0,0:0:0:0:
296,320,725035,1,0,0:0:0:0:
256,328,725113,1,8,0:0:0:0:
216,312,725191,1,0,0:0:0:0:
176,320,725269,1,0,0:0:0:0:
88,320,725426,2,0,B|48:296|40:248,1,90
128,240,725738,2,0,B|119:191|79:167,1,90,8|0,0:0|0:0,0:0:0:0:
48,88,726051,6,0,B|64:40,3,45
104,64,726363,2,0,B|136:32,3,45,8|0|0|0,0:0|0:0|0:0|0:0,0:0:0:0:
168,64,726676,1,0,0:0:0:0:
208,48,726754,1,0,0:0:0:0:
248,40,726832,1,0,0:0:0:0:
288,48,726910,1,0,0:0:0:0:
328,64,726988,1,8,0:0:0:0:
368,72,727066,1,0,0:0:0:0:
408,64,727144,1,8,0:0:0:0:
464,136,727301,6,0,B|496:104,2,45
376,160,727613,2,0,B|368:208|376:256,1,90,8|0,0:0|0:0,0:0:0:0:
464,272,727926,6,0,B|496:304,2,45
432,304,728160,1,0,0:0:0:0:
392,320,728238,2,0,B|344:328|296:320,1,90,8|0,0:0|0:0,0:0:0:0:
256,248,728551,5,0,0:0:0:0:
216,272,728629,1,0,0:0:0:0:
184,304,728707,1,0,0:0:0:0:
144,328,728785,1,0,0:0:0:0:
104,352,728863,2,0,B|56:344|32:296,1,90,8|0,0:0|0:0,0:0:0:0:
104,240,729176,2,0,B|82:196|34:188,1,90
16,144,729410,1,0,0:0:0:0:
32,104,729488,2,0,B|79:96|101:52,1,90,8|0,0:0|0:0,0:0:0:0:
192,48,729801,5,0,0:0:0:0:
240,48,729879,1,0,0:0:0:0:
288,56,729957,1,0,0:0:0:0:
328,72,730035,1,0,0:0:0:0:
360,104,730113,1,8,0:0:0:0:
384,144,730191,1,0,0:0:0:0:
392,192,730269,1,0,0:0:0:0:
320,336,730426,5,0,0:0:0:0:
272,336,730504,1,0,0:0:0:0:
224,328,730582,1,0,0:0:0:0:
184,312,730660,1,0,0:0:0:0:
152,280,730738,1,8,0:0:0:0:
128,240,730816,1,0,0:0:0:0:
120,192,730894,1,0,0:0:0:0:
120,104,731051,5,0,0:0:0:0:
392,280,731207,1,0,0:0:0:0:
208,216,731363,1,8,0:0:0:0:
304,168,731519,1,0,0:0:0:0:
208,128,731676,1,0,0:0:0:0:
304,256,731832,1,0,0:0:0:0:
120,256,731988,1,8,0:0:0:0:
392,128,732144,1,0,0:0:0:0:
256,192,732301,5,4,0:0:0:0:
256,192,732379,1,0,0:0:0:0:
256,192,732457,1,0,0:0:0:0:
272,104,732613,1,8,0:0:0:0:
200,56,732769,1,0,0:0:0:0:
200,56,732847,2,0,B|152:48|104:56,1,90,8|8,0:0|0:0,0:0:0:0:
32,104,733160,1,0,0:0:0:0:
32,104,733238,1,8,0:0:0:0:
48,192,733394,1,0,0:0:0:0:
128,240,733551,6,0,B|104:288,2,45
208,272,733863,1,8,0:0:0:0:
296,272,734019,1,0,0:0:0:0:
296,272,734097,2,0,B|352:344,2,90,8|8|0,0:0|0:0|0:0,0:0:0:0:
336,248,734488,2,0,B|376:216|424:232,1,90,8|0,0:0|0:0,0:0:0:0:
464,152,734801,5,0,0:0:0:0:
456,104,734879,1,0,0:0:0:0:
432,64,734957,1,0,0:0:0:0:
392,40,735035,1,0,0:0:0:0:
344,32,735113,1,8,0:0:0:0:
256,32,735269,1,0,0:0:0:0:
256,32,735347,2,0,B|168:32,1,90,8|8,0:0|0:0,0:0:0:0:
72,32,735660,1,0,0:0:0:0:
72,32,735738,2,0,B|32:56|16:104,1,90,8|0,0:0|0:0,0:0:0:0:
104,120,736051,6,0,B|152:120,2,45
48,192,736363,1,8,0:0:0:0:
32,280,736519,1,0,0:0:0:0:
32,304,736597,2,0,B|40:352|88:368,1,90,8|8,0:0|0:0,0:0:0:0:
176,368,736910,1,0,0:0:0:0:
200,360,736988,1,8,0:0:0:0:
224,360,737066,1,0,0:0:0:0:
248,352,737144,1,8,0:0:0:0:
272,352,737222,1,0,0:0:0:0:
296,344,737301,6,0,B|336:328|336:328|384:328,1,90
464,280,737613,1,8,0:0:0:0:
464,192,737769,1,0,0:0:0:0:
464,192,737847,2,0,B|464:104,1,90,8|8,0:0|0:0,0:0:0:0:
392,48,738160,1,0,0:0:0:0:
392,48,738238,2,0,B|344:40|296:48,1,90,8|0,0:0|0:0,0:0:0:0:
256,120,738551,5,0,0:0:0:0:
256,120,738629,1,0,0:0:0:0:
256,120,738707,1,0,0:0:0:0:
208,48,738863,1,8,0:0:0:0:
168,32,738941,1,0,0:0:0:0:
120,32,739019,1,0,0:0:0:0:
80,48,739097,2,0,B|48:80|40:128,1,90,8|8,0:0|0:0,0:0:0:0:
40,216,739410,1,0,0:0:0:0:
40,264,739488,1,8,0:0:0:0:
48,312,739566,1,0,0:0:0:0:
72,352,739644,1,0,0:0:0:0:
136,288,739801,6,0,B|104:240|136:184,2,90,0|0|8,0:0|0:0|0:0,0:0:0:0:
216,328,740269,1,0,0:0:0:0:
264,328,740347,2,0,B|352:328,1,90,8|8,0:0|0:0,0:0:0:0:
448,328,740660,1,0,0:0:0:0:
448,328,740738,1,8,0:0:0:0:
408,248,740894,1,0,0:0:0:0:
448,168,741051,6,0,B|472:128,2,45,2|0|0,0:0|0:0|0:0,0:0:0:0:
368,128,741363,2,0,B|384:80,2,45,10|0|0,0:0|0:0|0:0,0:0:0:0:
280,112,741676,2,0,B|280:56,4,45,2|0|0|0|10,0:0|0:0|0:0|0:0|0:0,0:0:0:0:
192,128,742144,1,0,0:0:0:0:
112,160,742301,6,0,B|96:112|128:72,2,90,4|0|8,0:0|0:0|0:0,0:0:0:0:
176,216,742769,1,0,0:0:0:0:
176,216,742847,2,0,B|264:184,2,90,8|8|0,0:0|0:0|0:0,0:0:0:0:
136,232,743238,2,0,B|88:248|72:296,1,90,8|0,0:0|0:0,0:0:0:0:
160,312,743551,5,0,0:0:0:0:
200,296,743629,1,0,0:0:0:0:
240,280,743707,1,0,0:0:0:0:
280,296,743785,1,0,0:0:0:0:
320,312,743863,1,8,0:0:0:0:
360,232,744019,1,0,0:0:0:0:
360,232,744097,2,0,B|408:232|408:232|448:192,1,90,8|8,0:0|0:0,0:0:0:0:
440,112,744410,1,0,0:0:0:0:
440,112,744488,2,0,B|408:80|408:80|360:80,1,90,8|0,0:0|0:0,0:0:0:0:
304,152,744801,6,0,B|352:152,2,45
264,136,745035,1,0,0:0:0:0:
224,120,745113,1,8,0:0:0:0:
176,40,745269,1,0,0:0:0:0:
176,40,745347,1,8,0:0:0:0:
128,120,745504,2,0,B|120:168|128:216,1,90,8|0,0:0|0:0,0:0:0:0:
160,240,745738,2,0,B|168:288|160:336,1,90,8|0,0:0|0:0,0:0:0:0:
80,288,746051,5,0,0:0:0:0:
48,256,746129,1,0,0:0:0:0:
16,224,746207,1,0,0:0:0:0:
16,136,746363,1,8,0:0:0:0:
16,48,746519,1,0,0:0:0:0:
16,48,746597,2,0,B|56:24|56:24|96:48|96:48|96:48,1,90,8|8,0:0|0:0,0:0:0:0:
160,104,746910,1,0,0:0:0:0:
192,96,746988,1,8,0:0:0:0:
216,80,747066,1,0,0:0:0:0:
248,72,747144,1,8,0:0:0:0:
272,56,747222,1,0,0:0:0:0:
304,48,747301,6,0,B|392:48,1,90
472,88,747613,1,8,0:0:0:0:
448,128,747691,1,0,0:0:0:0:
408,144,747769,1,0,0:0:0:0:
360,144,747847,2,0,B|312:144|272:176,1,90,8|8,0:0|0:0,0:0:0:0:
344,240,748160,1,0,0:0:0:0:
344,240,748238,2,0,B|432:240,1,90,8|0,0:0|0:0,0:0:0:0:
384,320,748551,6,0,B|416:352,2,45
336,312,748785,1,0,0:0:0:0:
288,320,748863,2,0,B|240:328|192:320,1,90,8|0,0:0|0:0,0:0:0:0:
152,312,749097,2,0,B|104:304|56:312,1,90,8|8,0:0|0:0,0:0:0:0:
24,232,749410,1,0,0:0:0:0:
24,232,749488,2,0,B|32:184|24:136,1,90,8|0,0:0|0:0,0:0:0:0:
80,72,749801,5,0,0:0:0:0:
112,64,749879,1,0,0:0:0:0:
144,56,749957,1,0,0:0:0:0:
176,48,750035,1,0,0:0:0:0:
208,40,750113,2,0,B|256:32|304:40,1,90,8|0,0:0|0:0,0:0:0:0:
336,64,750347,2,0,B|384:72|432:64,1,90,8|8,0:0|0:0,0:0:0:0:
448,152,750660,2,0,B|496:144,2,45,0|8|0,0:0|0:0|0:0,0:0:0:0:
400,152,750894,1,8,0:0:0:0:
312,152,751051,6,0,B|224:128,1,90
136,152,751363,1,8,0:0:0:0:
96,136,751441,1,0,0:0:0:0:
48,136,751519,1,0,0:0:0:0:
8,152,751597,2,0,B|0:200|8:248,1,90,8|8,0:0|0:0,0:0:0:0:
72,304,751910,1,0,0:0:0:0:
72,304,751988,1,8,0:0:0:0:
136,240,752144,1,8,0:0:0:0:
160,328,752301,6,0,B|208:304|224:256,1,90,4|0,0:0|0:0,0:0:0:0:
288,328,752613,2,0,B|376:328,1,90,8|0,0:0|0:0,0:0:0:0:
424,328,752847,1,8,0:0:0:0:
464,248,753004,1,8,0:0:0:0:
424,168,753160,1,0,0:0:0:0:
424,168,753238,2,0,B|376:168,2,45,8|0|0,0:0|0:0|0:0,0:0:0:0:
464,88,753551,5,0,0:0:0:0:
424,64,753629,1,0,0:0:0:0:
384,40,753707,1,0,0:0:0:0:
304,88,753863,1,8,0:0:0:0:
224,40,754019,1,0,0:0:0:0:
224,40,754097,2,0,B|144:88,1,90,8|8,0:0|0:0,0:0:0:0:
72,40,754410,1,0,0:0:0:0:
40,72,754488,1,8,0:0:0:0:
32,112,754566,1,0,0:0:0:0:
40,152,754644,1,8,0:0:0:0:
72,184,754722,1,0,0:0:0:0:
120,192,754801,6,0,B|200:144,2,90,0|0|8,0:0|0:0|0:0,0:0:0:0:
96,232,755191,1,0,0:0:0:0:
96,280,755269,1,0,0:0:0:0:
120,320,755347,2,0,B|168:328|216:320,1,90,8|8,0:0|0:0,0:0:0:0:
256,248,755660,1,0,0:0:0:0:
256,248,755738,1,8,0:0:0:0:
256,248,755816,1,0,0:0:0:0:
256,248,755894,1,8,0:0:0:0:
304,320,756051,6,0,B|352:328|400:320,1,90,0|0,0:0|0:0,0:0:0:0:
448,248,756363,1,8,0:0:0:0:
448,248,756441,1,0,0:0:0:0:
448,248,756519,1,0,0:0:0:0:
448,248,756597,2,0,B|456:200|448:152,1,90,8|8,0:0|0:0,0:0:0:0:
392,88,756910,1,0,0:0:0:0:
352,72,756988,1,8,0:0:0:0:
304,80,757066,1,0,0:0:0:0:
264,64,757144,1,8,0:0:0:0:
216,72,757222,1,0,0:0:0:0:
176,56,757301,6,0,B|88:40,1,90
32,112,757613,1,8,0:0:0:0:
32,112,757691,2,0,B|80:128|72:184,1,90,0|8,0:0|0:0,0:0:0:0:
32,264,758004,1,8,0:0:0:0:
72,344,758160,1,0,0:0:0:0:
112,328,758238,1,8,0:0:0:0:
160,328,758316,1,0,0:0:0:0:
200,344,758394,1,8,0:0:0:0:
248,344,758472,1,0,0:0:0:0:
288,328,758551,6,0,B|288:240,2,90,4|0|8,0:0|0:0|0:0,0:0:0:0:
328,344,758941,1,0,0:0:0:0:
376,344,759019,1,0,0:0:0:0:
416,328,759097,2,0,B|416:280|456:248,1,90,8|8,0:0|0:0,0:0:0:0:
456,160,759410,1,0,0:0:0:0:
448,112,759488,1,8,0:0:0:0:
432,72,759566,1,0,0:0:0:0:
408,32,759644,1,8,0:0:0:0:
320,32,759801,5,4,0:0:0:0:
272,24,759879,1,0,0:0:0:0:
224,32,759957,1,0,0:0:0:0:
176,24,760035,1,0,0:0:0:0:
128,32,760113,2,0,B|80:48|64:96,1,90,8|0,0:0|0:0,0:0:0:0:
152,112,760426,5,0,0:0:0:0:
128,152,760504,1,0,0:0:0:0:
88,168,760582,1,0,0:0:0:0:
56,200,760660,1,0,0:0:0:0:
40,240,760738,1,8,0:0:0:0:
40,328,760894,1,0,0:0:0:0:
120,288,761051,6,0,B|128:232,3,45
168,256,761363,2,0,B|192:216,3,45,8|0|0|0,0:0|0:0|0:0|0:0,0:0:0:0:
224,248,761676,1,0,0:0:0:0:
256,216,761754,1,0,0:0:0:0:
296,192,761832,1,0,0:0:0:0:
336,184,761910,1,0,0:0:0:0:
384,184,761988,1,8,0:0:0:0:
424,192,762066,1,0,0:0:0:0:
464,216,762144,1,8,0:0:0:0:
488,128,762301,1,4,0:0:0:0:
256,192,762379,12,0,763238,0:0:0:0:
344,192,763551,5,8,0:0:0:0:
168,192,763863,1,8,0:0:0:0:
256,352,764176,1,8,0:0:0:0:
256,264,764332,1,8,0:0:0:0:
256,216,764410,1,8,0:0:0:0:
256,168,764488,1,8,0:0:0:0:
256,80,764644,1,8,0:0:0:0:
168,104,764801,5,0,0:0:0:0:
128,80,764879,1,0,0:0:0:0:
80,80,764957,1,0,0:0:0:0:
40,104,765035,1,0,0:0:0:0:
16,144,765113,1,8,0:0:0:0:
16,192,765191,1,0,0:0:0:0:
40,232,765269,1,8,0:0:0:0:
112,176,765426,5,0,0:0:0:0:
136,216,765504,1,0,0:0:0:0:
136,264,765582,1,0,0:0:0:0:
112,304,765660,1,0,0:0:0:0:
72,320,765738,1,8,0:0:0:0:
112,304,765816,1,0,0:0:0:0:
136,264,765894,1,8,0:0:0:0:
208,320,766051,6,0,B|216:272,1,45
256,296,766207,2,0,B|272:256,1,45
304,288,766363,2,0,B|336:248,1,45,8|0,0:0|0:0,0:0:0:0:
352,296,766519,2,0,B|392:272,1,45,0|0,0:0|0:0,0:0:0:0:
400,320,766676,5,0,0:0:0:0:
432,328,766754,1,0,0:0:0:0:
464,320,766832,1,0,0:0:0:0:
488,296,766910,1,0,0:0:0:0:
496,264,766988,1,8,0:0:0:0:
488,232,767066,1,0,0:0:0:0:
472,208,767144,1,8,0:0:0:0:
464,176,767222,1,0,0:0:0:0:
472,144,767301,5,0,0:0:0:0:
488,120,767379,1,0,0:0:0:0:
496,88,767457,1,0,0:0:0:0:
488,56,767535,1,0,0:0:0:0:
472,32,767613,1,8,0:0:0:0:
440,16,767691,1,0,0:0:0:0:
408,16,767769,1,0,0:0:0:0:
376,32,767847,1,0,0:0:0:0:
352,56,767926,2,0,B|352:104,3,45,0|0|0|0,0:0|0:0|0:0|0:0,0:0:0:0:
336,128,768238,2,0,B|336:184,3,45,8|0|0|0,0:0|0:0|0:0|0:0,0:0:0:0:
312,192,768551,5,0,0:0:0:0:
288,208,768629,1,0,0:0:0:0:
256,216,768707,1,0,0:0:0:0:
224,208,768785,1,0,0:0:0:0:
200,192,768863,1,8,0:0:0:0:
168,184,768941,1,0,0:0:0:0:
136,192,769019,2,0,B|64:232|64:328|120:368|184:376|224:344,1,270,0|8,0:0|0:0,0:0:0:0:
176,272,769644,1,0,0:0:0:0:
264,304,769801,5,0,0:0:0:0:
352,328,769957,1,0,0:0:0:0:
392,312,770035,1,0,0:0:0:0:
432,288,770113,1,8,0:0:0:0:
464,256,770191,1,0,0:0:0:0:
488,216,770269,1,0,0:0:0:0:
488,128,770426,5,0,0:0:0:0:
432,56,770582,1,0,0:0:0:0:
392,32,770660,1,0,0:0:0:0:
344,24,770738,1,8,0:0:0:0:
296,32,770816,1,0,0:0:0:0:
256,56,770894,1,8,0:0:0:0:
168,24,771051,6,0,B|120:48,3,45
88,64,771363,1,8,0:0:0:0:
88,64,771441,1,0,0:0:0:0:
168,112,771597,2,0,B|64:160|64:160|32:264,1,225,0|8,0:0|0:0,0:0:0:0:
72,344,772144,1,0,0:0:0:0:
128,280,772300,5,0,0:0:0:0:
168,304,772379,1,0,0:0:0:0:
216,304,772457,1,0,0:0:0:0:
256,280,772535,1,0,0:0:0:0:
272,240,772613,1,8,0:0:0:0:
272,192,772691,1,0,0:0:0:0:
256,152,772769,1,0,0:0:0:0:
216,128,772847,1,0,0:0:0:0:
168,128,772925,5,8,0:0:0:0:
128,152,773004,1,0,0:0:0:0:
112,192,773082,1,0,0:0:0:0:
112,240,773160,1,0,0:0:0:0:
128,280,773238,1,8,0:0:0:0:
168,304,773316,1,0,0:0:0:0:
216,304,773394,1,0,0:0:0:0:
256,280,773472,1,0,0:0:0:0:
304,280,773551,5,8,0:0:0:0:
344,304,773629,1,0,0:0:0:0:
392,304,773707,1,8,0:0:0:0:
432,280,773785,1,0,0:0:0:0:
456,240,773863,1,8,0:0:0:0:
464,192,773941,1,0,0:0:0:0:
456,144,774019,2,0,B|384:16|224:40,1,270,8|8,0:0|0:0,0:0:0:0:
152,96,774644,1,0,0:0:0:0:
112,176,774801,6,0,B|96:224,1,45,4|0,0:0|0:0,0:0:0:0:
144,224,774957,2,0,B|144:280,1,45
184,256,775113,2,0,B|200:296,2,45,8|0|0,0:0|0:0|0:0,0:0:0:0:
400,176,775426,6,0,B|416:224,1,45
368,224,775582,2,0,B|368:280,1,45
328,256,775738,2,0,B|312:296,2,45,8|0|0,0:0|0:0|0:0,0:0:0:0:
256,200,776051,5,0,0:0:0:0:
256,112,776207,1,0,0:0:0:0:
256,112,776285,1,0,0:0:0:0:
256,112,776363,1,8,0:0:0:0:
256,112,776441,1,0,0:0:0:0:
256,24,776597,2,0,B|160:-8|144:112|32:64,1,225,0|8,0:0|0:0,0:0:0:0:
32,160,777144,1,0,0:0:0:0:
120,160,777301,5,0,0:0:0:0:
112,208,777379,1,0,0:0:0:0:
88,248,777457,1,0,0:0:0:0:
72,288,777535,1,0,0:0:0:0:
64,328,777613,2,0,B|56:376,2,45,8|0|0,0:0|0:0|0:0,0:0:0:0:
152,296,777926,5,0,0:0:0:0:
200,304,778004,1,0,0:0:0:0:
240,328,778082,1,0,0:0:0:0:
288,336,778160,1,0,0:0:0:0:
336,328,778238,1,8,0:0:0:0:
376,304,778316,1,0,0:0:0:0:
424,296,778394,1,0,0:0:0:0:
376,216,778551,6,0,B|376:160,3,45
368,128,778863,1,8,0:0:0:0:
352,88,778941,1,0,0:0:0:0:
320,56,779019,2,0,B|240:16|160:144|64:96,1,270,0|8,0:0|0:0,0:0:0:0:
32,176,779644,1,0,0:0:0:0:
120,184,779801,5,0,0:0:0:0:
72,256,779957,1,0,0:0:0:0:
80,304,780035,1,0,0:0:0:0:
112,336,780113,1,8,0:0:0:0:
160,344,780191,1,0,0:0:0:0:
208,336,780269,1,0,0:0:0:0:
160,256,780426,5,0,0:0:0:0:
248,248,780582,1,0,0:0:0:0:
288,264,780660,1,0,0:0:0:0:
320,296,780738,1,8,0:0:0:0:
360,312,780816,1,0,0:0:0:0:
392,344,780894,1,0,0:0:0:0:
480,312,781051,5,0,0:0:0:0:
448,280,781129,1,0,0:0:0:0:
432,240,781207,1,0,0:0:0:0:
448,200,781285,1,0,0:0:0:0:
480,168,781363,1,8,0:0:0:0:
496,128,781441,1,0,0:0:0:0:
480,88,781519,1,0,0:0:0:0:
448,56,781597,2,0,B|344:16|344:136|232:88,1,225,0|8,0:0|0:0,0:0:0:0:
168,32,782144,1,0,0:0:0:0:
80,32,782301,5,0,0:0:0:0:
16,96,782457,1,0,0:0:0:0:
8,144,782535,1,0,0:0:0:0:
16,192,782613,1,8,0:0:0:0:
8,240,782691,1,0,0:0:0:0:
16,288,782769,1,0,0:0:0:0:
80,352,782926,5,0,0:0:0:0:
120,328,783004,1,0,0:0:0:0:
160,312,783082,1,0,0:0:0:0:
208,304,783160,1,0,0:0:0:0:
256,312,783238,1,8,0:0:0:0:
296,328,783316,1,0,0:0:0:0:
336,352,783394,1,0,0:0:0:0:
424,352,783551,5,0,0:0:0:0:
448,320,783629,1,0,0:0:0:0:
464,280,783707,1,0,0:0:0:0:
448,240,783785,1,0,0:0:0:0:
424,200,783863,1,8,0:0:0:0:
464,120,784019,2,0,B|376:40|304:128|208:48,1,270,0|8,0:0|0:0,0:0:0:0:
120,32,784644,1,0,0:0:0:0:
32,48,784801,5,2,0:0:0:0:
32,48,784957,1,0,0:0:0:0:
32,48,785113,2,0,B|24:96|32:144,1,90,10|0,0:0|0:0,0:0:0:0:
120,152,785426,1,10,0:0:0:0:
64,224,785582,1,0,0:0:0:0:
64,224,785660,2,0,B|40:296|112:352,1,135,10|0,0:0|0:0,0:0:0:0:
144,264,786051,6,0,B|208:200,2,90,2|0|10,0:0|0:0|0:0,0:0:0:0:
192,336,786519,1,0,0:0:0:0:
272,296,786676,2,0,B|360:264|448:296,1,180,2|10,0:0|0:0,0:0:0:0:
488,216,787144,1,0,0:0:0:0:
456,128,787301,6,0,B|496:48,2,90,2|0|10,0:0|0:0|0:0,0:0:0:0:
376,88,787769,1,0,0:0:0:0:
288,104,787926,1,2,0:0:0:0:
208,64,788082,1,0,0:0:0:0:
208,64,788160,2,0,B|136:80|96:144,1,135,2|0,0:0|0:0,0:0:0:0:
96,232,788551,5,2,0:0:0:0:
184,216,788707,1,0,0:0:0:0:
168,304,788863,1,10,0:0:0:0:
416,240,789176,5,0,0:0:0:0:
328,216,789332,1,0,0:0:0:0:
344,304,789488,1,8,0:0:0:0:
312,128,789801,5,2,0:0:0:0:
344,48,789957,1,0,0:0:0:0:
256,64,790113,1,10,0:0:0:0:
168,48,790269,1,0,0:0:0:0:
200,128,790426,1,2,0:0:0:0:
256,200,790582,1,0,0:0:0:0:
256,216,790660,1,0,0:0:0:0:
256,232,790738,1,8,0:0:0:0:
256,320,790894,1,0,0:0:0:0:
176,272,791051,6,0,B|88:272,1,90
336,272,791363,2,0,B|424:272,1,90,8|0,0:0|0:0,0:0:0:0:
128,192,791676,2,0,B|96:152|112:104,1,90
384,192,791988,2,0,B|416:152|400:104,1,90
312,128,792301,5,2,0:0:0:0:
200,128,792457,1,0,0:0:0:0:
256,224,792613,1,10,0:0:0:0:
256,328,792769,1,0,0:0:0:0:
256,328,792847,1,0,0:0:0:0:
256,328,792926,2,0,B|176:280|176:280|80:304,1,180,2|10,0:0|0:0,0:0:0:0:
40,232,793394,1,0,0:0:0:0:
40,144,793551,5,2,0:0:0:0:
136,40,793707,1,0,0:0:0:0:
184,176,793863,1,10,0:0:0:0:
312,104,794019,1,0,0:0:0:0:
328,248,794176,1,2,0:0:0:0:
456,184,794332,5,0,0:0:0:0:
456,184,794410,1,0,0:0:0:0:
456,184,794488,2,0,B|464:152,7,22.5,10|0|0|0|0|0|0|0,0:0|0:0|0:0|0:0|0:0|0:0|0:0|0:0,0:0:0:0:
464,136,794801,6,0,B|480:40,1,90,2|0,0:0|0:0,0:0:0:0:
392,64,795113,2,0,B|376:160,1,90,10|0,0:0|0:0,0:0:0:0:
304,104,795426,1,0,0:0:0:0:
232,48,795582,1,2,0:0:0:0:
144,48,795738,1,8,0:0:0:0:
72,104,795894,2,0,B|120:112|152:144|160:200|128:248,1,180,2|2,0:0|0:0,0:0:0:0:
48,200,796363,1,8,0:0:0:0:
48,200,796519,2,0,B|19:242|27:298|59:330|107:338,1,180,2|2,0:0|0:0,0:0:0:0:
192,304,796988,1,8,0:0:0:0:
280,336,797144,1,2,0:0:0:0:
368,304,797301,6,0,B|400:336|400:336|448:336,2,90,2|0|8,0:0|0:0|0:0,0:0:0:0:
368,216,797769,2,0,B|352:168|368:128|400:104|440:96|480:112,1,180,2|2,0:0|0:0,0:0:0:0:
456,200,798238,1,10,0:0:0:0:
456,200,798394,1,0,0:0:0:0:
456,200,798472,1,0,0:0:0:0:
456,200,798551,6,0,B|320:64,1,180,2|10,0:0|0:0,0:0:0:0:
248,40,799019,1,0,0:0:0:0:
160,64,799176,1,2,0:0:0:0:
120,80,799254,1,0,0:0:0:0:
88,104,799332,1,0,0:0:0:0:
72,144,799410,1,0,0:0:0:0:
64,192,799488,2,0,B|64:248,2,45,10|0|0,0:0|0:0|0:0,0:0:0:0:
152,160,799801,6,0,B|152:256,1,90,2|0,0:0|0:0,0:0:0:0:
192,328,800113,2,0,B|152:352|152:352|112:328|112:328,2,90,10|0|0,0:0|0:0|0:0,0:0:0:0:
256,264,800582,1,2,0:0:0:0:
256,264,800660,1,0,0:0:0:0:
256,264,800738,1,8,0:0:0:0:
280,352,800894,1,2,0:0:0:0:
344,288,801051,1,0,0:0:0:0:
408,352,801207,1,0,0:0:0:0:
408,352,801285,2,0,B|456:288|408:224,1,135,2|0,0:0|0:0,0:0:0:0:
328,200,801676,1,0,0:0:0:0:
400,144,801832,1,0,0:0:0:0:
480,176,801988,1,10,0:0:0:0:
472,88,802144,1,0,0:0:0:0:
392,56,802301,5,2,0:0:0:0:
352,40,802379,2,0,B|304:32|256:40,1,90,0|2,0:0|0:0,0:0:0:0:
224,56,802613,2,0,B|176:64|128:56,1,90,8|0,0:0|0:0,0:0:0:0:
48,40,802926,1,2,0:0:0:0:
80,128,803082,1,0,0:0:0:0:
40,152,803160,1,2,0:0:0:0:
24,192,803238,1,8,0:0:0:0:
40,232,803316,1,0,0:0:0:0:
80,256,803394,1,0,0:0:0:0:
48,336,803551,6,0,B|96:352,3,45,2|0|0|0,0:0|0:0|0:0|0:0,0:0:0:0:
136,336,803863,2,0,B|184:352,3,45,8|0|0|0,0:0|0:0|0:0|0:0,0:0:0:0:
224,336,804176,1,0,0:0:0:0:
264,344,804254,1,0,0:0:0:0:
304,352,804332,1,0,0:0:0:0:
344,344,804410,1,0,0:0:0:0:
384,336,804488,1,8,0:0:0:0:
424,344,804566,1,0,0:0:0:0:
464,352,804644,1,0,0:0:0:0:
456,264,804801,6,0,B|504:176|456:88,1,180,0|8,0:0|0:0,0:0:0:0:
368,88,805582,2,0,B|368:64|384:40,2,45
280,88,806051,6,0,B|200:48,1,90,2|0,0:0|0:0,0:0:0:0:
112,48,806363,1,10,0:0:0:0:
160,120,806519,1,0,0:0:0:0:
160,120,806597,2,0,B|176:200|96:224,1,135,2|0,0:0|0:0,0:0:0:0:
72,136,806988,1,10,0:0:0:0:
8,200,807144,1,0,0:0:0:0:
24,288,807301,6,0,B|64:320,3,45,2|0|0|0,0:0|0:0|0:0|0:0,0:0:0:0:
104,336,807613,2,0,B|152:344|200:336,1,90,10|0,0:0|0:0,0:0:0:0:
232,312,807847,1,2,0:0:0:0:
320,336,808004,1,0,0:0:0:0:
456,336,808238,2,0,B|456:240,1,90,10|0,0:0|0:0,0:0:0:0:
456,152,808551,6,0,B|456:104,2,45,2|0|0,0:0|0:0|0:0,0:0:0:0:
376,200,808863,2,0,B|352:136|376:64,2,135,10|2|0,0:0|0:0|0:0,0:0:0:0:
336,216,809410,1,0,0:0:0:0:
296,200,809488,1,10,0:0:0:0:
256,120,809644,1,0,0:0:0:0:
216,200,809801,5,0,0:0:0:0:
136,160,809957,1,0,0:0:0:0:
176,80,810113,1,10,0:0:0:0:
96,40,810269,1,0,0:0:0:0:
56,120,810426,6,0,B|32:160,3,45
24,200,810738,1,10,0:0:0:0:
24,248,810816,1,0,0:0:0:0:
40,288,810894,1,2,0:0:0:0:
120,240,811051,6,0,B|144:280|128:328,1,90,2|0,0:0|0:0,0:0:0:0:
216,352,811363,1,10,0:0:0:0:
304,328,811519,1,0,0:0:0:0:
304,328,811597,2,0,B|352:328,1,45,2|0,0:0|0:0,0:0:0:0:
432,352,811832,1,0,0:0:0:0:
448,312,811910,1,0,0:0:0:0:
432,272,811988,1,10,0:0:0:0:
448,232,812066,1,0,0:0:0:0:
432,192,812144,1,0,0:0:0:0:
352,232,812301,6,0,B|296:232,3,45,2|0|0|0,0:0|0:0|0:0|0:0,0:0:0:0:
264,232,812613,2,0,B|256:184|264:136,1,90,10|0,0:0|0:0,0:0:0:0:
304,144,812847,2,0,B|312:96|304:48,1,90,2|0,0:0|0:0,0:0:0:0:
256,56,813082,1,2,0:0:0:0:
168,56,813238,1,10,0:0:0:0:
120,56,813316,1,0,0:0:0:0:
72,56,813394,1,0,0:0:0:0:
120,136,813551,6,0,B|48:208,1,90,2|0,0:0|0:0,0:0:0:0:
56,288,813863,1,10,0:0:0:0:
136,240,814019,1,0,0:0:0:0:
136,240,814097,2,0,B|160:312|232:328,1,135,2|0,0:0|0:0,0:0:0:0:
320,328,814488,2,0,B|416:328,1,90,10|0,0:0|0:0,0:0:0:0:
368,248,814801,5,0,0:0:0:0:
296,152,814957,1,0,0:0:0:0:
368,56,815113,1,8,0:0:0:0:
440,152,815269,1,0,0:0:0:0:
368,248,815426,5,2,0:0:0:0:
344,240,815504,1,0,0:0:0:0:
320,240,815582,1,0,0:0:0:0:
296,232,815660,1,0,0:0:0:0:
272,232,815738,1,10,0:0:0:0:
248,224,815816,1,0,0:0:0:0:
224,224,815894,1,0,0:0:0:0:
216,136,816051,6,0,B|232:88|280:72,2,90,2|0|10,0:0|0:0|0:0,0:0:0:0:
160,64,816519,1,0,0:0:0:0:
160,64,816597,2,0,B|120:48,1,45,2|0,0:0|0:0,0:0:0:0:
40,96,816832,1,0,0:0:0:0:
120,144,816988,1,10,0:0:0:0:
40,192,817144,1,0,0:0:0:0:
120,240,817301,6,0,B|96:288|40:288,1,90,2|0,0:0|0:0,0:0:0:0:
112,352,817613,1,10,0:0:0:0:
192,312,817769,1,0,0:0:0:0:
192,312,817847,2,0,B|256:352|320:312,1,135,2|0,0:0|0:0,0:0:0:0:
400,352,818238,1,10,0:0:0:0:
400,352,818394,1,0,0:0:0:0:
463,287,818551,6,0,B|416:288|392:240,1,90,2|0,0:0|0:0,0:0:0:0:
472,200,818863,1,10,0:0:0:0:
472,200,818941,1,0,0:0:0:0:
472,200,819019,1,0,0:0:0:0:
472,200,819097,2,0,B|488:128|472:48,1,135,2|0,0:0|0:0,0:0:0:0:
432,48,819410,1,0,0:0:0:0:
392,64,819488,1,10,0:0:0:0:
352,48,819566,1,0,0:0:0:0:
312,64,819644,1,8,0:0:0:0:
224,64,819801,5,0,0:0:0:0:
144,32,819957,1,0,0:0:0:0:
104,48,820035,1,0,0:0:0:0:
64,64,820113,1,8,0:0:0:0:
128,128,820269,1,0,0:0:0:0:
40,160,820426,2,0,B|40:264,1,90
72,336,820738,2,0,B|120:320|128:272,1,90,8|0,0:0|0:0,0:0:0:0:
176,192,821051,6,0,B|208:152,2,45,2|0|0,0:0|0:0|0:0,0:0:0:0:
224,272,821363,2,0,B|200:312,2,45,8|0|0,0:0|0:0|0:0,0:0:0:0:
312,272,821676,2,0,B|336:224|384:216|432:224|456:272,1,180,2|8,0:0|0:0,0:0:0:0:
384,328,822144,2,0,B|384:144,1,180,2|0,0:0|0:0,0:0:0:0:
368,104,822535,1,0,0:0:0:0:
336,72,822613,1,10,0:0:0:0:
256,120,822769,2,0,B|200:40|96:80,1,180,2|0,0:0|0:0,0:0:0:0:
56,104,823160,1,0,0:0:0:0:
40,144,823238,1,8,0:0:0:0:
56,184,823316,1,0,0:0:0:0:
96,200,823394,1,8,0:0:0:0:
184,200,823551,6,0,B|272:200,2,90,0|0|2,0:0|0:0|0:0,0:0:0:0:
168,240,823941,1,0,0:0:0:0:
168,288,824019,1,0,0:0:0:0:
184,328,824097,2,0,B|232:352|280:328,1,90,2|0,0:0|0:0,0:0:0:0:
288,288,824332,1,0,0:0:0:0:
368,328,824488,2,0,B|416:336,2,45,10|0|0,0:0|0:0|0:0,0:0:0:0:
368,240,824801,6,0,B|464:256,1,90
472,168,825113,1,10,0:0:0:0:
440,160,825191,1,0,0:0:0:0:
416,144,825269,1,0,0:0:0:0:
400,120,825347,2,0,B|392:40|336:0|272:0|216:32,1,225,2|10,0:0|0:0,0:0:0:0:
176,88,825894,1,0,0:0:0:0:
112,24,826051,6,0,B|80:64|96:120,2,90,2|0|10,0:0|0:0|0:0,0:0:0:0:
80,8,826441,1,0,0:0:0:0:
48,8,826519,1,0,0:0:0:0:
16,24,826597,1,2,0:0:0:0:
16,112,826754,1,0,0:0:0:0:
16,112,826832,1,0,0:0:0:0:
16,200,826988,2,0,B|16:256,2,45,8|0|0,0:0|0:0|0:0,0:0:0:0:
104,200,827301,5,0,0:0:0:0:
184,248,827457,1,0,0:0:0:0:
104,288,827613,1,8,0:0:0:0:
184,336,827769,1,0,0:0:0:0:
264,288,827926,1,2,0:0:0:0:
304,312,828004,1,0,0:0:0:0:
352,320,828082,1,0,0:0:0:0:
400,312,828160,1,0,0:0:0:0:
440,288,828238,1,10,0:0:0:0:
464,248,828316,1,0,0:0:0:0:
472,200,828394,1,2,0:0:0:0:
472,112,828551,6,0,B|456:64|408:40,1,90,2|0,0:0|0:0,0:0:0:0:
328,40,828863,1,10,0:0:0:0:
296,48,828941,1,0,0:0:0:0:
264,40,829019,1,0,0:0:0:0:
232,48,829097,1,2,0:0:0:0:
96,40,829332,2,0,B|48:64,1,45
88,96,829488,2,0,B|48:136,1,45,10|0,0:0|0:0,0:0:0:0:
96,144,829644,2,0,B|80:200,1,45
128,176,829801,5,2,0:0:0:0:
168,256,829957,1,0,0:0:0:0:
256,232,830113,1,10,0:0:0:0:
296,256,830191,1,0,0:0:0:0:
328,288,830269,1,0,0:0:0:0:
344,328,830347,2,0,B|432:328,1,90,2|0,0:0|0:0,0:0:0:0:
448,288,830582,2,0,B|480:256,1,45,2|0,0:0|0:0,0:0:0:0:
440,240,830738,2,0,B|456:200,1,45,10|0,0:0|0:0,0:0:0:0:
408,200,830894,2,0,B|416:152,1,45,2|0,0:0|0:0,0:0:0:0:
368,168,831051,5,2,0:0:0:0:
336,88,831207,1,0,0:0:0:0:
256,48,831363,1,10,0:0:0:0:
176,88,831519,1,0,0:0:0:0:
176,88,831597,2,0,B|112:48|48:88,1,135,2|0,0:0|0:0,0:0:0:0:
112,152,831988,2,0,B|112:240,1,90,8|0,0:0|0:0,0:0:0:0:
192,192,832301,5,0,0:0:0:0:
192,192,832379,1,0,0:0:0:0:
192,192,832457,1,0,0:0:0:0:
192,280,832613,1,8,0:0:0:0:
256,344,832769,1,0,0:0:0:0:
320,280,832926,5,0,0:0:0:0:
320,280,833004,1,0,0:0:0:0:
320,280,833082,1,0,0:0:0:0:
384,344,833238,1,8,0:0:0:0:
448,280,833394,1,0,0:0:0:0:
448,192,833551,6,0,B|440:120|376:64,1,135,2|0,0:0|0:0,0:0:0:0:
344,64,833863,2,0,B|256:64,1,90,10|0,0:0|0:0,0:0:0:0:
160,64,834176,1,0,0:0:0:0:
72,64,834332,1,0,0:0:0:0:
40,96,834410,1,0,0:0:0:0:
32,136,834488,1,10,0:0:0:0:
40,176,834566,1,0,0:0:0:0:
72,208,834644,1,2,0:0:0:0:
160,208,834801,6,0,B|160:160|112:128,2,90,2|0|10,0:0|0:0|0:0,0:0:0:0:
168,256,835191,1,0,0:0:0:0:
192,296,835269,1,0,0:0:0:0:
232,320,835347,2,0,B|276:336|320:320,1,90,2|0,0:0|0:0,0:0:0:0:
352,296,835582,1,0,0:0:0:0:
384,216,835738,1,10,0:0:0:0:
440,280,835894,1,0,0:0:0:0:
472,200,836051,6,0,B|472:112,1,90,2|0,0:0|0:0,0:0:0:0:
384,88,836363,2,0,B|384:40,2,45,10|0|0,0:0|0:0|0:0,0:0:0:0:
344,104,836597,2,0,B|288:128|272:72|208:104,1,135,2|0,0:0|0:0,0:0:0:0:
176,128,836910,1,0,0:0:0:0:
152,168,836988,1,10,0:0:0:0:
112,192,837066,1,0,0:0:0:0:
80,224,837144,1,2,0:0:0:0:
64,264,837222,1,0,0:0:0:0:
56,312,837301,6,0,B|56:368,2,45
144,304,837613,2,0,B|144:256,2,45,8|0|0,0:0|0:0|0:0,0:0:0:0:
232,312,837926,2,0,B|232:368,2,45
320,304,838238,2,0,B|320:256,2,45,8|0|0,0:0|0:0|0:0,0:0:0:0:
408,312,838551,5,2,0:0:0:0:
424,288,838629,1,0,0:0:0:0:
440,264,838707,1,0,0:0:0:0:
400,184,838863,1,8,0:0:0:0:
440,104,839019,1,0,0:0:0:0:
400,24,839176,5,2,0:0:0:0:
376,32,839254,1,0,0:0:0:0:
352,40,839332,1,0,0:0:0:0:
288,104,839488,1,8,0:0:0:0:
224,40,839644,1,10,0:0:0:0:
200,128,839801,6,0,B|152:96,3,45,0|0|2|0,0:0|0:0|0:0|0:0,0:0:0:0:
136,144,840113,2,0,B|88:128,3,45,10|0|2|0,0:0|0:0|0:0|0:0,0:0:0:0:
80,176,840426,2,0,B|24:176,3,45
40,224,840738,2,0,B|0:240,1,45,8|0,0:0|0:0,0:0:0:0:
24,280,840894,2,0,B|-8:312,1,45,8|0,0:0|0:0,0:0:0:0:
24,344,841051,1,4,0:0:0:0:
184,264,841363,5,8,0:0:0:0:
256,320,841519,1,0,0:0:0:0:
328,264,841676,1,0,0:0:0:0:
488,344,841988,5,8,0:0:0:0:
488,256,842144,1,0,0:0:0:0:
488,168,842301,2,0,B|488:80,1,90
448,56,842535,1,0,0:0:0:0:
400,48,842613,1,8,0:0:0:0:
400,136,842769,1,0,0:0:0:0:
320,88,842926,2,0,B|320:32,2,45
256,152,843238,2,0,B|256:216,2,45,8|0|0,0:0|0:0|0:0,0:0:0:0:
192,88,843551,6,0,B|104:88,1,90
40,152,843863,2,0,B|8:184,2,45,8|0|0,0:0|0:0|0:0,0:0:0:0:
128,184,844176,2,0,B|176:184,2,45
64,248,844488,2,0,B|48:304,2,45,8|0|0,0:0|0:0|0:0,0:0:0:0:
152,272,844801,6,0,B|136:360,1,90
216,320,845113,2,0,B|256:296|256:296|296:320,1,90,8|0,0:0|0:0,0:0:0:0:
376,360,845426,2,0,B|360:272,1,90
448,248,845739,2,0,B|460:291,3,45,8|0|0|0,0:0|0:0|0:0|0:0,0:0:0:0:
472,336,846051,1,0,0:0:0:0:
56,48,855530,5,0,0:0:0:0:
112,120,855642,1,0,0:0:0:0:
56,192,855755,1,0,0:0:0:0:
48,224,855811,1,0,0:0:0:0:
40,256,855867,1,0,0:0:0:0:
48,288,855923,1,0,0:0:0:0:
56,320,855980,2,0,B|80:336,15,22.5
88,336,856430,6,0,B|136:352|168:304,1,90
424,336,856655,2,0,B|376:352|344:304,1,90,8|0,0:0|0:0,0:0:0:0:
128,232,856880,2,0,B|216:208,1,90
384,232,857105,2,0,B|296:208,1,90,8|0,0:0|0:0,0:0:0:0:
256,128,857331,5,0,0:0:0:0:
328,72,857443,1,0,0:0:0:0:
256,16,857556,1,8,0:0:0:0:
184,72,857668,1,0,0:0:0:0:
112,16,857781,2,0,B|64:16,2,45
96,104,858006,2,0,B|128:136,2,45,8|0|0,0:0|0:0|0:0,0:0:0:0:
24,160,858231,6,0,B|24:256,1,90
104,208,858456,2,0,B|104:296,1,90,8|0,0:0|0:0,0:0:0:0:
184,336,858681,6,0,B|184:248,1,90
264,296,858907,2,0,B|264:216,2,45,8|0|0,0:0|0:0|0:0,0:0:0:0:
344,336,859132,5,0,0:0:0:0:
424,296,859244,1,0,0:0:0:0:
424,296,859301,1,0,0:0:0:0:
424,296,859357,1,8,0:0:0:0:
464,216,859469,1,0,0:0:0:0:
464,128,859582,2,0,B|464:80,3,45
432,48,859807,1,8,0:0:0:0:
392,32,859863,1,0,0:0:0:0:
352,24,859920,1,0,0:0:0:0:
264,24,860032,6,0,B|176:24,1,90
216,104,860257,2,0,B|120:104,1,90,8|0,0:0|0:0,0:0:0:0:
264,184,860483,2,0,B|160:184,1,90
216,264,860708,2,0,B|128:264,1,90,8|0,0:0|0:0,0:0:0:0:
248,360,860933,6,0,B|336:360,1,90
296,280,861158,2,0,B|392:280,1,90,8|0,0:0|0:0,0:0:0:0:
248,200,861383,2,0,B|352:200,1,90
296,120,861608,2,0,B|384:120,1,90,8|0,0:0|0:0,0:0:0:0:
480,120,861833,6,0,B|480:72|432:40,1,90
392,32,862002,1,0,0:0:0:0:
344,40,862059,1,8,0:0:0:0:
256,24,862171,1,0,0:0:0:0:
168,40,862284,2,0,B|80:16,1,90
24,88,862509,2,0,B|112:112,1,90,8|0,0:0|0:0,0:0:0:0:
120,200,862734,6,0,B|56:184,3,45
88,232,862959,2,0,B|40:248,3,45,8|0|0|0,0:0|0:0|0:0|0:0,0:0:0:0:
80,272,863184,2,0,B|56:312,3,45
104,304,863409,1,8,0:0:0:0:
184,336,863522,1,0,0:0:0:0:
256,288,863635,5,0,0:0:0:0:
256,288,863691,1,0,0:0:0:0:
256,288,863747,1,0,0:0:0:0:
328,336,863860,1,8,0:0:0:0:
408,304,863972,1,0,0:0:0:0:
408,216,864085,6,0,B|408:168,3,45
408,128,864310,1,8,0:0:0:0:
368,48,864423,1,0,0:0:0:0:
280,32,864535,5,0,0:0:0:0:
280,32,864591,1,0,0:0:0:0:
192,32,864704,1,0,0:0:0:0:
192,32,864760,2,0,B|104:32,1,90,8|0,0:0|0:0,0:0:0:0:
40,96,864985,5,0,0:0:0:0:
40,120,865042,1,0,0:0:0:0:
40,144,865098,1,0,0:0:0:0:
40,168,865154,1,0,0:0:0:0:
40,192,865211,1,8,0:0:0:0:
40,280,865323,1,0,0:0:0:0:
120,240,865436,6,0,B|120:328,1,90
192,272,865661,2,0,B|200:368,1,90,8|0,0:0|0:0,0:0:0:0:
392,240,865886,6,0,B|392:328,1,90
320,272,866111,2,0,B|312:368,1,90,8|0,0:0|0:0,0:0:0:0:
256,288,866336,5,0,0:0:0:0:
256,288,866393,1,0,0:0:0:0:
256,288,866449,1,0,0:0:0:0:
256,200,866561,1,8,0:0:0:0:
256,200,866618,1,0,0:0:0:0:
256,200,866674,1,0,0:0:0:0:
256,112,866787,2,0,B|224:72,1,45
192,104,866899,2,0,B|144:80,1,45
136,128,867012,2,0,B|88:112|40:128,1,90,8|0,0:0|0:0,0:0:0:0:
88,208,867237,6,0,B|48:288,1,90
136,272,867462,2,0,B|136:360,1,90,8|0,0:0|0:0,0:0:0:0:
208,304,867687,1,0,0:0:0:0:
256,296,867743,1,0,0:0:0:0:
304,304,867800,1,0,0:0:0:0:
376,362,867912,2,0,B|376:272,1,90,8|0,0:0|0:0,0:0:0:0:
464,288,868137,6,0,B|424:208,1,90
376,128,868363,1,8,0:0:0:0:
376,128,868475,1,0,0:0:0:0:
288,104,868588,1,0,0:0:0:0:
200,120,868700,2,0,B|200:168,8,45,2|2|2|2|2|0|0|0|0,0:0|0:0|0:0|0:0|0:0|0:0|0:0|0:0|0:0,0:0:0:0:
112,104,869263,6,0,B|112:56,8,45,2|2|2|2|2|0|0|0|0,0:0|0:0|0:0|0:0|0:0|0:0|0:0|0:0|0:0,0:0:0:0:
112,192,869826,6,0,B|112:240,4,45,2|2|2|2|2,0:0|0:0|0:0|0:0|0:0,0:0:0:0:
32,144,870164,6,0,B|0:112,4,45,2|2|2|2|2,0:0|0:0|0:0|0:0|0:0,0:0:0:0:
32,232,870501,6,0,B|32:280,3,45,2|2|2|2,0:0|0:0|0:0|0:0,0:0:0:0:
32,320,870726,1,2,0:0:0:0:
112,280,870839,6,0,B|160:296|176:344,1,90
400,280,871064,2,0,B|352:296|336:344,1,90,8|0,0:0|0:0,0:0:0:0:
256,296,871289,1,0,0:0:0:0:
256,208,871402,1,0,0:0:0:0:
256,296,871514,1,8,0:0:0:0:
256,208,871627,1,0,0:0:0:0:
168,184,871740,6,0,B|120:160,2,45
344,184,871965,2,0,B|392:160,2,45,8|0|0,0:0|0:0|0:0,0:0:0:0:
320,96,872190,1,0,0:0:0:0:
256,32,872302,5,2,0:0:0:0:
248,32,872359,1,2,0:0:0:0:
240,32,872415,1,2,0:0:0:0:
232,32,872471,1,2,0:0:0:0:
224,32,872528,1,2,0:0:0:0:
216,32,872584,1,0,0:0:0:0:
208,32,872640,1,0,0:0:0:0:
200,32,872696,1,0,0:0:0:0:
192,32,872753,1,0,0:0:0:0:
104,32,872865,6,0,B|72:64,8,45,2|2|2|2|2|0|0|0|0,0:0|0:0|0:0|0:0|0:0|0:0|0:0|0:0|0:0,0:0:0:0:
152,112,873428,6,2,B|208:112,4,45
72,160,873766,6,2,B|32:200,4,45
152,208,874104,5,2,0:0:0:0:
144,216,874160,1,2,0:0:0:0:
136,224,874216,1,2,0:0:0:0:
128,232,874272,1,2,0:0:0:0:
120,240,874329,1,2,0:0:0:0:
56,304,874441,5,0,0:0:0:0:
144,328,874554,1,0,0:0:0:0:
216,272,874666,2,0,B|256:248|256:248|296:272,1,90,8|0,0:0|0:0,0:0:0:0:
368,328,874892,1,0,0:0:0:0:
456,304,875004,1,0,0:0:0:0:
392,240,875117,2,0,B|352:208,2,45,8|0|0,0:0|0:0|0:0,0:0:0:0:
480,216,875342,6,0,B|400:144,1,90
432,64,875567,2,0,B|480:104,2,45,8|0|0,0:0|0:0|0:0,0:0:0:0:
344,96,875792,1,0,0:0:0:0:
272,40,875905,6,0,B|312:24,8,45,2|2|2|2|2|0|0|0|0,0:0|0:0|0:0|0:0|0:0|0:0|0:0|0:0|0:0,0:0:0:0:
184,40,876468,5,2,0:0:0:0:
176,40,876524,1,2,0:0:0:0:
168,40,876580,1,2,0:0:0:0:
160,40,876636,1,2,0:0:0:0:
152,40,876693,1,2,0:0:0:0:
144,40,876749,1,0,0:0:0:0:
136,40,876805,1,0,0:0:0:0:
128,40,876862,1,0,0:0:0:0:
120,40,876918,1,0,0:0:0:0:
64,112,877030,6,2,B|24:72,4,45
152,120,877368,6,2,B|200:120,4,45
104,200,877706,6,2,B|80:240,4,45
192,208,878044,6,0,B|152:272|192:336,1,135
224,336,878269,2,0,B|320:336,1,90,8|0,0:0|0:0,0:0:0:0:
408,336,878494,2,0,B|464:336,2,45
360,256,878719,2,0,B|304:256,2,45,8|0|0,0:0|0:0|0:0,0:0:0:0:
448,256,878944,5,0,0:0:0:0:
408,176,879057,1,0,0:0:0:0:
496,176,879169,1,8,0:0:0:0:
456,96,879282,1,0,0:0:0:0:
368,96,879394,1,0,0:0:0:0:
320,176,879507,6,0,B|272:176,8,45,2|2|2|2|2|0|0|0|0,0:0|0:0|0:0|0:0|0:0|0:0|0:0|0:0|0:0,0:0:0:0:
280,96,880070,5,2,0:0:0:0:
272,88,880126,1,2,0:0:0:0:
264,80,880182,1,2,0:0:0:0:
256,72,880239,1,2,0:0:0:0:
248,64,880295,1,2,0:0:0:0:
240,56,880351,1,0,0:0:0:0:
232,48,880408,1,0,0:0:0:0:
224,40,880464,1,0,0:0:0:0:
216,32,880520,1,0,0:0:0:0:
136,80,880633,6,2,B|168:112,4,45
56,32,880970,6,2,B|0:32,4,45
56,120,881308,5,2,0:0:0:0:
52,128,881364,1,2,0:0:0:0:
48,136,881421,1,2,0:0:0:0:
44,144,881477,1,2,0:0:0:0:
40,152,881533,1,2,0:0:0:0:
40,240,881646,5,0,0:0:0:0:
40,240,881758,1,0,0:0:0:0:
40,240,881871,2,0,B|64:288|112:296,1,90,8|0,0:0|0:0,0:0:0:0:
120,208,882096,2,0,B|144:160,2,45
192,264,882321,2,0,B|192:320,2,45,8|0|0,0:0|0:0|0:0,0:0:0:0:
224,184,882546,5,0,0:0:0:0:
176,112,882659,1,0,0:0:0:0:
232,40,882772,1,8,0:0:0:0:
312,72,882884,1,0,0:0:0:0:
312,160,882997,1,0,0:0:0:0:
288,248,883109,6,0,B|280:304,8,45,2|2|2|2|2|0|0|0|0,0:0|0:0|0:0|0:0|0:0|0:0|0:0|0:0|0:0,0:0:0:0:
376,232,883672,5,2,0:0:0:0:
384,224,883728,1,2,0:0:0:0:
392,216,883785,1,2,0:0:0:0:
400,208,883841,1,2,0:0:0:0:
408,200,883897,1,2,0:0:0:0:
416,192,883954,1,0,0:0:0:0:
424,184,884010,1,0,0:0:0:0:
432,176,884066,1,0,0:0:0:0:
440,168,884122,1,0,0:0:0:0:
424,80,884235,6,2,B|384:120,4,45
344,32,884573,6,2,B|344:80,4,45
264,80,884910,6,2,B|304:112,4,45
184,40,885248,5,0,0:0:0:0:
96,40,885361,1,0,0:0:0:0:
96,40,885417,1,0,0:0:0:0:
96,40,885473,1,8,0:0:0:0:
56,120,885586,2,0,B|96:120|128:136|144:168|144:216|112:248,1,180
40,200,885923,6,0,B|9:230|9:278|25:310|57:326|97:326,1,180,8|0,0:0|0:0,0:0:0:0:
184,296,886261,2,0,B|232:312|248:360,2,90,0|8|0,0:0|0:0|0:0,0:0:0:0:
256,240,886599,1,0,0:0:0:0:
328,296,886711,6,0,B|368:320,8,45,2|2|2|2|2|0|0|0|0,0:0|0:0|0:0|0:0|0:0|0:0|0:0|0:0|0:0,0:0:0:0:
400,240,887274,6,0,B|352:216,8,45,2|2|2|2|2|0|0|0|0,0:0|0:0|0:0|0:0|0:0|0:0|0:0|0:0|0:0,0:0:0:0:
456,312,887837,6,2,B|472:360,4,45
496,232,888175,5,2,0:0:0:0:
496,232,888231,1,2,0:0:0:0:
496,232,888287,1,2,0:0:0:0:
496,232,888344,1,2,0:0:0:0:
496,232,888400,1,2,0:0:0:0:
424,176,888513,6,2,B|408:216,4,45
424,176,888850,6,0,B|464:96,1,90
376,112,889075,2,0,B|376:24,1,90,8|0,0:0|0:0,0:0:0:0:
304,80,889301,1,0,0:0:0:0:
256,88,889357,1,0,0:0:0:0:
208,80,889413,1,0,0:0:0:0:
136,22,889526,2,0,B|136:112,1,90,8|0,0:0|0:0,0:0:0:0:
48,96,889751,6,0,B|88:176,1,90
136,256,889976,1,8,0:0:0:0:
136,256,890089,1,0,0:0:0:0:
224,280,890201,1,0,0:0:0:0:
312,264,890314,2,0,B|312:216,8,45,2|2|2|2|2|0|0|0|0,0:0|0:0|0:0|0:0|0:0|0:0|0:0|0:0|0:0,0:0:0:0:
400,280,890877,6,0,B|400:328,8,45,2|2|2|2|2|0|0|0|0,0:0|0:0|0:0|0:0|0:0|0:0|0:0|0:0|0:0,0:0:0:0:
400,192,891439,6,0,B|400:144,4,45,2|2|2|2|2,0:0|0:0|0:0|0:0|0:0,0:0:0:0:
480,240,891777,6,0,B|512:272,4,45,2|2|2|2|2,0:0|0:0|0:0|0:0|0:0,0:0:0:0:
480,152,892115,6,0,B|480:104,3,45,2|2|2|2,0:0|0:0|0:0|0:0,0:0:0:0:
480,64,892340,1,2,0:0:0:0:
400,104,892453,6,0,B|352:88|336:40,1,90
112,104,892678,2,0,B|160:88|176:40,1,90,8|0,0:0|0:0,0:0:0:0:
256,88,892903,1,0,0:0:0:0:
256,176,893015,1,0,0:0:0:0:
256,88,893128,1,8,0:0:0:0:
256,176,893241,1,0,0:0:0:0:
344,200,893353,6,0,B|392:224,2,45
168,200,893578,2,0,B|120:224,2,45,8|0|0,0:0|0:0|0:0,0:0:0:0:
192,288,893803,1,0,0:0:0:0:
256,352,893916,5,2,0:0:0:0:
264,352,893972,1,2,0:0:0:0:
272,352,894029,1,2,0:0:0:0:
280,352,894085,1,2,0:0:0:0:
288,352,894141,1,2,0:0:0:0:
296,352,894197,1,0,0:0:0:0:
304,352,894254,1,0,0:0:0:0:
312,352,894310,1,0,0:0:0:0:
320,352,894366,1,0,0:0:0:0:
408,352,894479,6,0,B|440:320,8,45,2|2|2|2|2|0|0|0|0,0:0|0:0|0:0|0:0|0:0|0:0|0:0|0:0|0:0,0:0:0:0:
360,272,895042,6,2,B|304:272,4,45
440,224,895379,6,2,B|480:184,4,45
360,176,895717,5,2,0:0:0:0:
368,168,895773,1,2,0:0:0:0:
376,160,895830,1,2,0:0:0:0:
384,152,895886,1,2,0:0:0:0:
392,144,895942,1,2,0:0:0:0:
456,80,896055,5,0,0:0:0:0:
368,56,896167,1,0,0:0:0:0:
296,112,896280,2,0,B|256:136|256:136|216:112,1,90,8|0,0:0|0:0,0:0:0:0:
144,56,896505,1,0,0:0:0:0:
56,80,896618,1,0,0:0:0:0:
120,144,896730,2,0,B|160:176,2,45,8|0|0,0:0|0:0|0:0,0:0:0:0:
32,168,896955,6,0,B|112:240,1,90
80,320,897181,2,0,B|32:280,2,45,8|0|0,0:0|0:0|0:0,0:0:0:0:
168,288,897406,1,0,0:0:0:0:
240,344,897518,6,0,B|200:360,8,45,2|2|2|2|2|0|0|0|0,0:0|0:0|0:0|0:0|0:0|0:0|0:0|0:0|0:0,0:0:0:0:
328,344,898081,5,2,0:0:0:0:
336,344,898137,1,2,0:0:0:0:
344,344,898194,1,2,0:0:0:0:
352,344,898250,1,2,0:0:0:0:
360,344,898306,1,2,0:0:0:0:
368,344,898363,1,0,0:0:0:0:
376,344,898419,1,0,0:0:0:0:
384,344,898475,1,0,0:0:0:0:
392,344,898531,1,0,0:0:0:0:
448,272,898644,6,2,B|488:312,4,45
360,264,898982,6,2,B|312:264,4,45
408,184,899319,6,2,B|432:144,4,45
320,176,899657,6,0,B|360:112|320:48,1,135
288,48,899882,2,0,B|192:48,1,90,8|0,0:0|0:0,0:0:0:0:
104,48,900107,2,0,B|48:48,2,45
152,128,900333,2,0,B|208:128,2,45,8|0|0,0:0|0:0|0:0,0:0:0:0:
64,128,900558,5,0,0:0:0:0:
104,208,900670,1,0,0:0:0:0:
16,208,900783,1,8,0:0:0:0:
56,288,900895,1,0,0:0:0:0:
144,288,901008,1,0,0:0:0:0:
192,208,901120,6,0,B|240:208,8,45,2|2|2|2|2|0|0|0|0,0:0|0:0|0:0|0:0|0:0|0:0|0:0|0:0|0:0,0:0:0:0:
232,288,901683,5,2,0:0:0:0:
240,296,901740,1,2,0:0:0:0:
248,304,901796,1,2,0:0:0:0:
256,312,901852,1,2,0:0:0:0:
264,320,901908,1,2,0:0:0:0:
272,328,901965,1,0,0:0:0:0:
280,336,902021,1,0,0:0:0:0:
288,344,902077,1,0,0:0:0:0:
296,352,902134,1,0,0:0:0:0:
376,304,902246,6,2,B|344:272,4,45
456,352,902584,6,2,B|512:352,4,45
456,264,902922,5,2,0:0:0:0:
460,256,902978,1,2,0:0:0:0:
464,248,903034,1,2,0:0:0:0:
468,240,903090,1,2,0:0:0:0:
472,232,903147,1,2,0:0:0:0:
472,144,903259,5,0,0:0:0:0:
472,144,903372,1,0,0:0:0:0:
472,144,903484,2,0,B|448:96|400:88,1,90,8|0,0:0|0:0,0:0:0:0:
392,176,903710,2,0,B|368:224,2,45
320,120,903935,2,0,B|320:64,2,45,8|0|0,0:0|0:0|0:0,0:0:0:0:
288,200,904160,5,0,0:0:0:0:
336,272,904272,1,0,0:0:0:0:
280,344,904385,1,8,0:0:0:0:
200,312,904498,1,0,0:0:0:0:
200,224,904610,1,0,0:0:0:0:
224,136,904723,6,0,B|232:80,8,45,2|2|2|2|2|0|0|0|0,0:0|0:0|0:0|0:0|0:0|0:0|0:0|0:0|0:0,0:0:0:0:
136,152,905286,5,2,0:0:0:0:
128,160,905342,1,2,0:0:0:0:
120,168,905398,1,2,0:0:0:0:
112,176,905454,1,2,0:0:0:0:
104,184,905511,1,2,0:0:0:0:
96,192,905567,1,0,0:0:0:0:
88,200,905623,1,0,0:0:0:0:
80,208,905680,1,0,0:0:0:0:
72,216,905736,1,0,0:0:0:0:
88,304,905848,6,2,B|128:264,4,45
168,352,906186,6,2,B|168:304,4,45
248,304,906524,6,2,B|208:272,4,45
328,344,906862,5,0,0:0:0:0:
416,344,906974,1,0,0:0:0:0:
416,344,907030,1,0,0:0:0:0:
416,344,907087,1,8,0:0:0:0:
456,264,907199,2,0,B|416:264|384:248|368:216|368:168|400:136,1,180
472,184,907537,6,0,B|503:154|503:106|487:74|455:58|415:58,1,180,8|0,0:0|0:0,0:0:0:0:
328,88,907875,2,0,B|280:72|264:24,2,90,0|8|0,0:0|0:0|0:0,0:0:0:0:
256,144,908212,1,0,0:0:0:0:
184,88,908325,6,0,B|144:64,8,45,2|2|2|2|2|0|0|0|0,0:0|0:0|0:0|0:0|0:0|0:0|0:0|0:0|0:0,0:0:0:0:
112,144,908888,6,0,B|160:168,8,45,2|2|2|2|2|0|0|0|0,0:0|0:0|0:0|0:0|0:0|0:0|0:0|0:0|0:0,0:0:0:0:
24,152,909451,6,2,B|24:104,4,45
72,232,909788,1,2,0:0:0:0:
72,232,909845,1,2,0:0:0:0:
72,232,909901,1,2,0:0:0:0:
160,264,910014,1,6,0:0:0:0:
160,264,910464,5,0,0:0:0:0:
296,152,910714,1,0,0:0:0:0:
248,328,910964,1,0,0:0:0:0:
200,152,911214,1,0,0:0:0:0:
336,264,911464,2,0,B|424:256|480:192|480:120|424:56|328:48,1,315
320,56,911964,2,0,B|264:56,8,45
296,144,912589,6,0,B|344:144,7,45
208,144,913151,6,0,B|176:176,3,45
136,96,913464,5,0,0:0:0:0:
136,96,913526,1,0,0:0:0:0:
136,96,913589,1,0,0:0:0:0:
136,96,913651,1,0,0:0:0:0:
56,144,913776,5,0,0:0:0:0:
56,144,913839,1,0,0:0:0:0:
56,144,913901,1,0,0:0:0:0:
