osu file format v14

[General]
AudioFilename: Bad Habits.mp3
AudioLeadIn: 0
PreviewTime: 60560
Countdown: 0
SampleSet: None
StackLeniency: 0.7
Mode: 1
LetterboxInBreaks: 0
WidescreenStoryboard: 0

[Editor]
Bookmarks: 8971,17943,26915,35887,44859,51588,60560,69532,78504,96448,114392,130093
DistanceSpacing: 2
BeatDivisor: 4
GridSize: 4
TimelineZoom: 2.4

[Metadata]
Title:Bad Habits
TitleUnicode:Bad Habits
Artist:goreshit
ArtistUnicode:goreshit
Creator:SKSalt
Version:Inner Oni
Source:
Tags:
BeatmapID:966645
BeatmapSetID:450569

[Difficulty]
HPDrainRate:6
CircleSize:5
OverallDifficulty:6.5
ApproachRate:5
SliderMultiplier:1.4
SliderTickRate:1

[Events]
//Background and Video events
0,0,"Konachan.com - 217622 animal bird city cropped feel_(nasitaki) kneehighs original rooftop scenic seifuku sky water (2).jpg",0,-60
//Break Periods
//Storyboard Layer 0 (Background)
//Storyboard Layer 1 (Fail)
//Storyboard Layer 2 (Pass)
//Storyboard Layer 3 (Foreground)
//Storyboard Sound Samples

[TimingPoints]
-0.0420251073319,280.373831775701,4,1,0,80,1,0
51588,-100,4,1,0,80,0,1
58317,-100,4,1,0,80,0,0
96448,-100,4,1,0,80,0,1
130093,-100,4,1,0,75,0,0
130513,-100,4,1,0,70,0,0
130934,-100,4,1,0,65,0,0
131355,-100,4,1,0,60,0,0
131775,-100,4,1,0,55,0,0
132336,-100,4,1,0,50,0,0
132756,-100,4,1,0,46,0,0
133177,-100,4,1,0,42,0,0
133598,-100,4,1,0,38,0,0
134018,-100,4,1,0,34,0,0
134579,-100,4,1,0,31,0,0
134999,-100,4,1,0,28,0,0
135420,-100,4,1,0,25,0,0
135841,-100,4,1,0,22,0,0
136261,-100,4,1,0,19,0,0
136822,-100,4,1,0,15,0,0

[HitObjects]
92,136,0,5,6,0:0:0:0:
336,252,280,1,2,0:0:0:0:
336,252,560,1,2,0:0:0:0:
248,192,630,1,2,0:0:0:0:
248,192,700,1,0,0:0:0:0:
336,252,841,1,2,0:0:0:0:
140,192,911,1,0,0:0:0:0:
140,192,1051,1,0,0:0:0:0:
336,252,1121,1,2,0:0:0:0:
336,252,1401,1,2,0:0:0:0:
300,248,1542,1,0,0:0:0:0:
300,248,1612,1,0,0:0:0:0:
336,252,1682,1,2,0:0:0:0:
304,252,1752,1,2,0:0:0:0:
304,252,1822,1,0,0:0:0:0:
336,252,1962,1,2,0:0:0:0:
184,216,2032,1,0,0:0:0:0:
184,216,2102,1,0,0:0:0:0:
184,216,2172,1,0,0:0:0:0:
336,252,2242,1,2,0:0:0:0:
336,252,2523,1,2,0:0:0:0:
296,216,2663,1,0,0:0:0:0:
296,216,2733,1,0,0:0:0:0:
336,252,2803,1,2,0:0:0:0:
376,260,2873,1,2,0:0:0:0:
376,260,2943,1,0,0:0:0:0:
336,252,3084,1,2,0:0:0:0:
56,200,3154,1,2,0:0:0:0:
56,200,3294,1,0,0:0:0:0:
336,252,3364,1,2,0:0:0:0:
336,252,3644,1,2,0:0:0:0:
208,208,3785,1,0,0:0:0:0:
208,208,3855,1,0,0:0:0:0:
336,252,3925,1,2,0:0:0:0:
168,200,3995,1,2,0:0:0:0:
168,200,4065,1,0,0:0:0:0:
168,200,4205,1,2,0:0:0:0:
300,284,4275,1,2,0:0:0:0:
300,284,4345,1,0,0:0:0:0:
260,200,4485,1,2,0:0:0:0:
260,192,4766,1,2,0:0:0:0:
252,184,4906,1,0,0:0:0:0:
252,184,4976,1,0,0:0:0:0:
252,184,5046,1,2,0:0:0:0:
252,184,5116,1,2,0:0:0:0:
252,184,5186,1,0,0:0:0:0:
208,208,5327,1,2,0:0:0:0:
208,208,5397,1,0,0:0:0:0:
208,208,5537,1,0,0:0:0:0:
208,208,5607,1,2,0:0:0:0:
144,208,5887,1,2,0:0:0:0:
232,220,6027,1,0,0:0:0:0:
232,220,6098,1,0,0:0:0:0:
232,220,6168,1,2,0:0:0:0:
232,208,6238,1,2,0:0:0:0:
232,208,6308,1,0,0:0:0:0:
232,208,6448,1,2,0:0:0:0:
232,208,6518,1,0,0:0:0:0:
232,208,6588,1,0,0:0:0:0:
232,208,6658,1,0,0:0:0:0:
232,208,6728,1,2,0:0:0:0:
256,196,7009,1,2,0:0:0:0:
272,232,7149,1,0,0:0:0:0:
272,232,7219,1,0,0:0:0:0:
256,196,7289,1,2,0:0:0:0:
272,232,7359,1,2,0:0:0:0:
272,232,7429,1,0,0:0:0:0:
256,196,7570,1,2,0:0:0:0:
172,184,7640,1,0,0:0:0:0:
172,272,7780,1,0,0:0:0:0:
256,196,7850,1,2,0:0:0:0:
256,196,8130,1,2,0:0:0:0:
264,220,8270,1,0,0:0:0:0:
264,220,8341,1,0,0:0:0:0:
256,196,8411,1,2,0:0:0:0:
264,220,8481,1,0,0:0:0:0:
264,220,8551,1,2,0:0:0:0:
264,220,8621,1,0,0:0:0:0:
256,196,8691,1,2,0:0:0:0:
264,220,8761,1,2,0:0:0:0:
264,220,8831,1,0,0:0:0:0:
244,192,8901,1,2,0:0:0:0:
264,220,8971,1,0,0:0:0:0:
336,252,9252,1,2,0:0:0:0:
336,252,9532,1,2,0:0:0:0:
248,192,9602,1,2,0:0:0:0:
248,192,9672,1,0,0:0:0:0:
336,252,9813,1,2,0:0:0:0:
140,192,9883,1,0,0:0:0:0:
140,192,10023,1,0,0:0:0:0:
336,252,10093,1,2,0:0:0:0:
336,252,10373,1,2,0:0:0:0:
300,248,10514,1,0,0:0:0:0:
300,248,10584,1,0,0:0:0:0:
336,252,10654,1,2,0:0:0:0:
304,252,10724,1,2,0:0:0:0:
304,252,10794,1,0,0:0:0:0:
336,252,10934,1,2,0:0:0:0:
184,216,11004,1,0,0:0:0:0:
184,216,11074,1,0,0:0:0:0:
184,216,11144,1,0,0:0:0:0:
336,252,11214,1,2,0:0:0:0:
336,252,11495,1,2,0:0:0:0:
296,216,11635,1,0,0:0:0:0:
296,216,11705,1,0,0:0:0:0:
336,252,11775,1,2,0:0:0:0:
376,260,11845,1,2,0:0:0:0:
376,260,11915,1,0,0:0:0:0:
336,252,12056,1,2,0:0:0:0:
56,200,12126,1,2,0:0:0:0:
56,200,12266,1,0,0:0:0:0:
336,252,12336,1,2,0:0:0:0:
336,252,12616,1,2,0:0:0:0:
208,208,12757,1,0,0:0:0:0:
208,208,12827,1,0,0:0:0:0:
336,252,12897,1,2,0:0:0:0:
168,200,12967,1,2,0:0:0:0:
168,200,13037,1,0,0:0:0:0:
168,200,13177,1,2,0:0:0:0:
300,284,13247,1,2,0:0:0:0:
300,284,13317,1,0,0:0:0:0:
260,200,13457,1,2,0:0:0:0:
260,192,13738,1,2,0:0:0:0:
252,184,13878,1,0,0:0:0:0:
252,184,13948,1,0,0:0:0:0:
252,184,14018,1,2,0:0:0:0:
252,184,14088,1,2,0:0:0:0:
252,184,14158,1,0,0:0:0:0:
208,208,14299,1,2,0:0:0:0:
208,208,14369,1,0,0:0:0:0:
208,208,14509,1,0,0:0:0:0:
208,208,14579,1,2,0:0:0:0:
144,208,14859,1,2,0:0:0:0:
232,220,14999,1,0,0:0:0:0:
232,220,15070,1,0,0:0:0:0:
232,220,15140,1,2,0:0:0:0:
232,208,15210,1,2,0:0:0:0:
232,208,15280,1,0,0:0:0:0:
232,208,15420,1,2,0:0:0:0:
232,208,15490,1,0,0:0:0:0:
232,208,15560,1,0,0:0:0:0:
232,208,15630,1,0,0:0:0:0:
232,208,15700,1,2,0:0:0:0:
256,196,15981,1,2,0:0:0:0:
272,232,16121,1,0,0:0:0:0:
272,232,16191,1,0,0:0:0:0:
256,196,16261,1,2,0:0:0:0:
272,232,16331,1,2,0:0:0:0:
272,232,16401,1,0,0:0:0:0:
256,196,16542,1,2,0:0:0:0:
172,184,16612,1,0,0:0:0:0:
172,272,16752,1,0,0:0:0:0:
256,196,16822,1,2,0:0:0:0:
256,196,17102,1,2,0:0:0:0:
264,220,17242,1,0,0:0:0:0:
264,220,17313,1,0,0:0:0:0:
256,196,17383,1,2,0:0:0:0:
264,220,17453,1,0,0:0:0:0:
264,220,17523,1,2,0:0:0:0:
264,220,17593,1,0,0:0:0:0:
256,196,17663,1,2,0:0:0:0:
264,220,17733,1,2,0:0:0:0:
264,220,17803,1,0,0:0:0:0:
244,192,17873,1,2,0:0:0:0:
264,220,17943,1,0,0:0:0:0:
120,180,18084,1,0,0:0:0:0:
120,180,18224,1,2,0:0:0:0:
124,176,18364,1,0,0:0:0:0:
124,176,18504,1,0,0:0:0:0:
96,212,18574,1,2,0:0:0:0:
96,212,18644,1,0,0:0:0:0:
124,176,18785,1,2,0:0:0:0:
124,176,18925,1,2,0:0:0:0:
272,204,18995,1,0,0:0:0:0:
152,200,19065,1,2,0:0:0:0:
288,268,19205,1,0,0:0:0:0:
288,268,19345,1,2,0:0:0:0:
292,264,19485,1,2,0:0:0:0:
288,268,19556,1,0,0:0:0:0:
288,268,19626,1,2,0:0:0:0:
288,268,19696,1,2,0:0:0:0:
288,268,19766,1,0,0:0:0:0:
288,268,19906,1,2,0:0:0:0:
288,268,20046,1,2,0:0:0:0:
288,268,20116,1,2,0:0:0:0:
288,264,20186,1,0,0:0:0:0:
328,220,20327,1,0,0:0:0:0:
328,220,20467,1,2,0:0:0:0:
328,220,20607,1,2,0:0:0:0:
320,216,20677,1,0,0:0:0:0:
320,216,20747,1,2,0:0:0:0:
320,216,20817,1,2,0:0:0:0:
320,216,20887,1,0,0:0:0:0:
320,216,21027,1,0,0:0:0:0:
320,216,21098,1,0,0:0:0:0:
320,216,21168,1,2,0:0:0:0:
320,216,21238,1,0,0:0:0:0:
308,208,21308,1,2,0:0:0:0:
232,204,21448,1,0,0:0:0:0:
232,204,21588,1,2,0:0:0:0:
232,204,21728,1,2,0:0:0:0:
232,204,21799,1,2,0:0:0:0:
232,204,21869,1,0,0:0:0:0:
232,204,21939,1,0,0:0:0:0:
232,204,22009,1,2,0:0:0:0:
232,204,22149,1,0,0:0:0:0:
232,204,22289,1,2,0:0:0:0:
232,204,22429,1,0,0:0:0:0:
260,228,22710,1,2,0:0:0:0:
280,272,22850,1,0,0:0:0:0:
280,272,22920,1,0,0:0:0:0:
280,272,22990,1,2,0:0:0:0:
280,272,23060,1,0,0:0:0:0:
280,272,23130,1,2,0:0:0:0:
280,272,23270,1,2,0:0:0:0:
280,272,23341,1,0,0:0:0:0:
280,272,23411,1,2,0:0:0:0:
280,272,23481,1,2,0:0:0:0:
280,272,23551,1,0,0:0:0:0:
248,224,23691,1,2,0:0:0:0:
248,224,23831,1,0,0:0:0:0:
248,224,23971,1,2,0:0:0:0:
272,216,24112,1,0,0:0:0:0:
272,216,24182,1,0,0:0:0:0:
272,216,24252,1,2,0:0:0:0:
272,216,24392,1,2,0:0:0:0:
272,216,24532,1,0,0:0:0:0:
272,216,24602,1,2,0:0:0:0:
272,216,24672,1,0,0:0:0:0:
28,176,24813,1,0,0:0:0:0:
28,176,24953,1,2,0:0:0:0:
164,212,25093,1,0,0:0:0:0:
164,212,25163,1,0,0:0:0:0:
164,212,25233,1,2,0:0:0:0:
164,212,25303,1,0,0:0:0:0:
164,212,25373,1,2,0:0:0:0:
164,212,25513,1,2,0:0:0:0:
164,212,25584,1,0,0:0:0:0:
164,212,25654,1,2,0:0:0:0:
164,212,25724,1,2,0:0:0:0:
164,212,25794,1,0,0:0:0:0:
352,248,25934,1,0,0:0:0:0:
336,244,26074,1,2,0:0:0:0:
316,240,26214,1,2,0:0:0:0:
316,240,26285,1,2,0:0:0:0:
316,240,26355,1,0,0:0:0:0:
316,240,26425,1,0,0:0:0:0:
316,240,26495,1,2,0:0:0:0:
316,240,26565,1,0,0:0:0:0:
316,240,26635,1,2,0:0:0:0:
316,240,26705,1,2,0:0:0:0:
316,240,26775,1,0,0:0:0:0:
316,240,26845,1,2,0:0:0:0:
264,220,26915,1,0,0:0:0:0:
120,180,27056,1,0,0:0:0:0:
120,180,27196,1,2,0:0:0:0:
124,176,27336,1,0,0:0:0:0:
124,176,27476,1,0,0:0:0:0:
96,212,27546,1,2,0:0:0:0:
96,212,27616,1,0,0:0:0:0:
124,176,27757,1,2,0:0:0:0:
124,176,27897,1,2,0:0:0:0:
272,204,27967,1,0,0:0:0:0:
152,200,28037,1,2,0:0:0:0:
288,268,28177,1,0,0:0:0:0:
288,268,28317,1,2,0:0:0:0:
292,264,28457,1,2,0:0:0:0:
288,268,28528,1,0,0:0:0:0:
288,268,28598,1,2,0:0:0:0:
288,268,28668,1,2,0:0:0:0:
288,268,28738,1,0,0:0:0:0:
288,268,28878,1,2,0:0:0:0:
288,268,29018,1,2,0:0:0:0:
288,268,29088,1,2,0:0:0:0:
288,264,29158,1,0,0:0:0:0:
328,220,29299,1,0,0:0:0:0:
328,220,29439,1,2,0:0:0:0:
328,220,29579,1,2,0:0:0:0:
320,216,29649,1,0,0:0:0:0:
320,216,29719,1,2,0:0:0:0:
320,216,29789,1,2,0:0:0:0:
320,216,29859,1,0,0:0:0:0:
320,216,29999,1,0,0:0:0:0:
320,216,30070,1,0,0:0:0:0:
320,216,30140,1,2,0:0:0:0:
320,216,30210,1,0,0:0:0:0:
308,208,30280,1,2,0:0:0:0:
232,204,30420,1,0,0:0:0:0:
232,204,30560,1,2,0:0:0:0:
232,204,30700,1,2,0:0:0:0:
232,204,30771,1,2,0:0:0:0:
232,204,30841,1,0,0:0:0:0:
232,204,30911,1,0,0:0:0:0:
232,204,30981,1,2,0:0:0:0:
232,204,31121,1,0,0:0:0:0:
232,204,31261,1,2,0:0:0:0:
232,204,31401,1,0,0:0:0:0:
260,228,31682,1,2,0:0:0:0:
280,272,31822,1,0,0:0:0:0:
280,272,31892,1,0,0:0:0:0:
280,272,31962,1,2,0:0:0:0:
280,272,32032,1,0,0:0:0:0:
280,272,32102,1,2,0:0:0:0:
280,272,32242,1,2,0:0:0:0:
280,272,32313,1,0,0:0:0:0:
280,272,32383,1,2,0:0:0:0:
280,272,32453,1,2,0:0:0:0:
280,272,32523,1,0,0:0:0:0:
248,224,32663,1,2,0:0:0:0:
248,224,32803,1,0,0:0:0:0:
248,224,32943,1,2,0:0:0:0:
272,216,33084,1,0,0:0:0:0:
272,216,33154,1,0,0:0:0:0:
272,216,33224,1,2,0:0:0:0:
272,216,33364,1,2,0:0:0:0:
272,216,33504,1,0,0:0:0:0:
272,216,33574,1,2,0:0:0:0:
272,216,33644,1,0,0:0:0:0:
28,176,33785,1,0,0:0:0:0:
28,176,33925,1,2,0:0:0:0:
164,212,34065,1,0,0:0:0:0:
164,212,34135,1,0,0:0:0:0:
164,212,34205,1,2,0:0:0:0:
164,212,34275,1,0,0:0:0:0:
164,212,34345,1,2,0:0:0:0:
164,212,34485,1,2,0:0:0:0:
164,212,34556,1,0,0:0:0:0:
164,212,34626,1,2,0:0:0:0:
164,212,34696,1,2,0:0:0:0:
164,212,34766,1,0,0:0:0:0:
352,248,34906,1,0,0:0:0:0:
336,244,35046,1,2,0:0:0:0:
316,240,35186,1,2,0:0:0:0:
316,240,35257,1,2,0:0:0:0:
316,240,35327,1,0,0:0:0:0:
316,240,35397,1,0,0:0:0:0:
316,240,35467,1,2,0:0:0:0:
316,240,35537,1,0,0:0:0:0:
316,240,35607,1,2,0:0:0:0:
316,240,35677,1,2,0:0:0:0:
316,240,35747,1,0,0:0:0:0:
316,240,35817,1,2,0:0:0:0:
316,240,35887,1,0,0:0:0:0:
200,212,36027,1,0,0:0:0:0:
200,212,36168,1,2,0:0:0:0:
200,212,36308,1,0,0:0:0:0:
308,252,36448,1,0,0:0:0:0:
180,200,36518,1,0,0:0:0:0:
308,252,36588,1,2,0:0:0:0:
180,200,36728,1,2,0:0:0:0:
136,188,36799,1,0,0:0:0:0:
180,200,36869,1,2,0:0:0:0:
180,200,36939,1,2,0:0:0:0:
180,200,37009,1,0,0:0:0:0:
180,200,37149,1,0,0:0:0:0:
180,200,37289,1,2,0:0:0:0:
180,200,37429,1,0,0:0:0:0:
180,200,37499,1,0,0:0:0:0:
180,200,37570,1,2,0:0:0:0:
180,200,37640,1,0,0:0:0:0:
180,200,37710,1,2,0:0:0:0:
308,280,37850,1,4,0:0:0:0:
180,200,37990,1,2,0:0:0:0:
308,280,38130,1,4,0:0:0:0:
128,172,38270,1,0,0:0:0:0:
128,172,38411,1,2,0:0:0:0:
128,172,38551,1,0,0:0:0:0:
268,216,38621,1,0,0:0:0:0:
268,216,38691,1,2,0:0:0:0:
268,216,38761,1,2,0:0:0:0:
268,216,38831,1,0,0:0:0:0:
268,216,38971,1,2,0:0:0:0:
268,216,39042,1,0,0:0:0:0:
268,216,39112,1,2,0:0:0:0:
268,216,39182,1,2,0:0:0:0:
268,216,39252,1,0,0:0:0:0:
136,188,39392,1,0,0:0:0:0:
136,188,39532,1,2,0:0:0:0:
136,188,39672,1,0,0:0:0:0:
136,188,39742,1,2,0:0:0:0:
136,188,39813,1,0,0:0:0:0:
136,188,39883,1,0,0:0:0:0:
136,188,39953,1,2,0:0:0:0:
136,188,40093,1,2,0:0:0:0:
136,188,40163,1,0,0:0:0:0:
136,188,40233,1,2,0:0:0:0:
236,200,40373,1,4,0:0:0:0:
300,240,40513,1,0,0:0:0:0:
296,240,40654,1,2,0:0:0:0:
372,272,40794,1,0,0:0:0:0:
372,272,40934,1,0,0:0:0:0:
372,272,41004,1,0,0:0:0:0:
372,272,41074,1,2,0:0:0:0:
372,272,41214,1,0,0:0:0:0:
372,272,41355,1,2,0:0:0:0:
372,272,41425,1,0,0:0:0:0:
372,272,41495,1,2,0:0:0:0:
112,180,41635,1,0,0:0:0:0:
112,180,41775,1,2,0:0:0:0:
356,240,41915,1,0,0:0:0:0:
356,240,41985,1,0,0:0:0:0:
356,240,42056,1,2,0:0:0:0:
356,240,42126,1,0,0:0:0:0:
356,240,42196,1,2,0:0:0:0:
272,208,42336,1,4,0:0:0:0:
212,160,42476,1,2,0:0:0:0:
268,212,42616,1,4,0:0:0:0:
276,220,42756,1,0,0:0:0:0:
276,220,42897,1,2,0:0:0:0:
308,232,43037,1,2,0:0:0:0:
308,232,43107,1,0,0:0:0:0:
308,232,43177,1,2,0:0:0:0:
308,232,43247,1,2,0:0:0:0:
308,232,43317,1,0,0:0:0:0:
308,232,43457,1,0,0:0:0:0:
308,232,43527,1,0,0:0:0:0:
308,232,43598,1,2,0:0:0:0:
308,232,43668,1,0,0:0:0:0:
308,232,43738,1,2,0:0:0:0:
316,248,43878,1,0,0:0:0:0:
316,248,44018,1,2,0:0:0:0:
316,248,44158,1,2,0:0:0:0:
316,248,44228,1,2,0:0:0:0:
316,248,44299,1,0,0:0:0:0:
316,248,44369,1,0,0:0:0:0:
316,248,44439,1,2,0:0:0:0:
400,208,44579,1,2,0:0:0:0:
380,304,44719,1,2,0:0:0:0:
380,304,44789,1,0,0:0:0:0:
316,240,44859,1,2,0:0:0:0:
200,212,44999,1,0,0:0:0:0:
200,212,45140,1,2,0:0:0:0:
200,212,45280,1,0,0:0:0:0:
308,252,45420,1,0,0:0:0:0:
180,200,45490,1,0,0:0:0:0:
308,252,45560,1,2,0:0:0:0:
180,200,45700,1,2,0:0:0:0:
136,188,45771,1,0,0:0:0:0:
180,200,45841,1,2,0:0:0:0:
180,200,45911,1,2,0:0:0:0:
180,200,45981,1,0,0:0:0:0:
180,200,46121,1,0,0:0:0:0:
180,200,46261,1,2,0:0:0:0:
180,200,46401,1,0,0:0:0:0:
180,200,46471,1,0,0:0:0:0:
180,200,46542,1,2,0:0:0:0:
180,200,46612,1,0,0:0:0:0:
180,200,46682,1,2,0:0:0:0:
308,280,46822,1,4,0:0:0:0:
180,200,46962,1,2,0:0:0:0:
308,280,47102,1,4,0:0:0:0:
128,172,47242,1,0,0:0:0:0:
128,172,47383,1,2,0:0:0:0:
128,172,47523,1,0,0:0:0:0:
268,216,47593,1,0,0:0:0:0:
268,216,47663,1,2,0:0:0:0:
268,216,47733,1,2,0:0:0:0:
268,216,47803,1,0,0:0:0:0:
268,216,47943,1,2,0:0:0:0:
268,216,48014,1,0,0:0:0:0:
268,216,48084,1,2,0:0:0:0:
268,216,48154,1,2,0:0:0:0:
268,216,48224,1,0,0:0:0:0:
136,188,48364,1,0,0:0:0:0:
136,188,48504,1,2,0:0:0:0:
136,188,48644,1,0,0:0:0:0:
136,188,48714,1,2,0:0:0:0:
136,188,48785,1,0,0:0:0:0:
136,188,48855,1,0,0:0:0:0:
136,188,48925,1,2,0:0:0:0:
136,188,49065,1,2,0:0:0:0:
136,188,49135,1,0,0:0:0:0:
136,188,49205,1,2,0:0:0:0:
236,200,49345,1,4,0:0:0:0:
300,240,49485,1,0,0:0:0:0:
296,240,49626,1,2,0:0:0:0:
372,272,49766,1,0,0:0:0:0:
372,272,49906,1,0,0:0:0:0:
372,272,49976,1,0,0:0:0:0:
372,272,50046,1,2,0:0:0:0:
372,272,50186,1,0,0:0:0:0:
372,272,50327,1,2,0:0:0:0:
372,272,50397,1,0,0:0:0:0:
372,272,50467,1,2,0:0:0:0:
112,180,50607,1,0,0:0:0:0:
112,180,50747,1,2,0:0:0:0:
356,240,50887,1,0,0:0:0:0:
356,240,50957,1,0,0:0:0:0:
356,240,51028,1,2,0:0:0:0:
356,240,51098,1,0,0:0:0:0:
356,240,51168,1,2,0:0:0:0:
212,160,51308,1,2,0:0:0:0:
212,200,51378,1,2,0:0:0:0:
272,208,51448,1,0,0:0:0:0:
212,200,51518,1,0,0:0:0:0:
216,148,51588,1,2,0:0:0:0:
216,148,51658,1,0,0:0:0:0:
216,148,51728,1,0,0:0:0:0:
216,148,51799,1,0,0:0:0:0:
216,148,51869,1,0,0:0:0:0:
216,148,51939,1,0,0:0:0:0:
216,148,52009,1,2,0:0:0:0:
216,148,52079,1,0,0:0:0:0:
216,148,52149,1,0,0:0:0:0:
328,192,52219,1,0,0:0:0:0:
328,192,52289,1,0,0:0:0:0:
328,192,52359,1,0,0:0:0:0:
328,192,52429,1,2,0:0:0:0:
296,216,52499,1,0,0:0:0:0:
296,216,52570,1,0,0:0:0:0:
296,216,52640,1,0,0:0:0:0:
296,216,52710,1,0,0:0:0:0:
296,216,52780,1,0,0:0:0:0:
296,216,52850,1,2,0:0:0:0:
412,224,52920,1,0,0:0:0:0:
324,200,52990,1,0,0:0:0:0:
324,200,53060,1,0,0:0:0:0:
324,200,53130,1,0,0:0:0:0:
324,200,53200,1,0,0:0:0:0:
324,200,53270,1,2,0:0:0:0:
312,192,53341,1,0,0:0:0:0:
312,192,53411,1,0,0:0:0:0:
312,192,53481,1,0,0:0:0:0:
312,192,53551,1,2,0:0:0:0:
312,192,53621,1,0,0:0:0:0:
312,192,53691,1,2,0:0:0:0:
312,192,53761,1,0,0:0:0:0:
216,148,53831,1,2,0:0:0:0:
216,148,53901,1,0,0:0:0:0:
216,148,53971,1,0,0:0:0:0:
216,148,54042,1,0,0:0:0:0:
216,148,54112,1,0,0:0:0:0:
216,148,54182,1,0,0:0:0:0:
216,148,54252,1,2,0:0:0:0:
216,148,54322,1,0,0:0:0:0:
216,148,54392,1,0,0:0:0:0:
328,192,54462,1,0,0:0:0:0:
328,192,54532,1,0,0:0:0:0:
328,192,54602,1,0,0:0:0:0:
328,192,54672,1,2,0:0:0:0:
296,216,54742,1,0,0:0:0:0:
296,216,54813,1,0,0:0:0:0:
296,216,54883,1,0,0:0:0:0:
296,216,54953,1,0,0:0:0:0:
296,216,55023,1,0,0:0:0:0:
296,216,55093,1,2,0:0:0:0:
412,224,55163,1,0,0:0:0:0:
324,200,55233,1,0,0:0:0:0:
324,200,55303,1,0,0:0:0:0:
324,200,55373,1,0,0:0:0:0:
324,200,55443,1,0,0:0:0:0:
324,200,55513,1,2,0:0:0:0:
312,192,55584,1,0,0:0:0:0:
312,192,55654,1,0,0:0:0:0:
312,192,55724,1,0,0:0:0:0:
312,192,55794,1,2,0:0:0:0:
312,192,55864,1,0,0:0:0:0:
312,192,55934,1,2,0:0:0:0:
312,192,56004,1,2,0:0:0:0:
312,192,56074,1,0,0:0:0:0:
224,264,56214,1,0,0:0:0:0:
224,264,56285,1,0,0:0:0:0:
224,264,56355,1,0,0:0:0:0:
224,264,56425,1,0,0:0:0:0:
224,264,56495,1,2,0:0:0:0:
224,264,56635,1,0,0:0:0:0:
224,264,56706,1,0,0:0:0:0:
224,264,56776,1,0,0:0:0:0:
224,264,56846,1,0,0:0:0:0:
224,264,56916,1,2,0:0:0:0:
224,264,57056,1,0,0:0:0:0:
224,264,57127,1,0,0:0:0:0:
224,264,57197,1,0,0:0:0:0:
224,264,57267,1,0,0:0:0:0:
224,264,57337,1,2,0:0:0:0:
224,264,57476,1,0,0:0:0:0:
224,264,57547,1,0,0:0:0:0:
224,264,57617,1,0,0:0:0:0:
224,264,57687,1,0,0:0:0:0:
224,264,57757,1,2,0:0:0:0:
224,264,57897,1,0,0:0:0:0:
224,264,57968,1,0,0:0:0:0:
224,264,58038,1,0,0:0:0:0:
224,264,58108,1,0,0:0:0:0:
224,264,58178,1,2,0:0:0:0:
264,212,58224,1,0,0:0:0:0:
256,192,58270,1,0,0:0:0:0:
264,212,58317,1,2,0:0:0:0:
220,204,58738,1,2,0:0:0:0:
220,204,59158,1,2,0:0:0:0:
224,200,59439,1,2,0:0:0:0:
224,200,59626,1,2,0:0:0:0:
224,200,59813,1,2,0:0:0:0:
224,200,59999,1,2,0:0:0:0:
224,200,60186,1,0,0:0:0:0:
224,200,60373,1,0,0:0:0:0:
276,288,60560,1,2,0:0:0:0:
248,240,60841,1,0,0:0:0:0:
248,240,60981,1,2,0:0:0:0:
248,240,61051,1,0,0:0:0:0:
248,240,61121,1,2,0:0:0:0:
248,240,61261,1,0,0:0:0:0:
248,240,61401,1,2,0:0:0:0:
248,240,61471,1,2,0:0:0:0:
248,240,61542,1,0,0:0:0:0:
248,240,61682,1,2,0:0:0:0:
248,240,61822,1,0,0:0:0:0:
248,240,61962,1,2,0:0:0:0:
236,168,62102,1,2,0:0:0:0:
236,168,62172,1,0,0:0:0:0:
236,168,62242,1,2,0:0:0:0:
236,168,62383,1,0,0:0:0:0:
236,168,62523,1,2,0:0:0:0:
224,152,62663,1,0,0:0:0:0:
224,152,62803,1,2,0:0:0:0:
256,240,63084,1,2,0:0:0:0:
264,232,63224,1,2,0:0:0:0:
264,232,63294,1,0,0:0:0:0:
264,232,63364,1,2,0:0:0:0:
232,216,63504,1,0,0:0:0:0:
236,216,63644,1,2,0:0:0:0:
240,212,63714,1,2,0:0:0:0:
240,212,63785,1,0,0:0:0:0:
260,232,63925,1,2,0:0:0:0:
192,216,64065,1,0,0:0:0:0:
200,208,64205,1,2,0:0:0:0:
204,208,64345,1,0,0:0:0:0:
204,208,64415,1,0,0:0:0:0:
204,204,64485,1,2,0:0:0:0:
208,204,64626,1,0,0:0:0:0:
208,204,64766,1,2,0:0:0:0:
208,204,64906,1,0,0:0:0:0:
208,204,65046,1,0,0:0:0:0:
132,184,65327,1,2,0:0:0:0:
320,220,65467,1,2,0:0:0:0:
320,220,65537,1,0,0:0:0:0:
320,220,65607,1,2,0:0:0:0:
320,220,65747,1,0,0:0:0:0:
320,220,65887,1,2,0:0:0:0:
320,220,65957,1,2,0:0:0:0:
320,220,66027,1,0,0:0:0:0:
320,220,66168,1,2,0:0:0:0:
320,220,66308,1,0,0:0:0:0:
320,220,66448,1,2,0:0:0:0:
320,220,66588,1,2,0:0:0:0:
320,220,66658,1,0,0:0:0:0:
320,220,66728,1,2,0:0:0:0:
320,220,66869,1,0,0:0:0:0:
320,220,67009,1,2,0:0:0:0:
212,152,67149,1,0,0:0:0:0:
504,288,67219,1,0,0:0:0:0:
212,152,67289,1,2,0:0:0:0:
280,212,67429,1,0,0:0:0:0:
280,212,67570,1,2,0:0:0:0:
280,212,67710,1,2,0:0:0:0:
280,212,67780,1,0,0:0:0:0:
280,212,67850,1,2,0:0:0:0:
264,200,67990,1,0,0:0:0:0:
264,200,68130,1,2,0:0:0:0:
264,200,68200,1,2,0:0:0:0:
268,196,68270,1,0,0:0:0:0:
260,184,68341,1,0,0:0:0:0:
264,200,68411,1,2,0:0:0:0:
264,200,68551,1,0,0:0:0:0:
264,200,68691,1,2,0:0:0:0:
264,200,68831,1,2,0:0:0:0:
264,200,68901,1,0,0:0:0:0:
264,200,68971,1,2,0:0:0:0:
264,200,69112,1,0,0:0:0:0:
264,200,69252,1,2,0:0:0:0:
264,200,69322,1,2,0:0:0:0:
264,200,69392,1,2,0:0:0:0:
264,200,69462,1,2,0:0:0:0:
264,200,69532,1,0,0:0:0:0:
248,240,69813,1,0,0:0:0:0:
248,240,69953,1,2,0:0:0:0:
248,240,70023,1,0,0:0:0:0:
248,240,70093,1,2,0:0:0:0:
248,240,70233,1,0,0:0:0:0:
248,240,70373,1,2,0:0:0:0:
248,240,70443,1,2,0:0:0:0:
248,240,70514,1,0,0:0:0:0:
248,240,70654,1,2,0:0:0:0:
248,240,70794,1,0,0:0:0:0:
248,240,70934,1,2,0:0:0:0:
236,168,71074,1,2,0:0:0:0:
236,168,71144,1,0,0:0:0:0:
236,168,71214,1,2,0:0:0:0:
236,168,71355,1,0,0:0:0:0:
236,168,71495,1,2,0:0:0:0:
224,152,71635,1,0,0:0:0:0:
224,152,71775,1,2,0:0:0:0:
256,240,72056,1,2,0:0:0:0:
264,232,72196,1,2,0:0:0:0:
264,232,72266,1,0,0:0:0:0:
264,232,72336,1,2,0:0:0:0:
232,216,72476,1,0,0:0:0:0:
236,216,72616,1,2,0:0:0:0:
240,212,72686,1,2,0:0:0:0:
240,212,72757,1,0,0:0:0:0:
260,232,72897,1,2,0:0:0:0:
192,216,73037,1,0,0:0:0:0:
200,208,73177,1,2,0:0:0:0:
204,208,73317,1,0,0:0:0:0:
204,208,73387,1,0,0:0:0:0:
204,204,73457,1,2,0:0:0:0:
208,204,73598,1,0,0:0:0:0:
208,204,73738,1,2,0:0:0:0:
208,204,73878,1,0,0:0:0:0:
208,204,74018,1,0,0:0:0:0:
132,184,74299,1,2,0:0:0:0:
320,220,74439,1,2,0:0:0:0:
320,220,74509,1,0,0:0:0:0:
320,220,74579,1,2,0:0:0:0:
320,220,74719,1,0,0:0:0:0:
320,220,74859,1,2,0:0:0:0:
320,220,74929,1,2,0:0:0:0:
320,220,74999,1,0,0:0:0:0:
320,220,75140,1,2,0:0:0:0:
320,220,75280,1,0,0:0:0:0:
320,220,75420,1,2,0:0:0:0:
320,220,75560,1,2,0:0:0:0:
320,220,75630,1,0,0:0:0:0:
320,220,75700,1,2,0:0:0:0:
320,220,75841,1,0,0:0:0:0:
224,212,75911,1,0,0:0:0:0:
320,220,75981,1,2,0:0:0:0:
224,212,76051,1,0,0:0:0:0:
212,152,76121,1,0,0:0:0:0:
504,288,76191,1,0,0:0:0:0:
212,152,76261,1,2,0:0:0:0:
280,212,76401,1,0,0:0:0:0:
280,212,76542,1,2,0:0:0:0:
188,200,76612,1,2,0:0:0:0:
280,212,76682,1,0,0:0:0:0:
280,212,76752,1,0,0:0:0:0:
280,212,76822,1,2,0:0:0:0:
264,200,76962,1,0,0:0:0:0:
264,200,77102,1,2,0:0:0:0:
264,200,77172,1,2,0:0:0:0:
268,196,77242,1,0,0:0:0:0:
264,200,77383,1,2,0:0:0:0:
264,200,77523,1,0,0:0:0:0:
264,200,77663,1,2,0:0:0:0:
264,200,77803,1,2,0:0:0:0:
264,200,77873,1,0,0:0:0:0:
264,200,77943,1,2,0:0:0:0:
264,200,78084,1,0,0:0:0:0:
264,200,78224,1,2,0:0:0:0:
264,200,78294,1,2,0:0:0:0:
264,200,78364,1,2,0:0:0:0:
264,200,78434,1,2,0:0:0:0:
264,200,78504,1,0,0:0:0:0:
328,264,78644,1,0,0:0:0:0:
328,264,78785,1,2,0:0:0:0:
328,264,78925,1,2,0:0:0:0:
328,264,78995,1,0,0:0:0:0:
328,264,79065,1,2,0:0:0:0:
328,264,79205,1,0,0:0:0:0:
344,264,79345,1,2,0:0:0:0:
344,264,79415,1,0,0:0:0:0:
344,264,79485,1,2,0:0:0:0:
344,264,79556,1,2,0:0:0:0:
344,264,79626,1,0,0:0:0:0:
344,264,79766,1,0,0:0:0:0:
344,264,79906,1,2,0:0:0:0:
344,264,80046,1,2,0:0:0:0:
344,264,80116,1,0,0:0:0:0:
344,264,80186,1,2,0:0:0:0:
344,264,80327,1,0,0:0:0:0:
344,264,80467,1,2,0:0:0:0:
344,264,80607,1,0,0:0:0:0:
224,200,80677,1,0,0:0:0:0:
124,188,80747,1,2,0:0:0:0:
212,200,80817,1,0,0:0:0:0:
220,208,80887,1,0,0:0:0:0:
224,200,80957,1,0,0:0:0:0:
116,184,81027,1,2,0:0:0:0:
116,184,81168,1,0,0:0:0:0:
116,184,81238,1,0,0:0:0:0:
112,172,81308,1,2,0:0:0:0:
116,168,81448,1,0,0:0:0:0:
116,168,81588,1,2,0:0:0:0:
116,168,81658,1,0,0:0:0:0:
116,168,81728,1,2,0:0:0:0:
120,168,81799,1,2,0:0:0:0:
120,168,81869,1,0,0:0:0:0:
156,172,82009,1,2,0:0:0:0:
156,172,82149,1,0,0:0:0:0:
156,172,82289,1,2,0:0:0:0:
156,172,82359,1,2,0:0:0:0:
156,172,82429,1,0,0:0:0:0:
156,172,82570,1,2,0:0:0:0:
424,284,82640,1,0,0:0:0:0:
424,284,82710,1,2,0:0:0:0:
424,284,82850,1,2,0:0:0:0:
156,152,82920,1,2,0:0:0:0:
368,280,82990,1,0,0:0:0:0:
304,232,83130,1,2,0:0:0:0:
304,232,83270,1,0,0:0:0:0:
304,232,83411,1,2,0:0:0:0:
304,232,83481,1,0,0:0:0:0:
304,232,83551,1,2,0:0:0:0:
304,232,83691,1,0,0:0:0:0:
404,320,83761,1,0,0:0:0:0:
304,232,83831,1,2,0:0:0:0:
304,232,83901,1,0,0:0:0:0:
304,232,83971,1,2,0:0:0:0:
304,232,84112,1,0,0:0:0:0:
368,228,84182,1,0,0:0:0:0:
368,228,84252,1,2,0:0:0:0:
376,240,84392,1,0,0:0:0:0:
376,240,84532,1,2,0:0:0:0:
376,240,84602,1,2,0:0:0:0:
376,240,84672,1,0,0:0:0:0:
376,240,84813,1,2,0:0:0:0:
376,240,84953,1,0,0:0:0:0:
376,240,85023,1,0,0:0:0:0:
376,240,85093,1,2,0:0:0:0:
376,240,85233,1,0,0:0:0:0:
316,220,85373,1,2,0:0:0:0:
392,240,85443,1,0,0:0:0:0:
300,184,85513,1,2,0:0:0:0:
392,240,85654,1,2,0:0:0:0:
392,240,85724,1,2,0:0:0:0:
392,240,85794,1,0,0:0:0:0:
392,240,85864,1,0,0:0:0:0:
392,240,85934,1,2,0:0:0:0:
392,240,86074,1,2,0:0:0:0:
392,240,86144,1,0,0:0:0:0:
392,240,86214,1,2,0:0:0:0:
392,240,86355,1,0,0:0:0:0:
392,240,86495,1,2,0:0:0:0:
392,240,86635,1,0,0:0:0:0:
392,240,86775,1,2,0:0:0:0:
392,240,86845,1,2,0:0:0:0:
392,240,86915,1,0,0:0:0:0:
392,240,87056,1,0,0:0:0:0:
392,240,87196,1,2,0:0:0:0:
392,240,87266,1,2,0:0:0:0:
392,240,87336,1,2,0:0:0:0:
392,240,87406,1,2,0:0:0:0:
264,200,87476,1,0,0:0:0:0:
328,264,87616,1,0,0:0:0:0:
328,264,87757,1,2,0:0:0:0:
328,264,87897,1,2,0:0:0:0:
328,264,87967,1,0,0:0:0:0:
328,264,88037,1,2,0:0:0:0:
328,264,88177,1,0,0:0:0:0:
344,264,88317,1,2,0:0:0:0:
344,264,88387,1,0,0:0:0:0:
344,264,88457,1,2,0:0:0:0:
344,264,88528,1,2,0:0:0:0:
344,264,88598,1,0,0:0:0:0:
344,264,88738,1,0,0:0:0:0:
344,264,88878,1,2,0:0:0:0:
344,264,89018,1,2,0:0:0:0:
344,264,89088,1,0,0:0:0:0:
344,264,89158,1,2,0:0:0:0:
344,264,89299,1,0,0:0:0:0:
344,264,89439,1,2,0:0:0:0:
344,264,89579,1,0,0:0:0:0:
224,200,89649,1,0,0:0:0:0:
124,188,89719,1,2,0:0:0:0:
212,200,89789,1,0,0:0:0:0:
220,208,89859,1,0,0:0:0:0:
224,200,89929,1,0,0:0:0:0:
116,184,89999,1,2,0:0:0:0:
116,184,90140,1,0,0:0:0:0:
116,184,90210,1,0,0:0:0:0:
112,172,90280,1,2,0:0:0:0:
116,168,90420,1,0,0:0:0:0:
116,168,90560,1,2,0:0:0:0:
116,168,90630,1,0,0:0:0:0:
116,168,90700,1,2,0:0:0:0:
120,168,90771,1,2,0:0:0:0:
120,168,90841,1,0,0:0:0:0:
156,172,90981,1,2,0:0:0:0:
156,172,91121,1,0,0:0:0:0:
156,172,91261,1,2,0:0:0:0:
156,172,91331,1,2,0:0:0:0:
156,172,91401,1,0,0:0:0:0:
156,172,91542,1,2,0:0:0:0:
424,284,91612,1,0,0:0:0:0:
424,284,91682,1,2,0:0:0:0:
424,284,91822,1,2,0:0:0:0:
156,152,91892,1,2,0:0:0:0:
368,280,91962,1,0,0:0:0:0:
304,232,92102,1,2,0:0:0:0:
304,232,92242,1,0,0:0:0:0:
304,232,92383,1,2,0:0:0:0:
304,232,92453,1,0,0:0:0:0:
304,232,92523,1,2,0:0:0:0:
304,232,92663,1,0,0:0:0:0:
404,320,92733,1,0,0:0:0:0:
304,232,92803,1,2,0:0:0:0:
304,232,92873,1,0,0:0:0:0:
304,232,92943,1,2,0:0:0:0:
304,232,93084,1,0,0:0:0:0:
368,228,93154,1,0,0:0:0:0:
368,228,93224,1,2,0:0:0:0:
376,240,93364,1,0,0:0:0:0:
376,240,93504,1,2,0:0:0:0:
376,240,93574,1,2,0:0:0:0:
376,240,93644,1,0,0:0:0:0:
376,240,93785,1,2,0:0:0:0:
376,240,93925,1,0,0:0:0:0:
376,240,93995,1,0,0:0:0:0:
376,240,94065,1,2,0:0:0:0:
376,240,94205,1,0,0:0:0:0:
316,220,94345,1,2,0:0:0:0:
392,240,94415,1,0,0:0:0:0:
300,184,94485,1,2,0:0:0:0:
392,240,94626,1,2,0:0:0:0:
392,240,94696,1,2,0:0:0:0:
392,240,94766,1,0,0:0:0:0:
392,240,94836,1,0,0:0:0:0:
392,240,94906,1,2,0:0:0:0:
392,240,95046,1,2,0:0:0:0:
392,240,95116,1,0,0:0:0:0:
392,240,95186,1,2,0:0:0:0:
392,240,95327,1,2,0:0:0:0:
392,240,95467,1,0,0:0:0:0:
392,240,95607,1,2,0:0:0:0:
392,240,95747,1,2,0:0:0:0:
392,240,95817,1,2,0:0:0:0:
392,240,95887,1,0,0:0:0:0:
392,240,96028,1,0,0:0:0:0:
212,224,96098,1,0,0:0:0:0:
392,240,96168,1,2,0:0:0:0:
392,240,96238,1,2,0:0:0:0:
392,240,96308,1,2,0:0:0:0:
392,240,96378,1,2,0:0:0:0:
392,240,96448,1,0,0:0:0:0:
64,176,96588,1,0,0:0:0:0:
248,192,96728,1,2,0:0:0:0:
248,192,96869,1,2,0:0:0:0:
248,192,96939,1,0,0:0:0:0:
248,192,97009,1,2,0:0:0:0:
248,192,97079,1,2,0:0:0:0:
248,192,97149,1,0,0:0:0:0:
248,192,97289,1,2,0:0:0:0:
240,192,97359,1,0,0:0:0:0:
240,192,97429,1,2,0:0:0:0:
240,192,97570,1,0,0:0:0:0:
236,256,97640,1,0,0:0:0:0:
240,192,97710,1,2,0:0:0:0:
240,192,97850,1,2,0:0:0:0:
240,192,97990,1,2,0:0:0:0:
240,192,98060,1,2,0:0:0:0:
240,192,98130,1,0,0:0:0:0:
240,192,98270,1,2,0:0:0:0:
240,192,98411,1,2,0:0:0:0:
240,192,98481,1,0,0:0:0:0:
240,192,98551,1,2,0:0:0:0:
240,192,98621,1,2,0:0:0:0:
240,192,98691,1,0,0:0:0:0:
240,192,98831,1,2,0:0:0:0:
236,192,98901,1,0,0:0:0:0:
240,192,98971,1,2,0:0:0:0:
236,192,99042,1,2,0:0:0:0:
236,192,99112,1,0,0:0:0:0:
228,188,99182,1,0,0:0:0:0:
228,188,99252,1,2,0:0:0:0:
228,188,99392,1,0,0:0:0:0:
228,188,99532,1,2,0:0:0:0:
228,188,99602,1,0,0:0:0:0:
228,188,99672,1,2,0:0:0:0:
228,188,99813,1,0,0:0:0:0:
204,168,99953,1,2,0:0:0:0:
204,168,100023,1,0,0:0:0:0:
204,168,100093,1,2,0:0:0:0:
204,168,100233,1,2,0:0:0:0:
204,168,100303,1,2,0:0:0:0:
204,168,100373,1,0,0:0:0:0:
204,168,100513,1,2,0:0:0:0:
204,168,100654,1,2,0:0:0:0:
204,168,100724,1,0,0:0:0:0:
204,168,100794,1,2,0:0:0:0:
204,168,100864,1,2,0:0:0:0:
204,168,100934,1,0,0:0:0:0:
204,168,101074,1,0,0:0:0:0:
204,156,101144,1,0,0:0:0:0:
204,168,101214,1,2,0:0:0:0:
204,156,101355,1,2,0:0:0:0:
204,156,101425,1,0,0:0:0:0:
204,156,101495,1,2,0:0:0:0:
204,156,101565,1,0,0:0:0:0:
204,156,101635,1,2,0:0:0:0:
204,156,101705,1,2,0:0:0:0:
204,156,101775,1,2,0:0:0:0:
204,156,101845,1,0,0:0:0:0:
204,156,101915,1,2,0:0:0:0:
204,156,102056,1,2,0:0:0:0:
192,144,102126,1,0,0:0:0:0:
192,144,102196,1,2,0:0:0:0:
192,144,102336,1,0,0:0:0:0:
192,144,102476,1,2,0:0:0:0:
192,144,102546,1,2,0:0:0:0:
192,144,102616,1,0,0:0:0:0:
192,144,102756,1,2,0:0:0:0:
192,144,102897,1,2,0:0:0:0:
192,144,102967,1,0,0:0:0:0:
192,144,103037,1,2,0:0:0:0:
192,144,103107,1,2,0:0:0:0:
192,144,103177,1,0,0:0:0:0:
372,224,103317,1,2,0:0:0:0:
368,212,103387,1,0,0:0:0:0:
368,212,103457,1,2,0:0:0:0:
368,212,103598,1,2,0:0:0:0:
368,212,103668,1,2,0:0:0:0:
368,212,103738,1,0,0:0:0:0:
368,212,103808,1,0,0:0:0:0:
368,212,103878,1,2,0:0:0:0:
368,212,104018,1,2,0:0:0:0:
368,212,104088,1,0,0:0:0:0:
368,212,104158,1,2,0:0:0:0:
368,212,104299,1,2,0:0:0:0:
368,212,104439,1,0,0:0:0:0:
368,212,104579,1,2,0:0:0:0:
368,212,104649,1,0,0:0:0:0:
368,212,104719,1,2,0:0:0:0:
368,212,104789,1,2,0:0:0:0:
368,212,104859,1,0,0:0:0:0:
368,212,104999,1,0,0:0:0:0:
368,212,105140,1,2,0:0:0:0:
368,212,105210,1,2,0:0:0:0:
368,212,105280,1,2,0:0:0:0:
368,212,105350,1,2,0:0:0:0:
392,240,105420,1,0,0:0:0:0:
64,176,105560,1,0,0:0:0:0:
248,192,105700,1,2,0:0:0:0:
248,192,105841,1,2,0:0:0:0:
248,192,105911,1,0,0:0:0:0:
248,192,105981,1,2,0:0:0:0:
248,192,106051,1,2,0:0:0:0:
248,192,106121,1,0,0:0:0:0:
248,192,106261,1,2,0:0:0:0:
240,192,106331,1,0,0:0:0:0:
240,192,106401,1,2,0:0:0:0:
240,192,106542,1,0,0:0:0:0:
236,256,106612,1,0,0:0:0:0:
240,192,106682,1,2,0:0:0:0:
240,192,106822,1,2,0:0:0:0:
240,192,106962,1,2,0:0:0:0:
240,192,107032,1,2,0:0:0:0:
240,192,107102,1,0,0:0:0:0:
240,192,107242,1,2,0:0:0:0:
240,192,107383,1,2,0:0:0:0:
240,192,107453,1,0,0:0:0:0:
240,192,107523,1,2,0:0:0:0:
240,192,107593,1,2,0:0:0:0:
240,192,107663,1,0,0:0:0:0:
240,192,107803,1,2,0:0:0:0:
236,192,107873,1,0,0:0:0:0:
240,192,107943,1,2,0:0:0:0:
236,192,108014,1,2,0:0:0:0:
236,192,108084,1,0,0:0:0:0:
228,188,108154,1,0,0:0:0:0:
228,188,108224,1,2,0:0:0:0:
228,188,108364,1,0,0:0:0:0:
228,188,108504,1,2,0:0:0:0:
228,188,108574,1,0,0:0:0:0:
228,188,108644,1,2,0:0:0:0:
228,188,108785,1,0,0:0:0:0:
204,168,108925,1,2,0:0:0:0:
204,168,108995,1,0,0:0:0:0:
204,168,109065,1,2,0:0:0:0:
204,168,109205,1,2,0:0:0:0:
204,168,109275,1,2,0:0:0:0:
204,168,109345,1,0,0:0:0:0:
204,168,109485,1,2,0:0:0:0:
204,168,109626,1,2,0:0:0:0:
204,168,109696,1,0,0:0:0:0:
204,168,109766,1,2,0:0:0:0:
204,168,109836,1,2,0:0:0:0:
204,168,109906,1,0,0:0:0:0:
204,168,110046,1,0,0:0:0:0:
204,156,110116,1,0,0:0:0:0:
204,168,110186,1,2,0:0:0:0:
204,156,110327,1,2,0:0:0:0:
204,156,110397,1,0,0:0:0:0:
204,156,110467,1,2,0:0:0:0:
204,156,110537,1,0,0:0:0:0:
204,156,110607,1,2,0:0:0:0:
204,156,110677,1,2,0:0:0:0:
204,156,110747,1,2,0:0:0:0:
204,156,110817,1,0,0:0:0:0:
204,156,110887,1,2,0:0:0:0:
204,156,111028,1,2,0:0:0:0:
192,144,111098,1,0,0:0:0:0:
192,144,111168,1,2,0:0:0:0:
192,144,111308,1,0,0:0:0:0:
192,144,111448,1,2,0:0:0:0:
192,144,111518,1,2,0:0:0:0:
192,144,111588,1,0,0:0:0:0:
192,144,111728,1,2,0:0:0:0:
192,144,111869,1,2,0:0:0:0:
192,144,111939,1,0,0:0:0:0:
192,144,112009,1,2,0:0:0:0:
192,144,112079,1,2,0:0:0:0:
192,144,112149,1,0,0:0:0:0:
372,224,112289,1,2,0:0:0:0:
368,212,112359,1,0,0:0:0:0:
368,212,112429,1,2,0:0:0:0:
368,212,112570,1,2,0:0:0:0:
368,212,112640,1,2,0:0:0:0:
368,212,112710,1,0,0:0:0:0:
368,212,112780,1,0,0:0:0:0:
368,212,112850,1,2,0:0:0:0:
368,212,112990,1,2,0:0:0:0:
368,212,113060,1,0,0:0:0:0:
368,212,113130,1,2,0:0:0:0:
368,212,113271,1,2,0:0:0:0:
368,212,113411,1,0,0:0:0:0:
368,212,113551,1,2,0:0:0:0:
368,212,113621,1,0,0:0:0:0:
368,212,113691,1,2,0:0:0:0:
368,212,113761,1,2,0:0:0:0:
368,212,113831,1,0,0:0:0:0:
368,212,113971,1,0,0:0:0:0:
368,212,114112,1,2,0:0:0:0:
368,212,114182,1,2,0:0:0:0:
368,212,114252,1,2,0:0:0:0:
368,212,114322,1,2,0:0:0:0:
368,212,114392,1,0,0:0:0:0:
360,244,114462,1,2,0:0:0:0:
360,244,114532,1,0,0:0:0:0:
360,244,114672,1,2,0:0:0:0:
360,244,114813,1,2,0:0:0:0:
360,244,114883,1,2,0:0:0:0:
360,244,114953,1,0,0:0:0:0:
360,244,115023,1,0,0:0:0:0:
360,244,115093,1,2,0:0:0:0:
360,244,115163,1,0,0:0:0:0:
360,244,115233,1,2,0:0:0:0:
360,244,115303,1,0,0:0:0:0:
360,244,115373,1,2,0:0:0:0:
360,244,115443,1,2,0:0:0:0:
360,244,115513,1,2,0:0:0:0:
360,244,115584,1,0,0:0:0:0:
360,244,115654,1,2,0:0:0:0:
360,244,115794,1,0,0:0:0:0:
360,244,115934,1,2,0:0:0:0:
360,244,116004,1,2,0:0:0:0:
360,244,116074,1,0,0:0:0:0:
360,244,116214,1,2,0:0:0:0:
360,244,116355,1,2,0:0:0:0:
360,244,116425,1,0,0:0:0:0:
360,244,116495,1,2,0:0:0:0:
140,200,116635,1,0,0:0:0:0:
140,200,116775,1,2,0:0:0:0:
140,200,116845,1,0,0:0:0:0:
140,200,116915,1,2,0:0:0:0:
140,200,116985,1,0,0:0:0:0:
140,200,117056,1,2,0:0:0:0:
140,200,117126,1,2,0:0:0:0:
300,220,117196,1,0,0:0:0:0:
284,216,117266,1,0,0:0:0:0:
284,216,117336,1,2,0:0:0:0:
280,216,117476,1,0,0:0:0:0:
276,216,117616,1,2,0:0:0:0:
276,216,117686,1,0,0:0:0:0:
276,216,117756,1,2,0:0:0:0:
292,212,117827,1,2,0:0:0:0:
292,212,117897,1,0,0:0:0:0:
292,212,118037,1,2,0:0:0:0:
292,212,118177,1,2,0:0:0:0:
292,212,118247,1,0,0:0:0:0:
292,212,118317,1,2,0:0:0:0:
292,212,118457,1,0,0:0:0:0:
292,212,118598,1,2,0:0:0:0:
292,212,118668,1,2,0:0:0:0:
292,212,118738,1,0,0:0:0:0:
292,212,118808,1,0,0:0:0:0:
292,212,118878,1,2,0:0:0:0:
292,212,119018,1,0,0:0:0:0:
292,212,119158,1,2,0:0:0:0:
292,212,119228,1,0,0:0:0:0:
292,212,119299,1,2,0:0:0:0:
292,212,119369,1,2,0:0:0:0:
292,212,119439,1,0,0:0:0:0:
292,212,119509,1,0,0:0:0:0:
292,212,119579,1,2,0:0:0:0:
292,212,119649,1,0,0:0:0:0:
292,212,119719,1,2,0:0:0:0:
292,212,119789,1,2,0:0:0:0:
292,212,119859,1,0,0:0:0:0:
292,212,119929,1,0,0:0:0:0:
292,212,119999,1,2,0:0:0:0:
292,212,120070,1,0,0:0:0:0:
292,212,120140,1,2,0:0:0:0:
292,212,120280,1,2,0:0:0:0:
292,212,120350,1,0,0:0:0:0:
292,212,120420,1,2,0:0:0:0:
292,212,120490,1,2,0:0:0:0:
292,212,120560,1,0,0:0:0:0:
292,212,120700,1,0,0:0:0:0:
292,212,120841,1,2,0:0:0:0:
292,212,120911,1,0,0:0:0:0:
292,212,120981,1,2,0:0:0:0:
292,212,121051,1,2,0:0:0:0:
292,212,121121,1,0,0:0:0:0:
312,240,121191,1,0,0:0:0:0:
292,212,121261,1,2,0:0:0:0:
292,212,121401,1,0,0:0:0:0:
292,212,121542,1,2,0:0:0:0:
292,212,121682,1,2,0:0:0:0:
292,212,121752,1,2,0:0:0:0:
292,212,121822,1,0,0:0:0:0:
292,212,121892,1,0,0:0:0:0:
292,212,121962,1,2,0:0:0:0:
352,216,122102,1,2,0:0:0:0:
272,192,122172,1,0,0:0:0:0:
264,184,122242,1,2,0:0:0:0:
208,216,122313,1,2,0:0:0:0:
264,184,122383,1,0,0:0:0:0:
264,184,122523,1,2,0:0:0:0:
264,184,122663,1,2,0:0:0:0:
328,212,122733,1,2,0:0:0:0:
264,184,122803,1,0,0:0:0:0:
328,212,122943,1,2,0:0:0:0:
328,212,123084,1,2,0:0:0:0:
328,212,123154,1,2,0:0:0:0:
328,212,123224,1,2,0:0:0:0:
328,212,123294,1,2,0:0:0:0:
368,212,123364,1,0,0:0:0:0:
360,244,123434,1,2,0:0:0:0:
360,244,123504,1,0,0:0:0:0:
360,244,123644,1,2,0:0:0:0:
360,244,123785,1,2,0:0:0:0:
360,244,123855,1,2,0:0:0:0:
360,244,123925,1,0,0:0:0:0:
360,244,123995,1,0,0:0:0:0:
360,244,124065,1,2,0:0:0:0:
360,244,124135,1,0,0:0:0:0:
360,244,124205,1,2,0:0:0:0:
360,244,124275,1,0,0:0:0:0:
360,244,124345,1,2,0:0:0:0:
360,244,124415,1,2,0:0:0:0:
360,244,124485,1,2,0:0:0:0:
360,244,124556,1,0,0:0:0:0:
360,244,124626,1,2,0:0:0:0:
360,244,124766,1,0,0:0:0:0:
360,244,124906,1,2,0:0:0:0:
360,244,124976,1,2,0:0:0:0:
360,244,125046,1,0,0:0:0:0:
360,244,125186,1,2,0:0:0:0:
360,244,125327,1,2,0:0:0:0:
360,244,125397,1,0,0:0:0:0:
360,244,125467,1,2,0:0:0:0:
140,200,125607,1,0,0:0:0:0:
140,200,125747,1,2,0:0:0:0:
140,200,125817,1,0,0:0:0:0:
140,200,125887,1,2,0:0:0:0:
140,200,125957,1,0,0:0:0:0:
140,200,126028,1,2,0:0:0:0:
140,200,126098,1,2,0:0:0:0:
300,220,126168,1,0,0:0:0:0:
284,216,126238,1,0,0:0:0:0:
284,216,126308,1,2,0:0:0:0:
280,216,126448,1,0,0:0:0:0:
276,216,126588,1,2,0:0:0:0:
276,216,126658,1,0,0:0:0:0:
276,216,126728,1,2,0:0:0:0:
292,212,126799,1,2,0:0:0:0:
292,212,126869,1,0,0:0:0:0:
292,212,127009,1,2,0:0:0:0:
292,212,127149,1,2,0:0:0:0:
292,212,127219,1,0,0:0:0:0:
292,212,127289,1,2,0:0:0:0:
292,212,127429,1,0,0:0:0:0:
292,212,127570,1,2,0:0:0:0:
292,212,127640,1,2,0:0:0:0:
292,212,127710,1,0,0:0:0:0:
292,212,127780,1,0,0:0:0:0:
292,212,127850,1,2,0:0:0:0:
292,212,127990,1,0,0:0:0:0:
292,212,128130,1,2,0:0:0:0:
292,212,128200,1,0,0:0:0:0:
292,212,128271,1,2,0:0:0:0:
292,212,128341,1,2,0:0:0:0:
292,212,128411,1,0,0:0:0:0:
292,212,128481,1,0,0:0:0:0:
292,212,128551,1,2,0:0:0:0:
292,212,128621,1,0,0:0:0:0:
292,212,128691,1,2,0:0:0:0:
292,212,128761,1,2,0:0:0:0:
292,212,128831,1,0,0:0:0:0:
292,212,128901,1,0,0:0:0:0:
292,212,128971,1,2,0:0:0:0:
292,212,129042,1,0,0:0:0:0:
292,212,129112,1,2,0:0:0:0:
292,212,129252,1,2,0:0:0:0:
292,212,129322,1,0,0:0:0:0:
292,212,129392,1,2,0:0:0:0:
292,212,129462,1,2,0:0:0:0:
292,212,129532,1,0,0:0:0:0:
292,212,129672,1,2,0:0:0:0:
292,212,129813,1,0,0:0:0:0:
292,212,129883,1,0,0:0:0:0:
292,212,129953,1,2,0:0:0:0:
292,212,130023,1,0,0:0:0:0:
216,188,130093,5,2,0:0:0:0:
216,188,130233,1,0,0:0:0:0:
216,188,130303,1,0,0:0:0:0:
216,188,130373,1,0,0:0:0:0:
216,188,130443,1,0,0:0:0:0:
216,188,130513,1,2,0:0:0:0:
216,188,130654,1,0,0:0:0:0:
216,188,130724,1,0,0:0:0:0:
216,188,130794,1,0,0:0:0:0:
216,188,130864,1,0,0:0:0:0:
216,188,130934,1,2,0:0:0:0:
216,188,131074,1,0,0:0:0:0:
216,188,131144,1,0,0:0:0:0:
216,188,131214,1,0,0:0:0:0:
216,188,131284,1,0,0:0:0:0:
216,188,131354,1,2,0:0:0:0:
216,188,131495,1,0,0:0:0:0:
216,188,131565,1,0,0:0:0:0:
216,188,131635,1,0,0:0:0:0:
216,188,131705,1,0,0:0:0:0:
216,188,131775,1,2,0:0:0:0:
116,184,131915,1,0,0:0:0:0:
116,184,131985,1,0,0:0:0:0:
116,184,132056,1,2,0:0:0:0:
116,184,132196,1,0,0:0:0:0:
216,188,132336,5,2,0:0:0:0:
216,188,132476,1,0,0:0:0:0:
216,188,132546,1,0,0:0:0:0:
216,188,132616,1,0,0:0:0:0:
216,188,132686,1,0,0:0:0:0:
216,188,132756,1,2,0:0:0:0:
216,188,132897,1,0,0:0:0:0:
216,188,132967,1,0,0:0:0:0:
216,188,133037,1,0,0:0:0:0:
216,188,133107,1,0,0:0:0:0:
216,188,133177,1,2,0:0:0:0:
216,188,133317,1,0,0:0:0:0:
216,188,133387,1,0,0:0:0:0:
216,188,133457,1,0,0:0:0:0:
216,188,133527,1,0,0:0:0:0:
216,188,133597,1,2,0:0:0:0:
216,188,133738,1,0,0:0:0:0:
216,188,133808,1,0,0:0:0:0:
216,188,133878,1,0,0:0:0:0:
216,188,133948,1,0,0:0:0:0:
216,188,134018,1,2,0:0:0:0:
116,184,134158,1,0,0:0:0:0:
116,184,134228,1,0,0:0:0:0:
116,184,134299,1,2,0:0:0:0:
116,184,134439,1,0,0:0:0:0:
256,192,134579,12,0,136822,0:0:0:0:
