osu file format v9

[General]
AudioFilename: In The Ruins.mp3
AudioLeadIn: 0
PreviewTime: 10632
Countdown: 0
SampleSet: Soft
StackLeniency: 0.5
Mode: 0
LetterboxInBreaks: 1

[Editor]
DistanceSpacing: 0.8
BeatDivisor: 4
GridSize: 8

[Metadata]
Title:In The Ruins
Artist:good-cool feat. CHiCO
Creator:ouranhshc
Version:Insane
Source:pop'n music 15 ADVENTURE
Tags:Disoy ErufenRito

[Difficulty]
HPDrainRate:7
CircleSize:4
OverallDifficulty:7
ApproachRate:8
SliderMultiplier:2
SliderTickRate:2

[Events]
//Background and Video events
0,0,"Egypt_by_Filsd.jpg"
//Break Periods
//Storyboard Layer 0 (Background)
//Storyboard Layer 1 (Fail)
//Storyboard Layer 2 (Pass)
//Storyboard Layer 3 (Foreground)
//Storyboard Sound Samples
//Background Colour Transformations
3,100,163,162,255

[TimingPoints]
1422,384.615384615385,4,2,0,100,1,0
7537,-200,4,2,0,100,0,0
8441,-50,4,2,0,100,0,0
8891,-100,4,2,0,100,0,0

[Colours]
Combo1 : 254,242,0
Combo2 : 237,0,140
Combo3 : 0,192,245
Combo4 : 255,102,0

[HitObjects]
64,304,2960,2,0,B|80:360|144:360,1,100,4|0
136,288,3345,2,0,B|240:288,1,100,2|0
208,216,3729,2,0,B|312:216,2,100,2|0|2
136,216,4306,1,0
80,80,4691,5,0
144,56,4883,1,2
208,32,5075,1,0
272,8,5268,2,0,B|376:8,2,100,2|0|2
288,216,6229,5,0
360,112,6421,1,2
288,216,6614,1,0
408,184,6806,1,2
288,216,6998,1,0
400,272,7191,1,2
288,216,7383,1,0
336,336,7575,6,0,B|296:336|296:336|272:352|200:352|176:336|176:336|136:336,1,200
304,232,8537,6,0,B|104:232,1,200
136,80,9114,5,0
160,80,9210,1,0
184,80,9306,1,0
208,80,9402,1,0
232,80,9498,1,0
256,80,9595,1,0
280,80,9691,1,0
384,72,9883,6,0,B|400:48,8,25
456,232,10652,5,2
424,264,10748,1,0
384,288,10845,1,0
336,288,10941,1,0
296,272,11037,1,2
264,240,11133,1,0
224,216,11229,1,0
184,200,11325,2,0,B|128:168|64:200|64:256,1,150,2|0
56,280,11710,1,0
64,312,11806,1,2
88,336,11902,1,0
120,344,11998,1,0
152,336,12095,1,0
176,312,12191,6,0,B|232:224,1,100,2|0
248,200,12479,2,0,B|296:176|344:200,1,100,2|0
376,184,12768,2,0,B|400:136|376:88,1,100,2|0
360,56,13056,2,0,B|312:32|264:56,1,100,2|0
232,72,13345,1,2
208,96,13441,1,0
192,128,13537,1,0
184,160,13633,1,0
184,192,13729,6,0,B|184:216|200:240,3,50,2|0|0|0
224,264,14114,1,2
264,264,14210,1,0
296,248,14306,1,0
320,224,14402,2,0,B|344:176|408:168|448:200,1,150,2|0
472,232,14787,1,0
480,264,14883,1,2
480,296,14979,1,0
464,328,15075,1,0
440,352,15171,1,0
400,368,15268,6,0,B|368:416|256:312|208:368,1,200,2|0
184,368,15748,5,0
160,344,15845,1,0
152,312,15941,1,0
152,280,16037,1,2
152,248,16133,1,0
144,216,16229,1,0
128,184,16325,1,0
104,160,16421,2,0,B|56:136|8:152,1,100,2|0
16,248,16806,5,2
32,280,16902,1,0
56,304,16998,1,0
88,320,17095,1,0
120,328,17191,1,2
152,320,17287,1,0
184,296,17383,1,0
200,264,17479,2,0,B|224:208|296:208|336:240,1,150,2|0
360,256,17864,1,0
384,280,17960,1,2
416,288,18056,1,0
448,280,18152,1,0
480,256,18248,1,0
504,232,18345,6,0,B|504:128,1,100,2|0
480,104,18633,2,0,B|376:104,1,100,2|0
360,136,18921,2,0,B|256:136,1,100,2|0
240,168,19210,2,0,B|136:168,1,100,2|0
120,192,19498,1,2
88,192,19595,1,0
56,192,19691,1,0
24,192,19787,1,0
0,160,19883,6,0,B|0:112,3,50,2|0|0|0
8,80,20268,1,2
24,48,20364,1,0
48,24,20460,1,0
80,16,20556,2,0,B|200:16,1,100,0|0
216,16,20845,1,0
248,24,20941,1,0
280,32,21037,1,2
312,40,21133,1,0
344,48,21229,1,0
376,56,21326,1,0
408,64,21422,6,0,B|464:80,5,50,2|0|0|0|2|0
496,96,21998,2,0,B|536:128|536:240|496:288,1,200,4|4
288,312,22960,5,2
216,312,23152,1,0
144,320,23345,2,0,B|144:256|200:240,1,100,2|0
256,208,23729,2,0,B|360:208,2,100,2|2|2
200,160,24306,2,0,B|0:160,2,200,2|0|2
240,104,25268,1,2
272,104,25364,1,0
304,104,25460,1,0
360,152,25652,2,0,B|392:104|360:56,1,100,2|0
296,24,26037,6,0,B|96:24,1,200,2|0
24,144,26614,2,0,B|224:144,1,200,2|0
360,208,27191,6,0,B|376:232|376:256,3,50,2|0|0|0
376,288,27575,1,2
360,320,27672,1,0
336,344,27768,1,0
304,352,27864,1,0
272,352,27960,2,0,B|232:344|216:312,3,50,2|0|0|0
208,304,28345,1,2
192,272,28441,1,0
168,248,28537,1,0
144,224,28633,1,0
104,216,28729,2,0,B|72:208|40:216,3,50,2|0|0|0
24,224,29114,6,0,B|0:272|24:320,1,100,6|0
40,352,29402,1,0
72,360,29498,2,0,B|176:360,1,100,2|0
244,360,29883,1,2
280,288,30075,1,2
200,288,30268,1,2
244,360,30460,2,0,B|448:360,2,200,2|0|2
244,360,31422,1,0
160,328,31614,2,0,B|112:352,2,50,0|0|2
128,256,31998,1,0
120,224,32095,1,0
120,192,32191,6,0,B|120:120|216:120|216:24,1,200,2|0
296,25,32768,2,0,B|296:120|392:120|392:192,1,200,2|0
304,192,33345,5,2
272,176,33441,1,0
240,176,33537,1,0
208,192,33633,1,0
192,224,33729,2,0,B|192:272,3,50,2|0|0|0
208,304,34114,1,2
240,328,34210,1,0
272,328,34306,1,0
304,304,34402,1,0
320,274,34498,2,0,B|320:224,3,50,2|0|0|0
304,192,34883,1,2
272,176,34979,1,0
240,176,35075,1,0
208,192,35172,1,0
192,224,35268,6,0,B|88:224,1,100,6|0
40,144,35652,1,2
40,144,35748,1,0
40,144,35845,1,2
96,64,36037,2,0,B|208:64,1,100,0|0
248,144,36422,1,2
248,144,36518,1,0
248,144,36614,1,2
328,80,36806,6,0,B|424:48,1,100,2|0
472,136,37191,2,0,B|368:144,1,100,2|0
304,224,37575,1,2
336,224,37672,1,0
368,224,37768,1,2
400,224,37864,1,0
432,224,37960,1,2
488,304,38152,1,0
400,368,38345,6,0,B|312:320,2,100,2|0|4
112,16,39114,2,0,B|200:64,2,100,2|0|4
104,296,39883,6,0,B|136:200,1,100,0|2
408,88,40268,2,0,B|376:184,1,100,4|2
256,192,40652,5,4
256,208,40748,1,0
256,224,40845,1,0
256,240,40941,1,0
256,256,41037,1,4
256,272,41133,1,0
256,288,41229,1,0
256,304,41325,1,0
256,320,41421,5,6
344,368,41614,1,0
344,264,41806,2,0,B|344:160,1,100,2|0
440,200,42191,2,0,B|496:176|496:120,2,100,2|2|2
400,104,42768,2,0,B|336:24|216:56,1,200,2|0
192,136,43345,2,0,B|256:216|376:184,1,200,2|0
448,184,43921,6,0,B|448:288,1,100,2|2
384,344,44306,2,0,B|288:376|184:344,1,200,2|0
240,280,44883,2,0,B|144:256,1,100,2|0
88,192,45268,2,0,B|40:192,2,50,0|0|2
142,128,45652,2,0,B|240:104,1,100
304,56,46037,5,2
336,56,46133,1,0
368,56,46229,1,0
400,56,46325,1,0
432,56,46421,1,2
464,56,46518,1,0
496,56,46614,1,6
400,240,46998,1,6
208,328,47575,6,0,B|160:352|112:328,1,100,2|0
80,288,47864,1,0
112,248,47960,2,0,B|160:223|208:247,1,100,2|0
256,264,48248,1,0
296,296,48345,1,2
344,312,48441,1,0
392,296,48537,1,2
464,112,48921,5,2
384,56,49114,2,0,B|280:56,1,100,2|0
240,160,49498,2,0,B|344:160,1,100,2|0
232,24,49883,1,2
136,16,50075,2,0,B|72:32|40:104|96:176,1,200,2|0
184,232,50652,6,0,B|272:280,1,100,2|0
320,272,50941,1,0
312,224,51037,2,0,B|224:176,1,100,2|0
256,80,51421,1,2
336,56,51614,2,0,B|320:8|256:-16|192:8|176:56,2,200,2|0|2
336,104,52479,1,0
312,144,52575,1,2
216,160,52768,1,2
256,360,53152,5,2
176,352,53345,1,0
200,296,53441,1,0
256,272,53537,1,0
312,296,53633,1,0
336,352,53729,5,2
432,352,53921,1,0
464,256,54114,1,2
384,192,54306,1,0
304,256,54498,2,0,B|272:200|288:152,1,100,2|2
360,88,54883,1,0
360,88,54979,1,0
360,88,55075,1,2
280,32,55268,6,0,B|176:32,1,100,2|0
128,32,55556,1,0
128,80,55652,2,0,B|128:184,1,100,2|0
40,232,56037,1,2
88,320,56229,2,0,B|288:320,1,200,2|2
224,248,56806,6,0,B|136:200,1,100,2|0
136,152,57095,1,0
184,144,57191,2,0,B|271:191,1,100,2|0
320,184,57479,1,0
320,136,57575,2,0,B|232:88,1,100,2|0
216,40,57864,1,0
256,8,57960,1,0
304,32,58056,1,0
352,8,58152,1,0
400,32,58248,1,0
448,8,58345,5,4
496,144,58537,1,4
360,120,58729,1,0
448,8,58921,1,4
408,288,59306,2,0,B|208:288,1,200,4|0
144,336,59883,6,0,B|88:328,3,50,2|0|2|0
96,288,60268,2,0,B|144:280,3,50,2|0|2|0
144,240,60652,5,2
144,200,60748,1,2
80,112,60941,1,2
112,88,61037,1,2
152,80,61133,1,0
192,88,61229,1,2
224,112,61325,1,0
248,144,61421,6,0,B|272:168|312:176,2,50,2|0|0
216,168,61710,2,0,B|128:152|96:232,1,150,2|0
96,272,62095,1,0
112,304,62191,2,0,B|208:352|304:304,1,200,2|0
424,192,62960,6,0,B|504:128,2,100,2|0|0
360,240,63537,2,0,B|288:288|208:224|232:152,1,200,2|0
304,184,64114,2,0,B|312:128|264:88,1,100,2|0
224,32,64498,6,0,B|120:32,2,100,2|0|0
304,32,65075,2,0,B|504:32,1,200,2|0
480,112,65652,2,0,B|376:112,1,100,2|0
408,184,66037,6,0,B|472:184|472:248,1,100,6|0
392,264,66421,1,0
392,344,66614,2,0,B|320:344|320:272|208:272,1,200,2|0
208,352,67191,2,0,B|104:352,1,100,2|0
48,296,67575,2,0,B|0:200|48:104,1,200,2|0
112,152,68152,2,0,B|312:152,1,200,2|0
352,152,68633,1,0
392,152,68729,1,2
472,152,68921,1,0
504,80,69114,6,0,B|304:80,1,200,6|0
256,16,69691,2,0,B|208:64|232:120,2,100,2|0|0
168,8,70268,2,0,B|64:8,1,100,2|0
56,88,70652,6,0,B|48:200|160:240,1,200,2|0
320,240,71229,2,0,B|328:128|216:88,1,200,2|0
208,168,71806,2,0,B|272:160|296:104,1,100,2|0
344,56,72191,6,0,B|448:56,2,100,6|0|0
376,128,72768,2,0,B|440:128|488:224|424:280,1,200,2|0
344,296,73345,2,0,B|240:296,1,100,2|0
256,192,73729,12,0,74883
136,344,75268,5,6
72,296,75460,1,2
144,264,75652,1,2
80,216,75845,1,2
56,184,75941,1,0
48,144,76037,1,2
56,104,76133,1,0
80,72,76229,1,0
120,56,76325,1,0
160,56,76421,1,2
192,80,76518,1,0
208,112,76614,1,0
240,136,76710,1,0
280,144,76806,6,0,B|336:160|376:128,2,100,2|2|2
320,72,77383,2,0,B|352:24,3,50,2|0|2|0
384,16,77768,1,0
424,16,77864,1,0
456,32,77960,1,2
480,64,78056,1,0
496,104,78152,1,0
488,144,78248,1,0
472,176,78345,5,2
408,224,78537,1,2
480,256,78729,1,2
472,176,78921,5,2
448,144,79018,1,0
408,128,79114,1,2
368,128,79210,1,0
336,152,79306,1,0
312,184,79402,1,0
280,208,79498,1,2
240,216,79595,1,0
200,200,79691,1,0
184,160,79787,1,0
176,120,79883,5,4
288,32,80075,1,4
176,120,80268,1,4
312,104,80460,1,4
176,120,80652,1,4
304,176,80845,1,4
176,120,81037,1,4
256,232,81229,1,4
176,120,81421,5,2
80,96,81614,2,0,B|72:176|128:200,1,100,2|2
24,240,81998,2,0,B|56:280,3,50,2|0|2|0
96,312,82383,2,0,B|152:328,3,50,0|0|2|0
192,328,82768,1,0
240,320,82864,1,0
288,304,82960,6,0,B|352:288|368:232,2,100,2|2|2
208,240,83537,1,2
160,216,83633,1,0
136,168,83729,1,2
136,120,83825,1,0
160,72,83921,2,0,B|176:56|208:48,3,50,0|0|2|0
256,40,84306,1,0
304,56,84402,1,0
336,88,84498,5,4
448,192,84691,1,4
336,88,84883,1,4
376,232,85075,1,4
336,88,85268,1,4
296,232,85460,1,4
336,88,85652,1,4
224,192,85845,1,4
336,88,86037,5,2
304,64,86133,1,0
264,56,86229,1,2
224,56,86325,1,0
184,72,86421,1,2
152,96,86518,1,0
136,136,86614,1,2
136,176,86710,1,0
152,216,86806,1,2
176,248,86902,1,0
192,288,86998,1,2
192,328,87095,1,0
168,360,87191,1,2
136,376,87287,1,0
96,384,87383,1,2
56,376,87479,1,0
24,352,87575,6,0,B|0:304,3,50,2|0|0|0
0,264,87960,1,2
8,224,88056,1,0
24,184,88152,1,0
48,152,88248,2,0,B|120:128|192:184,1,150,2|0
224,200,88633,1,0
264,208,88729,1,2
304,208,88825,1,0
344,192,88921,1,0
368,160,89018,1,0
376,120,89114,6,0,B|384:64|376:16,1,100,2|0
336,8,89402,2,0,B|232:8,1,100,2|0
200,24,89691,2,0,B|176:72|200:120,1,100,2|0
224,152,89979,2,0,B|248:200|224:248,1,100,2|0
192,272,90268,2,0,B|136:288,3,50,2|0|0|0
104,288,90652,5,2
64,272,90748,1,0
48,232,90845,1,0
48,192,90941,1,0
64,152,91037,1,2
96,128,91133,1,0
136,120,91229,1,0
176,120,91325,2,0,B|232:128|280:96|288:40,1,150,2|0
256,16,91710,2,0,B|208:16,4,50,0|2|0|0|0
296,16,92191,6,0,B|352:-16|448:51|400:144,1,200,2|2
400,168,92671,1,0
384,208,92768,1,0
352,232,92864,1,0
312,248,92960,1,2
272,248,93056,1,0
232,240,93152,1,0
200,216,93248,1,0
168,200,93345,2,0,B|120:168|72:184,1,100,2|0
16,304,93729,6,0,B|32:344|72:352,3,50,2|0|0|0
88,352,94114,1,2
128,344,94210,1,0
168,328,94306,1,0
200,304,94402,2,0,B|232:240|208:152,1,150,2|0
192,120,94787,1,0
160,96,94883,1,2
120,88,94979,1,0
80,88,95075,1,0
48,112,95171,1,0
24,144,95268,6,0,B|48:240,1,100,2|0
88,232,95556,2,0,B|136:320,1,100,2|0
160,288,95845,2,0,B|248:344,1,100,2|0
264,304,96133,2,0,B|368:304,1,100,2|0
376,264,96421,2,0,B|432:264,3,50,2|0|0|0
464,248,96806,5,2
488,216,96902,1,0
496,176,96998,1,0
496,136,97095,1,0
488,96,97191,1,2
472,64,97287,1,0
448,32,97383,1,0
408,24,97479,2,0,B|328:8|272:72,1,150,2|0
256,112,97864,1,0
248,152,97960,1,2
224,184,98056,1,0
192,216,98152,1,0
152,224,98248,1,0
112,224,98345,6,0,B|64:224,3,50,2|0|2|0
24,232,98729,1,2
8,272,98825,1,0
8,312,98921,1,2
200,352,99306,1,4
360,328,99691,5,2
376,288,99787,1,0
368,248,99883,1,2
352,216,99979,1,0
320,192,100075,1,2
280,176,100171,1,0
256,144,100268,1,2
248,104,100364,1,0
248,64,100460,1,2
248,64,100845,1,4
40,144,101229,5,0
48,184,101325,1,0
72,216,101421,1,2
104,240,101518,1,0
144,248,101614,1,2
184,256,101710,1,0
224,264,101806,1,2
256,288,101902,1,0
280,320,101998,1,2
280,320,102383,1,4
472,264,102960,6,0,B|384:208,1,100,2|0
456,160,103345,1,2
392,120,103537,1,0
328,72,103729,2,0,B|368:32|424:48,2,100,2|0|2
320,152,104306,1,0
160,152,104691,5,2
96,208,104883,1,0
176,232,105075,1,2
240,176,105268,2,0,B|272:80,1,100,0|2
352,56,105652,2,0,B|320:152,1,100,2|0
256,288,106037,5,4
256,288,106133,1,0
160,192,106325,1,4
160,192,106421,1,0
256,96,106614,1,4
256,96,106710,1,0
352,192,106902,1,4
352,192,106998,1,0
256,192,107191,5,0
256,192,107287,1,0
256,192,107383,1,0
256,192,107479,1,0
256,192,107575,1,4
