osu file format v9

[General]
AudioFilename: In The Ruins.mp3
AudioLeadIn: 0
PreviewTime: 10632
Countdown: 0
SampleSet: Soft
StackLeniency: 0.5
Mode: 0
LetterboxInBreaks: 1

[Editor]
DistanceSpacing: 0.9
BeatDivisor: 4
GridSize: 8

[Metadata]
Title:In The Ruins
Artist:good-cool feat. CHiCO
Creator:ouranhshc
Version:Easy
Source:pop'n music 15 ADVENTURE
Tags:Disoy ErufenRito

[Difficulty]
HPDrainRate:2
CircleSize:3
OverallDifficulty:2
ApproachRate:2
SliderMultiplier:1
SliderTickRate:1

[Events]
//Background and Video events
0,0,"Egypt_by_Filsd.jpg"
//Break Periods
//Storyboard Layer 0 (Background)
//Storyboard Layer 1 (Fail)
//Storyboard Layer 2 (Pass)
//Storyboard Layer 3 (Foreground)
//Storyboard Sound Samples
//Background Colour Transformations
3,100,163,162,255

[TimingPoints]
1422,384.615384615385,4,2,0,100,1,0
7537,-200,4,2,0,100,0,0
8891,-100,4,2,0,100,0,0
10412,-100,4,2,0,100,0,0

[Colours]
Combo1 : 254,242,0
Combo2 : 237,0,140
Combo3 : 0,192,245
Combo4 : 255,102,0

[HitObjects]
112,64,2960,2,0,B|72:120|112:160|152:200|112:256,1,200,0|2
184,112,4498,2,0,B|280:72|384:112,1,200,0|2
480,240,6037,2,0,B|424:336|312:336,1,200,0|2
256,192,7575,12,0,9114
96,40,9883,6,0,B|200:40,1,100
208,128,10652,6,0,B|312:128,1,99.9999999999999,2|0
280,216,11422,2,0,B|384:216,1,99.9999999999999,2|0
352,304,12191,2,0,B|504:304,2,150,2|0|0
272,344,13729,6,0,B|224:368|176:344,1,99.9999999999999,2|0
224,264,14498,1,2
136,264,14883,1,0
48,240,15268,2,0,B|0:144|48:48,1,200,2|0
224,32,16806,6,0,B|272:8|320:32,1,99.9999999999999,2|0
272,112,17575,2,0,B|224:136|176:112,1,99.9999999999999,2|0
128,184,18345,2,0,B|72:192|64:232|72:280|128:288,2,150,2|2|2
208,224,19883,5,2
288,272,20268,1,0
304,360,20652,2,0,B|368:344|376:288,1,99.9999999999999,2|0
464,320,21422,2,0,B|464:160,1,150,2|4
464,80,22383,1,4
336,32,22960,5,0
248,56,23345,1,2
256,144,23729,2,0,B|192:144|168:88,1,99.9999999999999,0|2
80,96,24498,2,0,B|40:160|72:248,2,150,2|2|0
160,48,26037,2,0,B|232:48|232:104|296:104,1,150,2|2
256,192,27191,12,0,29114
264,232,29883,2,0,B|184:296,1,99.9999999999999,0|2
112,344,30652,2,0,B|48:352|16:288|48:248,2,150,2|2|0
144,256,32191,2,0,B|144:192|200:168|200:120,1,150,2|2
256,192,33345,12,0,35268
368,40,36037,6,0,B|264:40,1,100
168,56,36806,2,0,B|96:128,1,99.9999999999999,0|2
184,152,37575,2,0,B|112:224,1,99.9999999999999,0|2
208,248,38345,6,0,B|280:168,1,100,2|4
320,248,39114,2,0,B|424:248,1,99.9999999999999,2|4
400,160,39883,1,2
472,104,40268,2,0,B|432:64|376:72,2,99.9999999999999,4|4|4
400,160,41422,6,0,B|248:160,2,150,4|2|0
384,248,42960,1,2
320,312,43345,1,0
232,320,43729,1,2
104,272,44306,6,0,B|80:192|104:120,1,150,2|0
152,48,45268,2,0,B|192:80|192:136,1,99.9999999999999,2|0
264,80,46037,2,0,B|416:80,1,150,2|6
480,144,46998,1,4
472,280,47575,6,0,B|368:280,2,99.9999999999999,4|2|0
456,368,48729,1,2
368,376,49114,2,0,B|264:376,1,99.9999999999999,2|2
176,360,49883,2,0,B|72:360,1,99.9999999999999,2|0
104,272,50652,6,0,B|168:256|184:208|168:152,2,150,2|2|0
32,224,52191,2,0,B|32:120,2,99.9999999999999,0|2|0
32,312,53345,1,2
112,352,53729,6,0,B|176:352|176:280|240:288,2,150,2|2|0
64,280,55268,2,0,B|64:176,1,99.9999999999999,2|0
144,136,56037,2,0,B|144:240,1,99.9999999999999,2|0
224,200,56806,2,0,B|224:120|320:120|320:32,1,200,2|0
472,136,58345,6,0,B|472:216|392:256,1,150,2|4
304,272,59306,1,4
184,328,59883,6,0,B|80:328,1,99.9999999999999,0|2
48,248,60652,2,0,B|152:248,1,99.9999999999999,0|2
184,160,61422,2,0,B|256:160|256:40|336:40,1,200,2|2
432,192,62960,6,0,B|392:272|304:248,2,150,2|2|0
344,168,64498,2,0,B|192:168,2,150,2|2|0
352,80,66037,6,0,B|416:96|464:56|472:16,2,150,2|2|0
272,48,67575,2,0,B|200:8|128:48,2,150,2|2|0
208,112,69114,6,0,B|128:128|112:224,1,150,2|2
248,184,70268,1,0
296,256,70652,2,0,B|376:240|392:144,2,150,2|2|0
208,264,72191,6,0,B|56:264,2,150,2|2|0
256,344,73729,2,0,B|304:344|304:344|304:288|368:240|432:288|432:344|432:344|480:344,1,300
488,248,75268,6,0,B|488:96,2,150,6|2|0
424,312,76806,2,0,B|352:352|272:320,1,150,2|2
232,192,77960,1,2
192,112,78345,2,0,B|136:152|128:232|208:280,1,200,2|0
336,152,79883,6,0,B|400:64,1,99.9999999999999,4|0
312,40,80652,2,0,B|240:136,1,99.9999999999999,4|0
192,48,81422,6,0,B|128:96|48:64,2,150,2|2|0
240,120,82960,2,0,B|176:256,2,150,2|2|0
256,192,84498,12,0,86037
256,192,86806,5,0
80,192,87575,6,0,B|112:288,1,99.9999999999999,0|2
176,224,88345,2,0,B|208:320,1,99.9999999999999,0|2
288,328,89114,2,0,B|360:336|352:264|416:264,2,150,2|2|0
272,240,90652,6,0,B|272:136,1,99.9999999999999,0|2
184,168,91422,2,0,B|184:88|120:80|56:88|56:168,1,200,2|2
56,328,92960,1,2
144,352,93345,1,0
232,336,93729,6,0,B|384:336,2,150,2|2|0
208,248,95268,2,0,B|56:248,2,150
264,176,96806,6,0,B|360:152,1,99.9999999999999,0|2
360,64,97575,2,0,B|256:88,1,99.9999999999999,0|2
200,24,98345,2,0,B|104:32|96:128,1,150,2|2
96,208,99306,1,4
168,320,99883,6,0,B|320:320,1,150,2|2
408,320,100845,1,4
440,192,101422,6,0,B|288:192,1,150,2|2
200,192,102383,1,4
184,56,102960,6,0,B|384:56,1,200,2|0
352,144,104114,1,2
440,128,104498,2,0,B|440:200|384:256|304:216,1,200,2|0
264,136,105652,5,4
176,136,106037,6,0,B|176:240,1,100,4|4
256,272,106806,1,4
184,320,107191,2,0,B|216:368|272:360,1,100,4|4
