osu file format v9

[General]
AudioFilename: 15 - Come With Me.mp3
AudioLeadIn: 2500
PreviewTime: 62184
Countdown: 1
SampleSet: Soft
StackLeniency: 0.7
Mode: 0
LetterboxInBreaks: 1

[Editor]
Bookmarks: 864,8544,16224,31584,46944,54624,62304,77664,85344,92784
DistanceSpacing: 0.8
BeatDivisor: 4
GridSize: 4

[Metadata]
Title:Come With Me
Artist:good-cool feat. Aundrea L.Hopkins
Creator:MMzz
Version:Normal
Source:beatmania IIDX 5th Style
Tags:konami makar8000

[Difficulty]
HPDrainRate:6
CircleSize:4
OverallDifficulty:5
ApproachRate:6
SliderMultiplier:1.2
SliderTickRate:1

[Events]
//Background and Video events
0,0,"Konachan.com - 104761 sample.jpg"
//Break Periods
//Storyboard Layer 0 (Background)
//Storyboard Layer 1 (Fail)
//Storyboard Layer 2 (Pass)
//Storyboard Layer 3 (Foreground)
//Storyboard Sound Samples
//Background Colour Transformations
3,100,163,162,255

[TimingPoints]
864,480,4,1,0,75,1,0
864,-100,4,2,0,75,0,0
16224,-100,4,1,0,75,0,0
31584,-100,4,2,0,75,0,0
43824,-100,4,2,0,45,0,0
45024,-100,4,2,0,55,0,0
45984,-100,4,2,0,65,0,0
47184,-100,4,2,0,75,0,0
62304,-100,4,1,0,75,0,1
77664,-100,4,1,0,75,0,0
78144,-100,4,2,0,75,0,0

[Colours]
Combo1 : 255,128,192
Combo2 : 0,128,255
Combo3 : 0,128,128
Combo4 : 200,0,200

[HitObjects]
116,320,864,1,0
176,248,1344,1,0
156,152,1824,2,2,B|228:136|260:196,1,120
288,284,2784,1,0
380,304,3264,1,0
352,212,3744,1,0
328,68,4704,5,0
232,48,5184,1,0
204,140,5664,2,2,B|136:116|136:44,1,120
44,80,6624,2,0,B|44:200,1,120
140,192,7584,1,0
168,332,8544,6,0,B|224:300|288:324,1,120,4|8
283,322,9504,1,0
288,228,9984,1,8
368,280,10464,2,0,B|372:220|432:184,1,120,0|8
431,184,11424,1,0
504,124,11904,1,8
420,88,12384,6,0,B|360:96|300:60,1,120,0|8
304,62,13344,1,0
240,136,13824,1,8
148,104,14304,1,4
256,348,15744,6,0,B|256:224,1,120,0|4
348,256,16704,2,0,B|416:276|464:224,1,120,8|0
388,168,17664,1,8
388,168,18144,1,0
460,108,18624,2,0,B|412:60|348:84,1,120,8|0
272,136,19584,2,0,B|228:184,2,60,8|0|0
296,228,20544,6,0,B|332:280|300:352,1,120,8|0
224,288,21504,1,8
224,288,21984,1,0
144,340,22464,2,0,B|112:276|148:224,1,120,8|0
212,164,23424,2,0,B|248:112,2,60,8|0|4
304,188,24384,6,0,B|352:232|416:220,1,120,8|0
452,308,25344,1,8
452,308,25824,1,0
356,308,26304,2,0,B|236:308,1,120,8|0
156,256,27264,2,0,B|96:284,2,60,8|0|0
112,172,28224,6,0,B|80:112|116:52,1,120,8|0
188,116,29184,2,0,B|232:168|300:152,1,120,8|0
272,60,30144,2,0,B|320:20|384:44,1,120,8|0
404,140,31104,1,8
324,196,31584,6,0,B|348:252|336:316|276:360|200:336,1,240,4|0
244,248,33024,1,8
148,252,33504,2,0,B|172:316|136:368,1,120,0|8
60,308,34464,2,0,B|20:248|60:188,1,120,0|8
128,136,35424,2,0,B|188:160|264:132|276:72,1,180
404,308,37344,5,0
404,308,37824,1,8
404,212,38304,2,0,B|404:92,1,120,0|8
320,48,39264,6,0,B|245:24|185:68|173:132|197:188,1,240,4|0
272,248,40704,1,8
272,248,41184,1,0
240,156,41664,2,0,B|308:140|352:192,1,120,8|0
372,96,42624,1,8
456,140,43104,2,0,B|476:200|444:260,1,120,0|8
420,292,43824,6,0,B|368:344|244:256|184:324,1,240,4|0
144,336,45024,2,0,B|76:352|36:300,3,120,4|4|4|4
116,244,46944,6,0,B|190:267|250:223|262:159|238:103,1,240,4|0
324,60,48384,1,8
388,132,48864,2,0,B|436:84|412:20,1,120,0|8
324,60,49824,2,0,B|276:108|308:176,1,120,0|8
336,260,50784,5,0
268,328,51264,2,0,B|212:364|148:332,1,120,8|0
80,272,52224,1,8
80,272,52704,1,4
144,200,53184,2,0,B|172:136|128:80,1,120,4|4
220,44,54144,1,4
220,44,54624,5,4
216,140,55104,2,0,B|191:196|203:260|263:304|337:281,1,240,8|8
372,192,56544,1,0
408,104,57024,2,0,B|334:81|274:125|262:189|286:245,1,240,8|8
256,336,58464,6,0,B|136:336,1,120,0|8
52,288,59424,2,0,B|84:228|60:168,1,120,0|8
256,192,60384,12,8,61824
420,100,62304,6,0,B|456:156|424:216,1,120,4|8
364,288,63264,1,0
364,288,63744,1,8
280,332,64224,2,0,B|100:332,1,180
96,236,65424,2,0,B|36:212,2,60,0|8|0
132,260,66144,6,0,B|156:204|136:136,1,120,0|8
84,60,67104,2,0,B|204:60,1,120,0|8
256,140,68064,2,4,B|256:232,2,90
64,284,69984,6,0,B|84:348|152:356,1,120,4|8
160,260,70944,1,0
160,260,71424,1,8
256,276,71904,2,0,B|436:276,1,180
444,180,73104,2,0,B|504:152,2,60,0|8|0
412,200,73824,6,0,B|384:144|408:80,1,120,0|8
316,52,74784,1,0
316,52,75264,1,8
228,92,75744,2,0,B|154:69|94:113|82:177|106:233,1,240,4|0
188,180,77184,1,8
188,180,77664,5,4
284,164,78144,2,0,B|292:240|220:268,1,120,8|0
280,344,79104,2,0,B|400:344,1,120,8|0
400,248,80064,1,8
400,248,80544,1,0
472,308,81024,2,0,B|512:248|476:188,1,120,8|0
432,112,81984,6,0,B|312:112,1,120,8|0
216,112,82944,1,8
140,56,83424,2,0,B|100:112|136:168,1,120,0|8
216,224,84384,1,0
340,304,85344,6,0,B|392:252|360:188,1,120,4|8
292,132,86304,1,0
292,132,86784,1,8
208,180,87264,2,0,B|176:116|224:64,2,120,0|8|0
256,264,88704,1,8
196,340,89184,6,0,B|72:340,1,120,0|8
52,248,90144,2,0,B|88:192|60:132,1,120,0|8
120,60,91104,1,0
120,60,91584,1,8
140,156,92064,2,0,B|192:192,2,60,0|0|8
100,132,92784,1,4
