osu file format v9

[General]
AudioFilename: 15 - Come With Me.mp3
AudioLeadIn: 2500
PreviewTime: 62184
Countdown: 1
SampleSet: Normal
StackLeniency: 0.7
Mode: 0
LetterboxInBreaks: 1

[Editor]
Bookmarks: 864,8544,16224,31584,46944,54624,62304,77664,85344,92784
DistanceSpacing: 0.9
BeatDivisor: 4
GridSize: 4

[Metadata]
Title:Come With Me
Artist:good-cool feat. Aundrea L.Hopkins
Creator:MMzz
Version:Hyper
Source:beatmania IIDX 5th Style
Tags:konami makar8000

[Difficulty]
HPDrainRate:7
CircleSize:4
OverallDifficulty:6
ApproachRate:8
SliderMultiplier:1.8
SliderTickRate:2

[Events]
//Background and Video events
0,0,"Konachan.com - 104761 sample.jpg"
//Break Periods
//Storyboard Layer 0 (Background)
//Storyboard Layer 1 (Fail)
//Storyboard Layer 2 (Pass)
//Storyboard Layer 3 (Foreground)
//Storyboard Sound Samples
//Background Colour Transformations
3,100,163,162,255

[TimingPoints]
864,480,4,1,0,75,1,0
864,-100,4,2,0,75,0,0
15624,-100,4,2,0,75,0,0
16224,-100,4,1,0,75,0,0
31584,-100,4,2,0,75,0,0
44784,-100,4,1,0,50,0,0
47184,-100,4,2,0,75,0,0
60144,-100,4,1,0,50,0,0
62304,-100,4,1,0,75,0,1
77664,-100,4,1,0,75,0,0
78144,-100,4,2,0,75,0,0
83184,-100,4,1,0,50,0,0
85344,-100,4,1,0,75,0,0

[Colours]
Combo1 : 255,128,192
Combo2 : 0,128,255
Combo3 : 0,128,128
Combo4 : 200,0,200

[HitObjects]
32,188,864,2,2,B|-8:124|40:60,2,135
112,188,1824,2,2,B|152:252|104:316,1,135
105,313,2544,1,2
184,328,2784,2,0,B|256:368|312:304,2,135
240,268,3744,1,0
364,44,4704,6,0,B|420:100|380:168,2,135
320,112,5664,2,2,B|256:140|188:112,1,135
188,112,6384,1,0
128,164,6624,2,0,B|88:97|144:41,2,135
128,164,7584,1,0
172,340,8064,1,0
256,264,8304,1,0
333,338,8544,6,0,B|356:264|432:256,1,135,4|0
429,256,9024,1,8
460,180,9264,1,0
508,116,9504,2,0,B|464:86|412:98|380:138|380:186,1,180,0|8
304,212,10224,2,0,B|288:164|239:156,1,90
104,60,10704,1,0
104,60,10824,1,0
104,60,10944,2,0,B|120:104|168:116,1,90,8|0
228,64,11424,2,0,B|260:96|260:152|224:192|168:192,1,180,0|8
160,272,12144,1,0
224,324,12384,6,0,B|296:300|360:340,1,135
354,336,12864,1,8
432,312,13104,1,0
380,248,13344,2,0,B|364:200|400:164,1,90
456,220,13824,2,0,B|492:184|476:132,1,90,8|0
416,84,14304,1,4
256,192,14544,12,0,15744
296,64,16224,5,4
352,124,16464,1,0
428,148,16704,2,0,B|484:216,1,90,8|0
432,344,17184,2,0,B|376:272,1,90
296,268,17664,2,0,B|284:316|248:348|200:352|152:328,1,180,8|0
188,256,18384,2,0,B|140:236|100:268,1,90,0|8
40,216,18864,1,0
112,180,19104,2,0,B|148:144|152:100|140:52|88:32,1,180,0|8
64,108,19824,1,0
64,108,20064,5,0
120,260,20544,1,8
200,256,20784,1,0
256,316,21024,2,0,B|344:352,1,90
444,284,21504,2,0,B|360:248,1,90,8|0
361,248,21984,5,0
332,88,22224,1,0
480,136,22464,1,8
480,136,22584,1,0
480,136,22704,1,0
332,88,22944,2,0,B|312:40,4,45,0|0|0|0|8
361,248,23664,1,0
444,256,23904,6,0,B|440:300|408:336|352:344|308:312,1,180,4|8
288,232,24624,2,0,B|236:240|228:296,1,90
168,344,25104,1,0
88,336,25344,1,8
60,260,25584,2,0,B|104:172|68:84,1,180
136,40,26304,1,8
136,40,26544,1,0
164,116,26784,2,0,B|200:140|252:140|300:112|312:56,2,180,0|8|0
348,268,28224,6,0,B|312:244|260:244|212:272|200:328,1,180,8|0
284,332,28944,1,0
364,352,29184,1,8
428,300,29424,1,0
420,220,29664,6,0,B|392:176,4,45,0|0|0|0|8
472,160,30384,1,0
472,160,30504,1,0
404,104,30744,1,0
404,104,30864,1,0
316,96,31104,1,8
300,96,31224,1,0
284,96,31344,1,0
268,96,31464,1,0
252,96,31584,1,4
256,328,32064,5,8
200,268,32304,1,0
140,320,32544,2,0,B|52:344,1,90
52,196,33024,2,0,B|140:176,1,90,8|0
156,96,33504,2,0,B|200:96|240:136|240:192|200:232,2,180,0|8|0
140,176,34704,1,0
140,176,34944,2,0,B|102:213|102:269|142:309|186:309,1,180,8|0
348,324,35904,5,8
428,340,36144,1,0
404,264,36384,2,0,B|472:200,1,90
448,52,36864,2,0,B|380:116,1,90,8|0
382,113,37344,1,0
312,72,37584,2,2,B|280:32,1,45
280,76,37824,2,2,B|232:68,1,45,2|2
256,104,38064,2,2,B|212:132,2,45,2|0|2
288,180,38544,2,2,B|252:200|232:248|240:300|296:340,1,180
328,256,39264,6,0,B|148:256,1,180,4|10
104,188,39984,1,0
164,44,40224,1,0
252,152,40464,1,0
104,188,40704,2,0,B|60:204|60:264,1,90,10|0
140,256,41184,2,0,B|148:300|176:340|224:352|276:336,1,180,0|10
236,268,41904,1,0
316,260,42144,2,0,B|404:284,1,90
480,176,42624,2,0,B|392:156,1,90,10|0
324,200,43104,6,0,B|296:160|304:108|340:72|392:72,1,180,0|10
424,148,43824,2,0,B|424:328,1,180
344,340,44544,1,10
272,300,44784,1,0
236,320,44904,1,0
200,336,45024,6,0,B|152:348,3,45
116,344,45504,2,0,B|72:324,3,45
52,292,45984,2,0,B|32:248,3,45
32,212,46464,2,0,B|44:168,3,45
64,132,46944,5,4
124,80,47184,2,0,B|156:120|136:164,1,90,0|8
216,168,47664,2,0,B|248:204|296:216|348:204|380:160,1,180
324,104,48384,1,8
396,68,48624,1,0
464,116,48864,6,0,B|504:200,1,90
456,324,49344,2,0,B|408:240,1,90,8|0
348,192,49824,1,0
256,304,50064,1,0
164,192,50304,1,8
256,80,50544,1,8
184,116,50784,6,0,B|140:100|92:104|56:140|56:196,1,180,0|8
136,188,51504,1,0
104,264,51744,2,0,B|104:352,1,90
184,368,52224,2,0,B|184:276,1,90,8|0
184,278,52704,5,4
252,232,52944,2,0,B|288:260,2,45,0|0|12
284,156,53424,2,0,B|332:152,2,45,0|0|4
252,80,53904,1,0
252,80,54024,1,0
252,80,54144,1,12
176,48,54384,1,8
96,60,54624,6,0,B|96:108|128:144|184:152|228:116,1,180,4|8
300,84,55344,2,0,B|384:56,1,90
472,152,55824,2,0,B|384:184,1,90,0|8
436,256,56304,1,0
356,264,56544,6,0,B|380:304|368:360|328:384|268:372,1,180,0|8
284,292,57264,1,0
204,280,57504,1,0
132,316,57744,1,0
56,284,57984,2,0,B|72:240|128:236,1,90,8|8
125,236,58344,1,0
125,236,58464,5,0
208,248,58704,2,0,B|224:196|180:164,1,90,0|8
108,144,59184,1,0
92,64,59424,1,0
172,84,59664,2,0,B|260:84,1,90,0|8
340,64,60144,1,0
380,76,60264,1,0
412,96,60384,6,0,B|452:124,3,45
468,156,60864,2,0,B|484:200,3,45
480,240,61344,2,0,B|468:288,3,45
440,312,61824,2,0,B|400:340,3,45
364,340,62304,5,4
292,300,62544,1,0
212,296,62784,1,8
136,328,63024,1,0
64,292,63264,2,0,B|84:248|92:204|88:160|72:116,1,180,0|8
132,64,63984,1,0
132,64,64104,1,0
132,64,64224,2,0,B|216:104,1,90
380,100,64704,2,0,B|298:61,1,90,8|0
460,56,65184,1,0
460,132,65424,5,0
460,148,65544,1,0
460,168,65664,1,8
460,184,65784,1,0
460,264,66024,1,0
460,264,66144,6,0,B|416:288|416:336,1,90
256,248,66624,2,0,B|256:336,1,90,8|0
52,264,67104,2,0,B|96:288|96:336,1,90
256,338,67584,2,0,B|256:248,1,90,8|0
256,168,68064,2,0,B|256:32,2,135,0|2|0
324,276,69024,1,2
188,276,69264,1,2
144,344,69504,1,0
144,344,69624,2,2,B|84:292|124:224,1,135,2|4
200,200,70224,6,0,B|188:152|136:144,1,90,0|8
112,68,70704,1,0
112,68,70944,2,0,B|292:68,1,180,0|8
360,24,71664,2,0,B|384:68|360:112,1,90
444,108,72144,2,0,B|421:150|445:194,1,90,0|8
444,276,72624,5,0
432,288,72744,1,0
420,300,72864,1,0
348,340,73104,1,0
272,312,73344,1,8
272,312,73464,2,0,B|204:292|124:324,1,135
120,240,74064,6,0,B|136:192|120:144,1,90,0|8
256,56,74544,2,0,B|256:144,1,90
389,151,75024,2,0,B|376:192|392:240,1,90,0|8
256,268,75504,1,0
204,332,75744,5,8
188,332,75864,1,0
172,332,75984,1,0
156,332,76104,1,2
96,276,76344,1,0
148,212,76584,1,2
100,148,76824,1,0
148,80,77064,1,2
148,80,77184,2,0,B|200:52,4,45,8|0|0|0|4
308,80,78144,6,0,B|348:52|400:44|440:72|460:128,1,180,8|0
416,188,78864,1,0
416,188,78984,1,0
416,188,79104,2,0,B|416:278,1,90,8|0
356,332,79584,5,0
276,332,79824,1,0
196,348,80064,2,0,B|188:296|228:264,1,90,8|0
304,256,80544,2,0,B|300:208|260:176|204:172|168:208,1,180,0|8
120,276,81264,1,0
120,276,81384,1,0
120,276,81504,5,0
100,116,81984,2,0,B|132:156|184:144,1,90,8|0
168,64,82464,2,0,B|212:48|256:48|296:80,1,135
295,79,82944,1,8
356,132,83184,1,0
360,172,83304,1,0
356,212,83424,6,0,B|336:260,3,45
308,280,83904,2,0,B|264:304,3,45
256,192,84384,12,4,85344
104,164,85824,6,0,B|168:228,1,90,8|0
380,224,86304,2,0,B|312:160,1,90
328,84,86784,2,0,B|284:76|240:100|220:152|244:204,1,180,8|0
272,276,87504,1,0
224,340,87744,2,0,B|136:352,1,90,8|0
44,236,88224,2,0,B|136:224,1,90
180,160,88704,1,8
256,56,88944,1,0
332,160,89184,6,0,B|308:208|332:252|384:280|432:252,1,180,0|8
416,172,89904,1,0
488,136,90144,2,0,B|464:92|412:92,1,90
332,92,90624,1,8
256,64,90864,1,0
256,64,90984,1,0
256,64,91104,1,0
232,140,91344,2,0,B|180:124|172:76,1,90,0|8
96,52,91824,5,0
96,72,91944,1,0
96,88,92064,1,0
96,104,92184,1,0
96,120,92304,1,0
96,136,92424,1,0
96,152,92544,1,8
96,168,92664,1,0
96,184,92784,1,4
