osu file format v14

[General]
AudioFilename: furioso melodia.mp3
AudioLeadIn: 0
PreviewTime: 72877
Countdown: 0
SampleSet: Soft
StackLeniency: 0.7
Mode: 0
LetterboxInBreaks: 0
WidescreenStoryboard: 0

[Editor]
Bookmarks: 53522
DistanceSpacing: 0.7
BeatDivisor: 4
GridSize: 4
TimelineZoom: 2.3

[Metadata]
Title:furioso melodia
TitleUnicode:furioso melodia
Artist:gmtn. (witch's slave)
ArtistUnicode:gmtn. (witch's slave)
Creator:Alumetorz
Version:Wrath
Source:BMS
Tags:OF FIGHTERS 2010 BOF gumtune lr2 gothic hardcore Extended Ver Version
BeatmapID:633993
BeatmapSetID:280107

[Difficulty]
HPDrainRate:5.8
CircleSize:4.2
OverallDifficulty:8.5
ApproachRate:9.6
SliderMultiplier:1.8
SliderTickRate:1

[Events]
//Background and Video events
0,0,"bg.jpg",0,0
//Break Periods
2,26626,32110
//Storyboard Layer 0 (Background)
//Storyboard Layer 1 (Fail)
//Storyboard Layer 2 (Pass)
//Storyboard Layer 3 (Foreground)
//Storyboard Sound Samples

[TimingPoints]
1652,387.096774193548,4,2,1,30,1,0
1652,-133.333333333333,4,2,1,30,0,0
14039,-133.333333333333,4,2,1,40,0,0
32619,-100,4,2,1,40,0,0
35716,-100,4,2,1,50,0,0
46555,-133.333333333333,4,2,1,30,0,0
47716,-100,4,2,1,30,0,0
47910,-66.6666666666667,4,2,1,30,0,0
48103,-100,4,2,1,50,0,0
49651,-66.6666666666667,4,2,1,80,0,0
51200,-100,4,2,1,50,0,0
52748,-66.6666666666667,4,2,1,80,0,0
54297,-100,4,2,1,50,0,0
55845,-66.6666666666667,4,2,1,80,0,0
57393,-100,4,2,1,50,0,0
58942,-66.6666666666667,4,2,1,80,0,0
72103,-100,4,2,1,80,0,0
72877,-66.6666666666667,4,2,1,80,0,1
110039,-133.333333333333,4,2,1,30,0,0
122426,-100,4,2,1,50,0,0
131716,-100,4,2,1,65,0,0
133910,-100,4,2,1,80,0,0
134813,-80,4,2,1,80,0,0
161135,-80,4,2,1,80,0,0
161522,-80,4,2,1,50,0,0
162684,-66.6666666666667,4,2,1,80,0,0
164232,-80,4,2,1,80,0,0
164619,-80,4,2,1,50,0,0
165781,-80,4,2,1,80,0,0
171974,-100,4,2,1,80,0,0
172361,-86.9565217391304,4,2,1,80,0,0
172748,-76.9230769230769,4,2,1,80,0,0
173135,-66.6666666666667,4,2,1,80,0,0
173522,-66.6666666666667,4,2,1,80,0,1
209135,-66.6666666666667,4,2,1,15,0,1
209522,-66.6666666666667,4,2,1,30,0,1
209910,-66.6666666666667,4,2,1,45,0,1
210297,-66.6666666666667,4,2,1,60,0,1
210684,-133.333333333333,4,2,1,30,0,0
223071,-100,4,2,1,50,0,0
235458,-50,4,2,1,80,0,0
261006,-100,4,2,1,80,0,0
261781,-50,4,2,1,80,0,1
311329,-50,4,2,1,80,0,0

[Colours]
Combo1 : 244,248,124
Combo2 : 215,62,57
Combo3 : 244,150,55
Combo4 : 243,148,148

[HitObjects]
184,252,1652,6,0,P|192:288|196:328,1,67.5000025749208,2|0,0:0|0:0,0:0:0:0:
52,216,2039,2,0,P|56:182|63:149,1,67.5000025749208,0|0,0:0|0:0,0:0:0:0:
200,72,2426,1,2,0:0:0:0:
292,108,2619,2,0,P|336:112|404:48,1,135.000005149842,0|0,0:0|0:0,0:0:0:0:
376,184,3200,6,0,P|368:224|368:264,1,67.5000025749208,2|0,0:0|0:0,0:0:0:0:
460,136,3587,1,0,0:0:0:0:
476,36,3781,1,0,0:0:0:0:
460,136,3974,2,0,L|468:212,1,67.5000025749208,2|0,0:0|0:0,0:0:0:0:
292,108,4361,2,0,L|300:32,1,67.5000025749208,0|0,0:0|0:0,0:0:0:0:
152,128,4748,6,0,P|116:128|76:112,2,67.5000025749208,2|0|0,0:0|0:0|0:0,0:0:0:0:
292,108,5329,1,0,0:0:0:0:
384,148,5522,1,2,0:0:0:0:
304,212,5716,2,0,L|356:80,1,135.000005149842,0|0,0:0|0:0,0:0:0:0:
388,236,6297,6,0,P|363:277|339:293,1,67.5000025749208,2|0,0:0|0:0,0:0:0:0:
220,188,6684,2,0,P|244:146|268:130,1,67.5000025749208,0|0,0:0|0:0,0:0:0:0:
456,100,7071,1,2,0:0:0:0:
488,176,7264,1,0,0:0:0:0:
476,256,7458,1,0,0:0:0:0:
416,312,7651,1,0,0:0:0:0:
364,100,7845,6,0,P|375:57|388:32,1,67.5000025749208,2|0,0:0|0:0,0:0:0:0:
256,120,8232,2,0,P|233:81|225:54,1,67.5000025749208,0|0,0:0|0:0,0:0:0:0:
292,236,8619,1,2,0:0:0:0:
204,212,8813,2,0,P|144:172|102:116,1,135.000005149842,0|0,0:0|0:0,0:0:0:0:
112,248,9393,6,0,P|120:296|112:336,1,67.5000025749208,2|0,0:0|0:0,0:0:0:0:
28,160,9781,2,0,P|20:112|28:72,1,67.5000025749208,0|0,0:0|0:0,0:0:0:0:
176,136,10168,1,2,0:0:0:0:
204,212,10361,1,0,0:0:0:0:
100,120,10555,1,0,0:0:0:0:
128,44,10748,1,0,0:0:0:0:
296,212,10942,6,0,P|288:256|272:284,1,67.5000025749208,2|0,0:0|0:0,0:0:0:0:
228,112,11329,2,0,P|214:81|209:48,1,67.5000025749208,0|0,0:0|0:0,0:0:0:0:
348,48,11716,1,2,0:0:0:0:
425,86,11910,2,0,P|397:119|307:123,1,135.000005149842,0|0,0:0|0:0,0:0:0:0:
424,200,12490,6,0,P|460:196|496:204,1,67.5000025749208,2|0,0:0|0:0,0:0:0:0:
352,296,12877,2,0,P|318:302|285:297,1,67.5000025749208,0|0,0:0|0:0,0:0:0:0:
124,264,13264,1,2,0:0:0:0:
160,192,13458,1,0,0:0:0:0:
148,112,13651,1,0,0:0:0:0:
108,40,13845,1,0,0:0:0:0:
53,102,14039,6,0,B|100:132|148:112|148:112|203:88|255:129,1,202.500007724762,2|0,0:0|0:0,0:0:0:0:
324,188,14813,2,0,P|348:140|273:22,1,202.500007724762,2|0,0:0|0:0,0:0:0:0:
264,253,15587,2,0,B|306:290|367:266|367:266|412:248|456:276,1,202.500007724762,2|0,0:0|0:0,0:0:0:0:
232,336,16361,2,0,P|189:297|236:168,1,202.500007724762
104,204,17135,6,0,P|64:208|16:192,1,67.5000025749208,2|0,0:0|0:0,0:0:0:0:
188,96,17522,1,0,0:0:0:0:
144,28,17716,1,0,0:0:0:0:
304,68,17910,2,0,P|300:104|300:148,1,67.5000025749208,2|0,0:0|0:0,0:0:0:0:
484,128,18297,2,0,P|483:94|479:60,1,67.5000025749208,0|0,0:0|0:0,0:0:0:0:
392,144,18684,6,0,L|392:172,6,22.5000008583069,2|0|0|0|0|0|0,0:0|0:0|0:0|0:0|0:0|0:0|0:0,0:0:0:0:
396,64,19264,1,0,0:0:0:0:
296,116,19458,2,0,P|292:160|300:192,1,67.5000025749208,2|0,0:0|0:0,0:0:0:0:
484,184,19845,2,0,P|489:150|484:117,1,67.5000025749208,0|0,0:0|0:0,0:0:0:0:
388,256,20232,5,2,0:0:0:0:
388,256,20619,1,0,0:0:0:0:
316,296,20813,1,0,0:0:0:0:
236,280,21006,2,0,P|240:240|236:200,1,67.5000025749208,2|0,0:0|0:0,0:0:0:0:
88,296,21393,1,0,0:0:0:0:
80,320,21490,1,0,0:0:0:0:
76,348,21587,1,0,0:0:0:0:
80,204,21781,6,0,L|64:128,1,67.5000025749208,2|0,0:0|0:0,0:0:0:0:
184,136,22168,2,0,L|194:59,1,67.5000025749208,0|0,0:0|0:0,0:0:0:0:
344,32,22555,1,2,0:0:0:0:
396,96,22748,1,0,0:0:0:0:
294,197,22942,1,0,0:0:0:0:
308,116,23135,1,0,0:0:0:0:
332,280,23329,6,0,P|292:288|260:284,1,67.5000025749208,2|0,0:0|0:0,0:0:0:0:
124,268,23716,2,0,P|91:259|57:262,1,67.5000025749208,0|0,0:0|0:0,0:0:0:0:
24,120,24103,1,2,0:0:0:0:
104,140,24297,1,0,0:0:0:0:
184,128,24490,1,0,0:0:0:0:
236,64,24684,1,0,0:0:0:0:
81,56,24877,6,0,L|118:192,1,135.000005149842,2|0,0:0|0:0,0:0:0:0:
232,272,25458,1,0,0:0:0:0:
340,184,25651,2,0,L|348:152,6,22.5000008583069,2|0|0|0|0|0|0,0:0|0:0|0:0|0:0|0:0|0:0|0:0,0:0:0:0:
368,76,26232,1,0,0:0:0:0:
144,76,26426,5,2,0:0:0:0:
356,136,32619,6,0,P|360:88|352:64,1,60,4|0,1:2|0:0,0:0:0:0:
154,77,32877,2,0,P|150:106|156:136,1,60
320,340,33135,5,0,0:0:0:0:
196,316,33264,1,0,0:0:0:0:
380,272,33393,2,0,P|404:312|408:332,1,60
208,220,33651,5,0,0:0:0:0:
96,268,33781,1,0,0:0:0:0:
280,268,33910,2,0,P|288:200|276:172,1,60
432,56,34168,5,0,0:0:0:0:
404,72,34264,1,0,0:0:0:0:
372,80,34361,1,0,0:0:0:0:
340,76,34458,1,0,0:0:0:0:
300,140,34555,5,0,0:0:0:0:
272,120,34651,1,0,0:0:0:0:
236,108,34748,1,0,0:0:0:0:
200,104,34845,1,0,0:0:0:0:
168,172,34942,5,0,0:0:0:0:
127,155,35039,1,0,0:0:0:0:
83,163,35135,1,0,0:0:0:0:
51,195,35232,1,0,0:0:0:0:
39,239,35329,1,0,0:0:0:0:
55,283,35426,1,0,0:0:0:0:
91,307,35522,1,0,0:0:0:0:
135,311,35619,1,0,0:0:0:0:
216,268,35716,6,0,P|260:268|308:256,1,90,6|2,1:2|0:0,0:0:0:0:
120,64,36103,2,0,P|76:53|31:53,1,90,0|2,0:0|0:0,0:0:0:0:
340,196,36490,1,0,0:0:0:0:
332,88,36684,2,0,P|392:104|444:232,1,180,2|2,0:0|0:0,0:0:0:0:
204,124,37264,6,0,P|196:68|204:20,1,90,0|2,0:0|0:0,0:0:0:0:
340,196,37651,1,0,0:0:0:0:
272,340,37845,1,2,0:0:0:0:
417,158,38039,2,0,L|408:64,1,90,0|2,0:0|0:0,0:0:0:0:
492,256,38426,2,0,L|482:345,1,90,0|2,0:0|0:0,0:0:0:0:
200,256,38813,5,0,0:0:0:0:
148,132,39006,1,2,0:0:0:0:
128,308,39200,1,0,0:0:0:0:
148,132,39393,1,2,0:0:0:0:
348,76,39587,1,0,0:0:0:0:
72,72,39781,2,0,P|52:160|112:232,1,180,2|2,0:0|0:0,0:0:0:0:
432,96,40361,6,0,P|428:56|396:4,1,90,0|2,0:0|0:0,0:0:0:0:
320,244,40748,2,0,P|297:282|292:327,1,90,0|2,0:0|0:0,0:0:0:0:
348,76,41135,1,0,0:0:0:0:
380,308,41329,1,2,0:0:0:0:
324,164,41522,1,0,0:0:0:0:
413,221,41716,1,2,0:0:0:0:
212,204,41910,6,0,P|204:152|208:100,1,90,0|2,0:0|0:0,0:0:0:0:
472,280,42297,2,0,P|473:324|465:369,1,90,0|2,0:0|0:0,0:0:0:0:
212,204,42684,1,0,0:0:0:0:
136,280,42877,2,0,P|80:268|44:156,1,180,2|2,0:0|0:0,0:0:0:0:
332,132,43458,6,0,P|380:140|424:136,1,90,0|2,0:0|0:0,0:0:0:0:
148,48,43845,2,0,P|103:44|59:52,1,90,0|2,0:0|0:0,0:0:0:0:
380,56,44232,1,0,0:0:0:0:
112,128,44426,1,2,0:0:0:0:
280,44,44619,1,0,0:0:0:0:
210,164,44813,1,2,0:0:0:0:
464,92,45006,6,0,P|468:44|452:0,1,90,0|2,1:0|0:0,0:0:0:0:
312,232,45393,2,0,P|298:274|302:319,1,90,0|2,1:0|0:0,0:0:0:0:
472,184,45781,1,0,1:0:0:0:
344,104,45974,1,0,0:0:0:0:
208,164,46168,2,0,P|150:172|106:156,1,90,0|0,1:0|0:0,0:0:0:0:
364,32,46555,6,0,B|380:40|380:40|448:32|448:32|464:40,1,101.250003862381,4|0,0:0|0:0,0:0:0:0:
500,112,46942,2,0,P|499:132|496:152,1,33.7500012874604
448,224,47135,2,0,P|449:244|452:264,1,33.7500012874604
379,320,47329,6,0,B|347:325|347:325|303:316|303:316|280:320,1,101.250003862381,0|0,0:0|0:0,0:0:0:0:
183,259,47716,2,0,P|180:237|180:215,1,45
224,128,47910,2,0,P|216:80|168:48,1,90.0000034332277
156,116,48103,6,0,L|304:148,1,135,4|0,1:2|0:0,0:0:0:0:
384,128,48490,1,0,0:0:0:0:
364,40,48684,1,0,0:0:0:0:
448,68,48877,1,0,0:0:0:0:
276,48,49071,1,0,0:0:0:0:
252,36,49135,1,0,0:0:0:0:
224,32,49200,1,0,0:0:0:0:
196,36,49264,1,0,0:0:0:0:
224,128,49458,1,0,0:0:0:0:
56,256,49651,6,0,P|88:248|136:256,1,67.5000025749208,4|0,1:2|0:0,0:0:0:0:
412,272,49845,1,0,1:0:0:0:
348,320,49942,1,0,1:0:0:0:
340,244,50039,2,0,P|332:200|332:168,1,67.5000025749208,0|0,1:0|0:0,0:0:0:0:
488,296,50232,2,0,P|486:329|479:362,1,67.5000025749208,0|0,1:0|0:0,0:0:0:0:
320,244,50426,6,0,P|309:188|309:147,1,67.5000025749208,0|0,1:0|0:0,0:0:0:0:
504,306,50619,2,0,P|501:348|493:390,1,67.5000025749208,0|0,1:0|0:0,0:0:0:0:
240,228,50813,5,0,1:0:0:0:
232,208,50877,1,0,0:0:0:0:
228,184,50942,1,0,0:0:0:0:
228,160,51006,1,0,1:0:0:0:
232,136,51071,1,0,1:0:0:0:
240,116,51135,1,0,1:0:0:0:
276,80,51200,6,0,P|216:92|148:56,1,135,4|0,1:2|0:0,0:0:0:0:
72,60,51587,1,0,0:0:0:0:
116,136,51781,1,0,0:0:0:0:
28,132,51974,1,0,0:0:0:0:
116,256,52168,1,0,0:0:0:0:
124,280,52232,1,0,0:0:0:0:
128,304,52297,1,0,0:0:0:0:
128,328,52361,1,0,0:0:0:0:
32,304,52555,1,0,0:0:0:0:
346,275,52748,5,4,1:2:0:0:
376,352,52845,1,0,1:0:0:0:
448,312,52942,2,0,P|452:272|444:236,1,67.5000025749208,0|0,1:0|0:0,0:0:0:0:
376,124,53135,2,0,P|372:84|380:48,1,67.5000025749208,0|0,1:0|0:0,0:0:0:0:
340,200,53329,1,0,1:0:0:0:
264,228,53426,1,0,1:0:0:0:
196,184,53522,5,4,1:2:0:0:
24,52,53651,1,0,1:0:0:0:
240,28,53781,1,0,1:0:0:0:
60,156,53910,5,0,1:0:0:0:
68,176,53974,1,0,1:0:0:0:
72,200,54039,1,0,1:0:0:0:
72,224,54103,1,0,1:0:0:0:
68,248,54168,1,0,1:0:0:0:
60,268,54232,1,0,1:0:0:0:
36,304,54297,6,0,P|108:288|168:320,1,135,4|0,1:2|0:0,0:0:0:0:
228,368,54684,1,0,0:0:0:0:
304,320,54877,1,0,0:0:0:0:
380,368,55071,1,0,0:0:0:0:
436,228,55264,1,0,0:0:0:0:
432,204,55329,1,0,0:0:0:0:
428,180,55393,1,0,0:0:0:0:
424,156,55458,1,0,0:0:0:0:
408,68,55651,1,0,0:0:0:0:
8,88,55845,5,4,1:2:0:0:
80,124,55941,1,0,1:0:0:0:
160,112,56038,1,0,1:0:0:0:
224,60,56135,1,0,1:0:0:0:
160,8,56232,6,0,B|112:100|208:112|148:207,1,202.500007724762,0|0,1:0|0:0,0:0:0:0:
372,344,56619,2,0,L|360:264,1,67.5000025749208,0|0,1:0|0:0,0:0:0:0:
150,277,56813,2,0,L|140:344,1,67.5000025749208,0|0,1:0|0:0,0:0:0:0:
256,216,57006,5,0,1:0:0:0:
248,192,57071,1,0,0:0:0:0:
256,168,57135,1,0,0:0:0:0:
264,144,57200,1,0,1:0:0:0:
256,120,57264,1,0,1:0:0:0:
248,96,57329,1,0,1:0:0:0:
264,52,57393,6,0,P|328:68|404:28,1,135,4|0,1:2|0:0,0:0:0:0:
472,52,57781,1,0,0:0:0:0:
464,140,57974,1,0,0:0:0:0:
456,228,58168,1,0,0:0:0:0:
300,336,58361,1,0,0:0:0:0:
288,316,58426,1,0,0:0:0:0:
280,296,58490,1,0,0:0:0:0:
276,276,58555,1,0,0:0:0:0:
272,188,58748,1,0,0:0:0:0:
80,72,58942,5,4,1:2:0:0:
100,152,59039,1,0,1:0:0:0:
161,100,59135,2,0,P|165:65|156:31,1,67.5000025749208,0|0,1:0|0:0,0:0:0:0:
116,272,59329,5,0,0:0:0:0:
196,288,59426,1,0,0:0:0:0:
236,220,59522,1,0,0:0:0:0:
316,236,59619,1,0,0:0:0:0:
356,168,59716,5,0,1:0:0:0:
472,280,59845,1,0,1:0:0:0:
472,40,59974,1,0,1:0:0:0:
280,96,60103,5,0,1:0:0:0:
256,108,60168,1,0,1:0:0:0:
232,116,60232,1,0,1:0:0:0:
204,120,60297,1,0,1:0:0:0:
176,120,60361,1,0,1:0:0:0:
148,116,60426,1,0,1:0:0:0:
104,84,60490,6,0,P|128:136|60:280,1,225.000008583069,4|0,1:2|0:0,0:0:0:0:
32,132,60877,2,0,P|24:48|72:0,1,135.000005149842,0|0,1:0|1:0,0:0:0:0:
260,204,61264,6,0,L|284:348,1,135.000005149842,0|0,1:0|1:0,0:0:0:0:
296,320,61522,1,0,0:0:0:0:
312,304,61587,1,0,0:0:0:0:
328,288,61651,2,0,P|368:296|404:288,1,67.5000025749208,0|0,1:0|0:0,0:0:0:0:
288,124,61845,2,0,P|254:119|222:127,1,67.5000025749208,0|0,1:0|0:0,0:0:0:0:
440,116,62039,5,0,1:0:0:0:
428,84,62135,1,0,0:0:0:0:
400,64,62232,1,0,1:0:0:0:
368,60,62329,1,0,0:0:0:0:
304,13,62426,5,0,1:0:0:0:
257,25,62522,1,0,0:0:0:0:
208,24,62619,1,0,1:0:0:0:
161,12,62716,1,0,0:0:0:0:
92,60,62813,6,0,P|84:92|88:136,1,67.5000025749208,0|0,1:0|0:0,0:0:0:0:
132,240,63006,2,0,P|140:272|138:306,1,67.5000025749208,0|0,1:0|0:0,0:0:0:0:
260,164,63200,5,0,1:0:0:0:
280,148,63264,1,0,0:0:0:0:
304,140,63329,1,0,0:0:0:0:
332,136,63393,1,0,1:0:0:0:
360,140,63458,1,0,1:0:0:0:
384,152,63522,1,0,1:0:0:0:
392,204,63587,6,0,P|336:64|356:20,1,202.500007724762,4|0,1:2|0:0,0:0:0:0:
484,160,63974,2,0,P|492:236|440:312,1,135.000005149842,0|0,1:0|1:0,0:0:0:0:
188,296,64361,6,0,L|200:152,1,135.000005149842,0|0,1:0|1:0,0:0:0:0:
188,144,64619,1,0,0:0:0:0:
176,124,64684,1,0,0:0:0:0:
164,104,64748,2,0,P|120:100|96:104,1,67.5000025749208,0|0,1:0|0:0,0:0:0:0:
156,372,64942,2,0,P|189:376|222:371,1,67.5000025749208,0|0,1:0|0:0,0:0:0:0:
320,268,65135,5,0,1:0:0:0:
312,236,65232,1,0,0:0:0:0:
312,204,65329,1,0,1:0:0:0:
324,172,65426,1,0,1:0:0:0:
384,112,65522,6,0,P|412:108|456:116,1,67.5000025749208,0|0,1:0|0:0,0:0:0:0:
352,348,65716,2,0,P|324:352|280:344,1,67.5000025749208,0|0,1:0|0:0,0:0:0:0:
92,256,65910,5,0,1:0:0:0:
84,208,66006,1,0,0:0:0:0:
76,160,66103,1,0,1:0:0:0:
68,112,66200,1,0,1:0:0:0:
20,48,66297,5,0,1:0:0:0:
40,64,66361,1,0,0:0:0:0:
64,72,66426,1,0,0:0:0:0:
92,72,66490,1,0,1:0:0:0:
116,64,66555,1,0,0:0:0:0:
136,48,66619,1,0,0:0:0:0:
196,100,66684,6,0,B|288:44|316:152|420:60,1,202.500007724762,4|0,1:2|0:0,0:0:0:0:
200,200,67071,2,0,P|124:172|96:92,1,135.000005149842,0|0,1:0|1:0,0:0:0:0:
340,16,67458,5,0,1:0:0:0:
432,216,67651,1,0,1:0:0:0:
428,244,67716,1,0,0:0:0:0:
424,272,67781,1,0,0:0:0:0:
420,300,67845,2,0,P|384:304|348:296,1,67.5000025749208,0|0,1:0|0:0,0:0:0:0:
396,136,68039,2,0,P|429:129|462:134,1,67.5000025749208,0|0,1:0|0:0,0:0:0:0:
152,304,68232,5,4,1:2:0:0:
136,268,68329,1,0,0:0:0:0:
136,228,68426,1,0,1:0:0:0:
156,192,68522,1,0,0:0:0:0:
108,136,68619,5,0,1:0:0:0:
144,152,68716,1,0,0:0:0:0:
184,152,68813,1,0,1:0:0:0:
220,136,68910,1,0,0:0:0:0:
268,72,69006,6,0,P|304:64|344:68,1,67.5000025749208,0|0,1:0|0:0,0:0:0:0:
340,300,69200,2,0,P|306:301|273:293,1,67.5000025749208,0|0,1:0|0:0,0:0:0:0:
308,148,69393,5,0,1:0:0:0:
332,160,69458,1,0,0:0:0:0:
360,164,69522,1,0,0:0:0:0:
388,160,69587,1,0,1:0:0:0:
412,148,69651,1,0,0:0:0:0:
432,128,69716,1,0,0:0:0:0:
480,188,69781,6,0,L|472:268,1,67.5000025749208,4|0,1:2|1:0,0:0:0:0:
340,300,69974,1,0,1:0:0:0:
308,272,70071,1,0,1:0:0:0:
268,260,70168,1,0,1:0:0:0:
228,260,70264,1,0,1:0:0:0:
188,272,70361,1,0,1:0:0:0:
148,276,70458,1,0,1:0:0:0:
108,276,70555,6,0,P|64:260|44:244,1,67.5000025749208,4|0,1:2|1:0,0:0:0:0:
112,168,70748,1,0,1:0:0:0:
108,140,70813,1,0,1:0:0:0:
104,112,70877,1,0,1:0:0:0:
100,84,70942,5,0,1:0:0:0:
160,100,71039,1,0,1:0:0:0:
216,80,71135,1,0,1:0:0:0:
236,24,71232,1,0,1:0:0:0:
152,16,71329,5,4,1:2:0:0:
340,300,71716,1,0,1:0:0:0:
288,236,71813,1,0,0:0:0:0:
312,160,71910,1,0,0:0:0:0:
388,136,72006,1,0,0:0:0:0:
452,188,72103,6,0,B|464:248|464:248|452:296|452:296|460:336|448:376,1,180,0|0,1:0|0:0,0:0:0:0:
112,104,72877,6,0,P|220:116|284:44,1,202.500007724762,4|0,1:2|0:0,0:0:0:0:
40,44,73264,2,0,P|20:120|60:188,1,135.000005149842,0|2,1:0|0:0,0:0:0:0:
260,344,73651,6,0,L|276:200,1,135.000005149842,0|2,1:0|0:0,0:0:0:0:
280,184,73910,1,0,0:0:0:0:
284,156,73974,1,0,0:0:0:0:
288,128,74039,2,0,P|328:128|364:140,1,67.5000025749208,0|0,1:0|0:0,0:0:0:0:
176,248,74232,2,0,P|136:248|100:236,1,67.5000025749208,2|0,0:0|0:0,0:0:0:0:
156,36,74426,5,0,1:0:0:0:
188,60,74522,1,0,0:0:0:0:
228,64,74619,1,2,0:0:0:0:
268,52,74716,1,0,0:0:0:0:
344,88,74813,5,0,1:0:0:0:
376,64,74909,1,0,0:0:0:0:
416,60,75006,1,2,0:0:0:0:
456,72,75103,1,0,0:0:0:0:
484,152,75200,6,0,P|484:184|476:228,1,67.5000025749208,0|0,1:0|0:0,0:0:0:0:
344,88,75393,2,0,P|338:54|338:21,1,67.5000025749208,2|0,0:0|0:0,0:0:0:0:
336,224,75587,5,0,1:0:0:0:
328,248,75651,1,0,0:0:0:0:
320,272,75716,1,0,0:0:0:0:
312,296,75781,1,2,0:0:0:0:
304,320,75845,1,0,0:0:0:0:
296,344,75910,1,0,0:0:0:0:
240,352,75974,6,0,L|460:328,1,202.500007724762,4|0,1:2|0:0,0:0:0:0:
320,268,76361,2,0,L|172:284,1,135.000005149842,0|2,1:0|0:0,0:0:0:0:
44,156,76748,5,0,1:0:0:0:
256,160,76942,1,2,0:0:0:0:
284,160,77006,1,0,0:0:0:0:
308,152,77071,1,0,0:0:0:0:
332,140,77135,2,0,P|352:116|364:76,1,67.5000025749208,0|0,1:0|0:0,0:0:0:0:
168,168,77329,2,0,P|178:199|199:226,1,67.5000025749208,2|0,0:0|0:0,0:0:0:0:
272,68,77522,5,0,1:0:0:0:
44,156,77716,1,2,0:0:0:0:
48,184,77781,1,0,0:0:0:0:
52,212,77845,1,0,0:0:0:0:
56,240,77910,2,0,P|100:248|132:240,1,67.5000025749208,0|0,1:0|0:0,0:0:0:0:
80,76,78103,2,0,P|36:68|4:76,1,67.5000025749208,2|0,0:0|0:0,0:0:0:0:
168,168,78297,5,0,1:0:0:0:
204,148,78393,1,0,0:0:0:0:
244,144,78490,1,2,0:0:0:0:
284,152,78587,1,0,0:0:0:0:
336,212,78684,5,0,1:0:0:0:
328,188,78748,1,0,0:0:0:0:
324,160,78813,1,0,0:0:0:0:
328,132,78877,1,2,1:2:0:0:
336,108,78942,1,0,1:0:0:0:
388,312,79071,6,0,P|301:317|233:219,1,202.500007724762,4|0,1:2|0:0,0:0:0:0:
476,232,79458,2,0,P|496:304|476:384,1,135.000005149842,0|2,1:0|0:0,0:0:0:0:
124,284,79845,6,0,P|114:217|134:153,1,135.000005149842,0|2,1:0|0:0,0:0:0:0:
152,132,80103,1,0,0:0:0:0:
172,112,80168,1,0,0:0:0:0:
192,96,80232,2,0,P|212:76|232:36,1,67.5000025749208,0|0,1:0|0:0,0:0:0:0:
8,44,80426,2,0,P|23:74|46:98,1,67.5000025749208,2|0,0:0|0:0,0:0:0:0:
216,196,80619,5,0,1:0:0:0:
256,208,80716,1,0,0:0:0:0:
296,200,80813,1,2,0:0:0:0:
324,172,80910,1,0,0:0:0:0:
380,108,81006,6,0,P|428:96|452:96,1,67.5000025749208,0|0,1:0|0:0,0:0:0:0:
472,272,81200,2,0,P|424:284|400:284,1,67.5000025749208,2|0,0:0|0:0,0:0:0:0:
260,120,81393,5,0,1:0:0:0:
220,112,81490,1,0,0:0:0:0:
180,104,81587,1,2,0:0:0:0:
140,96,81684,1,0,0:0:0:0:
80,48,81781,5,0,1:0:0:0:
92,72,81845,1,0,0:0:0:0:
96,100,81910,1,0,0:0:0:0:
92,128,81974,1,2,0:0:0:0:
80,152,82039,1,0,0:0:0:0:
60,172,82103,1,0,0:0:0:0:
8,188,82168,6,0,P|80:172|184:248,1,202.500007724762,4|0,1:2|0:0,0:0:0:0:
232,136,82555,2,0,L|244:-8,1,135.000005149842,0|2,1:0|0:0,0:0:0:0:
304,252,82942,5,4,1:2:0:0:
392,48,83135,1,2,0:0:0:0:
400,76,83200,1,0,0:0:0:0:
408,100,83264,1,0,0:0:0:0:
416,124,83329,2,0,L|412:196,1,67.5000025749208,0|0,1:0|0:0,0:0:0:0:
224,288,83522,2,0,L|227:220,1,67.5000025749208,2|0,0:0|0:0,0:0:0:0:
48,40,83716,5,4,1:2:0:0:
68,68,83813,1,0,0:0:0:0:
96,88,83910,1,2,0:0:0:0:
128,92,84006,1,0,0:0:0:0:
160,84,84103,1,0,1:0:0:0:
188,68,84200,1,0,0:0:0:0:
220,56,84297,1,2,0:0:0:0:
252,64,84393,1,0,0:0:0:0:
280,84,84490,6,0,P|356:108|432:84,1,135.000005149842,4|2,1:2|1:2,0:0:0:0:
416,124,84748,1,0,0:0:0:0:
420,152,84813,1,0,0:0:0:0:
424,180,84877,5,0,1:0:0:0:
344,160,84974,1,0,0:0:0:0:
292,224,85071,1,2,1:2:0:0:
320,300,85168,1,0,0:0:0:0:
392,256,85264,6,0,P|336:220|232:288,1,202.500007724762,4|0,1:2|0:0,0:0:0:0:
228,152,85651,2,0,P|240:80|216:8,1,135.000005149842,0|2,1:0|0:0,0:0:0:0:
98,301,86039,6,0,L|232:285,1,135.000005149842,0|2,1:0|0:0,0:0:0:0:
260,280,86297,1,0,0:0:0:0:
288,276,86361,1,0,0:0:0:0:
316,272,86426,2,0,P|320:232|316:200,1,67.5000025749208,0|0,1:0|0:0,0:0:0:0:
88,140,86619,2,0,P|84:180|88:212,1,67.5000025749208,2|0,0:0|0:0,0:0:0:0:
104,44,86813,5,0,1:0:0:0:
140,64,86910,1,0,0:0:0:0:
180,68,87006,1,2,0:0:0:0:
220,60,87103,1,0,0:0:0:0:
272,124,87200,5,0,1:0:0:0:
308,104,87297,1,0,0:0:0:0:
348,100,87393,1,2,0:0:0:0:
388,108,87490,1,0,0:0:0:0:
448,168,87587,6,0,P|452:204|448:248,1,67.5000025749208,0|0,1:0|0:0,0:0:0:0:
216,300,87781,2,0,P|212:264|216:220,1,67.5000025749208,2|0,0:0|0:0,0:0:0:0:
340,188,87974,5,0,1:0:0:0:
336,216,88039,1,0,0:0:0:0:
332,244,88103,1,0,0:0:0:0:
328,272,88168,1,2,0:0:0:0:
324,300,88232,1,0,0:0:0:0:
320,328,88297,1,0,0:0:0:0:
340,368,88361,6,0,P|240:340|156:384,1,202.500007724762,4|0,1:2|0:0,0:0:0:0:
216,264,88748,2,0,P|236:196|220:108,1,135.000005149842,0|2,1:0|0:0,0:0:0:0:
36,44,89135,5,0,1:0:0:0:
208,48,89329,1,2,0:0:0:0:
236,56,89393,1,0,0:0:0:0:
264,56,89458,1,0,0:0:0:0:
288,48,89522,2,0,P|332:40|364:44,1,67.5000025749208,0|0,1:0|0:0,0:0:0:0:
456,156,89716,2,0,P|412:164|380:160,1,67.5000025749208,2|0,0:0|0:0,0:0:0:0:
184,156,89910,5,0,1:0:0:0:
304,336,90104,1,2,0:0:0:0:
276,328,90168,1,0,0:0:0:0:
248,328,90233,1,0,0:0:0:0:
224,336,90297,2,0,P|180:344|148:340,1,67.5000025749208,0|0,1:0|0:0,0:0:0:0:
56,228,90491,2,0,P|100:220|132:224,1,67.5000025749208,2|0,0:0|0:0,0:0:0:0:
316,212,90684,5,0,1:0:0:0:
280,196,90781,1,0,0:0:0:0:
260,160,90877,1,2,0:0:0:0:
256,120,90974,1,0,0:0:0:0:
196,80,91071,5,0,1:0:0:0:
220,92,91135,1,0,0:0:0:0:
248,96,91200,1,0,0:0:0:0:
276,92,91264,1,2,1:2:0:0:
300,84,91329,1,0,1:0:0:0:
75,26,91458,6,0,L|56:228,1,202.500007724762,4|0,1:2|0:0,0:0:0:0:
160,320,91845,2,0,P|240:308|312:364,1,135.000005149842,0|2,1:0|0:0,0:0:0:0:
452,136,92232,5,0,1:0:0:0:
260,28,92426,1,2,0:0:0:0:
232,28,92490,1,0,0:0:0:0:
208,36,92555,1,0,0:0:0:0:
188,52,92619,2,0,P|180:88|184:132,1,67.5000025749208,0|0,1:0|0:0,0:0:0:0:
340,72,92813,2,0,P|348:36|344:-8,1,67.5000025749208,2|0,0:0|0:0,0:0:0:0:
232,208,93006,5,0,1:0:0:0:
232,248,93103,1,0,0:0:0:0:
252,284,93200,1,2,0:0:0:0:
284,308,93297,1,0,0:0:0:0:
349,259,93393,5,0,1:0:0:0:
324,240,93490,1,0,0:0:0:0:
308,211,93587,1,2,0:0:0:0:
308,179,93684,1,0,0:0:0:0:
384,154,93781,5,0,1:0:0:0:
384,180,93878,1,0,0:0:0:0:
396,203,93975,1,2,0:0:0:0:
416,218,94072,1,0,0:0:0:0:
488,183,94168,5,0,1:0:0:0:
480,172,94232,1,0,0:0:0:0:
472,160,94297,1,0,0:0:0:0:
468,148,94361,1,2,0:0:0:0:
464,136,94426,1,0,0:0:0:0:
460,124,94490,1,0,0:0:0:0:
472,80,94555,6,0,P|404:100|304:20,1,202.500007724762,4|0,1:2|0:0,0:0:0:0:
300,152,94942,2,0,P|252:152|212:168,1,67.5000025749208,0|0,1:0|0:0,0:0:0:0:
148,192,95135,2,0,P|106:215|79:249,1,67.5000025749208,2|0,1:2|0:0,0:0:0:0:
32,300,95329,2,0,P|8:341|1:384,1,67.5000025749208,0|0,1:0|0:0,0:0:0:0:
188,316,95522,5,2,1:2:0:0:
212,304,95587,1,0,1:0:0:0:
240,300,95651,1,0,1:0:0:0:
268,304,95716,2,0,P|320:312|348:308,1,67.5000025749208,0|0,1:0|0:0,0:0:0:0:
432,272,95910,2,0,P|481:252|503:235,1,67.5000025749208,2|0,1:2|0:0,0:0:0:0:
448,68,96103,5,0,1:0:0:0:
420,96,96200,1,0,0:0:0:0:
384,112,96297,1,2,1:2:0:0:
344,116,96393,1,0,1:0:0:0:
300,184,96490,5,0,1:0:0:0:
272,156,96587,1,0,0:0:0:0:
236,140,96684,1,2,1:2:0:0:
196,136,96780,1,0,1:0:0:0:
204,204,96877,6,0,L|184:56,1,135.000005149842,0|2,1:0|1:2,0:0:0:0:
160,60,97135,1,0,0:0:0:0:
136,52,97200,1,0,0:0:0:0:
112,44,97264,2,0,P|64:40|32:48,1,67.5000025749208,0|0,1:0|0:0,0:0:0:0:
36,240,97458,2,0,P|84:244|116:236,1,67.5000025749208,2|0,1:2|1:0,0:0:0:0:
364,40,97651,6,0,L|344:252,1,202.500007724762,4|0,1:2|0:0,0:0:0:0:
420,320,98039,5,0,1:0:0:0:
472,196,98232,1,2,0:0:0:0:
292,348,98426,5,0,1:0:0:0:
132,328,98619,1,2,0:0:0:0:
288,60,98813,5,0,1:0:0:0:
256,244,99006,1,2,0:0:0:0:
36,48,99200,5,0,1:0:0:0:
236,132,99393,1,2,0:0:0:0:
428,156,99587,5,0,1:0:0:0:
188,196,99780,1,2,0:0:0:0:
464,68,99974,6,0,P|508:132|464:248,1,202.500007724762,0|0,1:0|0:0,0:0:0:0:
372,80,100361,2,0,P|380:40|396:8,1,67.5000025749208,0|0,1:0|0:0,0:0:0:0:
120,15,100555,2,0,P|134:46|140:80,1,67.5000025749208,2|0,0:0|0:0,0:0:0:0:
52,256,100748,5,0,1:0:0:0:
84,228,100845,1,0,0:0:0:0:
124,220,100942,1,2,0:0:0:0:
164,232,101039,1,0,0:0:0:0:
224,176,101135,5,0,1:0:0:0:
256,204,101232,1,0,0:0:0:0:
296,212,101329,1,2,0:0:0:0:
336,200,101426,1,0,0:0:0:0:
408,243,101522,5,0,1:0:0:0:
416,204,101619,1,0,0:0:0:0:
424,165,101716,1,2,0:0:0:0:
431,125,101813,1,0,0:0:0:0:
348,122,101910,5,0,1:0:0:0:
340,83,102007,1,0,0:0:0:0:
332,44,102104,1,2,0:0:0:0:
325,4,102201,1,0,0:0:0:0:
256,56,102297,5,0,1:0:0:0:
216,48,102393,1,0,0:0:0:0:
176,52,102490,1,2,0:0:0:0:
140,72,102587,1,0,0:0:0:0:
64,108,102684,5,0,1:0:0:0:
60,136,102748,1,0,0:0:0:0:
56,164,102813,1,0,0:0:0:0:
52,192,102877,1,2,0:0:0:0:
48,220,102942,1,0,0:0:0:0:
44,248,103006,1,0,0:0:0:0:
56,292,103071,6,0,B|128:352|224:332|286:269|286:269|368:188|444:208|492:264,1,472.500018024445,0|0,1:0|0:0,0:0:0:0:
340,140,103845,6,0,P|268:140|216:56,1,135.000005149842,4|2,1:2|1:2,0:0:0:0:
472,88,104232,2,0,P|480:124|476:164,1,67.5000025749208,0|0,1:0|0:0,0:0:0:0:
304,68,104426,2,0,P|302:34|310:1,1,67.5000025749208,2|0,1:2|0:0,0:0:0:0:
224,212,104619,6,0,L|132:204,1,67.5000025749208,0|0,1:0|0:0,0:0:0:0:
28,88,104813,2,0,L|95:82,1,67.5000025749208,2|0,1:2|0:0,0:0:0:0:
308,180,105006,6,0,P|312:212|304:256,1,67.5000025749208,0|0,1:0|0:0,0:0:0:0:
84,232,105200,2,0,P|80:215|80:196,2,33.7500012874604,2|0|0,1:2|1:0|1:0,0:0:0:0:
272,328,105393,6,0,L|352:320,1,67.5000025749208,4|0,1:2|0:0,0:0:0:0:
472,148,105587,2,0,L|392:156,1,67.5000025749208,2|0,1:2|0:0,0:0:0:0:
192,284,105781,6,0,P|184:324|188:364,1,67.5000025749208,0|0,1:0|0:0,0:0:0:0:
436,356,105974,2,0,P|444:316|440:276,1,67.5000025749208,2|0,1:2|0:0,0:0:0:0:
216,152,106168,5,0,1:0:0:0:
252,140,106264,1,0,1:0:0:0:
288,124,106361,2,0,L|328:108,2,33.7500012874604,2|0|0,1:2|1:0|1:0,0:0:0:0:
152,64,106555,5,0,1:0:0:0:
116,52,106651,1,0,1:0:0:0:
80,36,106748,2,0,L|40:20,2,33.7500012874604,2|0|0,1:2|1:0|1:0,0:0:0:0:
56,144,106942,5,4,1:2:0:0:
80,176,107039,1,0,0:0:0:0:
88,216,107135,1,2,1:2:0:0:
80,256,107232,1,0,0:0:0:0:
164,272,107329,5,0,1:0:0:0:
140,304,107426,1,0,0:0:0:0:
132,344,107522,1,2,1:2:0:0:
140,384,107619,1,0,0:0:0:0:
224,336,107716,5,0,1:0:0:0:
264,344,107813,1,0,0:0:0:0:
304,352,107910,1,2,1:2:0:0:
344,360,108006,1,0,0:0:0:0:
336,276,108103,5,0,1:0:0:0:
324,252,108168,1,0,0:0:0:0:
316,228,108232,1,0,0:0:0:0:
312,200,108297,1,2,1:2:0:0:
312,172,108361,1,0,0:0:0:0:
316,144,108426,1,0,0:0:0:0:
316,68,108490,6,0,P|340:36|356:4,2,67.5000025749208,0|0|2,1:0|0:0|0:2,0:0:0:0:
216,24,108781,2,0,P|195:50|179:80,2,67.5000025749208,0|0|0,1:0|0:0|0:0,0:0:0:0:
68,112,109071,2,0,P|144:104|240:224,1,202.500007724762,2|0,1:2|0:0,0:0:0:0:
272,300,109458,6,0,P|288:340|316:372,1,67.5000025749208,0|0,1:0|0:0,0:0:0:0:
440,224,109651,1,0,1:0:0:0:
436,196,109716,1,0,1:0:0:0:
432,168,109781,1,0,1:0:0:0:
428,140,109845,2,0,L|420:68,1,67.5000025749208,2|0,1:2|1:0,0:0:0:0:
320,32,110039,6,0,P|280:36|240:32,1,67.5000025749208,6|0,1:2|0:0,0:0:0:0:
204,168,110426,2,0,P|170:166|136:176,1,67.5000025749208,0|0,0:0|0:0,0:0:0:0:
84,268,110813,1,2,0:0:0:0:
280,236,111006,2,0,P|304:192|280:102,1,135.000005149842,0|0,0:0|0:0,0:0:0:0:
224,308,111587,6,0,P|264:324|308:320,1,67.5000025749208,2|0,0:0|0:0,0:0:0:0:
380,272,111974,1,0,0:0:0:0:
280,236,112168,1,0,0:0:0:0:
136,276,112361,6,0,P|132:320|140:356,1,67.5000025749208,2|0,0:0|0:0,0:0:0:0:
280,236,112748,2,0,P|284:192|276:156,1,67.5000025749208
224,56,113135,6,0,L|144:40,2,67.5000025749208,2|0|0,0:0|0:0|0:0,0:0:0:0:
284,176,113716,1,0,0:0:0:0:
316,80,113910,1,2,0:0:0:0:
340,248,114103,2,0,P|280:264|208:224,1,135.000005149842,0|0,0:0|0:0,0:0:0:0:
436,196,114684,6,0,L|440:280,1,67.5000025749208,2|0,0:0|0:0,0:0:0:0:
284,176,115071,2,0,L|280:92,1,67.5000025749208,0|0,0:0|0:0,0:0:0:0:
148,36,115458,1,2,0:0:0:0:
100,100,115651,1,0,0:0:0:0:
96,180,115845,1,0,0:0:0:0:
128,256,116039,1,0,0:0:0:0:
232,324,116232,6,0,P|276:320|312:332,1,67.5000025749208,2|0,0:0|0:0,0:0:0:0:
128,256,116619,2,0,P|84:260|48:248,1,67.5000025749208
8,168,117006,1,2,0:0:0:0:
236,200,117200,2,0,P|284:192|372:248,1,135.000005149842,0|0,0:0|0:0,0:0:0:0:
344,120,117781,6,0,P|336:80|344:36,1,67.5000025749208,2|0,0:0|0:0,0:0:0:0:
440,164,118168,1,0,0:0:0:0:
416,260,118361,1,0,0:0:0:0:
440,164,118555,2,0,L|428:84,1,67.5000025749208,2|0,0:0|0:0,0:0:0:0:
268,108,118942,2,0,L|280:188,1,67.5000025749208,0|0,0:0|0:0,0:0:0:0:
184,320,119329,6,0,P|148:328|112:324,2,67.5000025749208,2|0|0,0:0|0:0|0:0,0:0:0:0:
260,252,119910,1,0,0:0:0:0:
292,348,120103,1,2,0:0:0:0:
184,200,120297,2,0,P|256:160|328:188,1,135.000005149842,0|0,0:0|0:0,0:0:0:0:
236,80,120877,6,0,L|156:56,1,67.5000025749208,2|0,0:0|0:0,0:0:0:0:
324,44,121264,2,0,L|404:68,1,67.5000025749208,0|0,0:0|0:0,0:0:0:0:
448,168,121651,2,0,P|456:212|444:252,1,67.5000025749208,2|0,0:0|0:0,0:0:0:0:
268,228,122039,2,0,P|263:194|271:162,1,67.5000025749208,0|0,0:0|0:0,0:0:0:0:
260,320,122426,6,0,L|152:296,1,90,0|2,0:0|0:0,0:0:0:0:
144,296,122716,1,0,0:0:0:0:
116,288,122813,1,0,0:0:0:0:
112,76,123006,1,2,0:0:0:0:
132,96,123103,1,0,0:0:0:0:
152,116,123200,1,0,0:0:0:0:
268,228,123393,2,0,P|320:240|416:152,1,180,2|2,0:0|0:0,0:0:0:0:
196,180,123974,6,0,P|184:232|200:276,1,90,0|2,0:0|0:0,0:0:0:0:
204,292,124264,1,0,0:0:0:0:
216,316,124361,1,0,0:0:0:0:
348,272,124555,1,2,0:0:0:0:
352,244,124651,1,0,0:0:0:0:
356,216,124748,1,0,0:0:0:0:
472,104,124942,1,2,0:0:0:0:
476,132,125039,1,0,0:0:0:0:
480,160,125135,1,0,0:0:0:0:
456,292,125329,1,2,0:0:0:0:
384,80,125522,6,0,P|408:40|456:16,1,90,0|2,0:0|0:0,0:0:0:0:
472,12,125813,1,0,0:0:0:0:
500,20,125910,1,0,0:0:0:0:
344,156,126103,1,2,0:0:0:0:
320,164,126200,1,0,0:0:0:0:
292,168,126297,1,0,0:0:0:0:
156,104,126490,2,0,P|108:96|8:184,1,180,2|2,0:0|0:0,0:0:0:0:
228,152,127071,6,0,P|240:104|232:60,1,90,0|2,0:0|0:0,0:0:0:0:
224,40,127361,1,0,0:0:0:0:
208,20,127458,1,0,0:0:0:0:
152,220,127651,1,2,0:0:0:0:
156,248,127748,1,0,0:0:0:0:
160,276,127845,1,0,0:0:0:0:
320,356,128039,1,2,0:0:0:0:
324,328,128136,1,0,0:0:0:0:
328,300,128233,1,0,0:0:0:0:
432,184,128426,1,2,0:0:0:0:
236,136,128619,6,0,L|140:116,1,90,0|2,0:0|0:0,0:0:0:0:
120,108,128910,1,0,0:0:0:0:
96,100,129006,1,0,0:0:0:0:
284,68,129200,1,2,0:0:0:0:
312,72,129297,1,0,0:0:0:0:
336,64,129393,1,0,0:0:0:0:
88,4,129587,2,0,P|40:32|20:152,1,180,2|2,0:0|0:0,0:0:0:0:
200,224,130168,6,0,L|304:212,1,90,0|2,0:0|0:0,0:0:0:0:
316,208,130458,1,0,0:0:0:0:
344,204,130555,1,0,0:0:0:0:
332,336,130748,1,2,0:0:0:0:
304,332,130845,1,0,0:0:0:0:
276,328,130942,1,0,0:0:0:0:
104,304,131135,1,2,0:0:0:0:
132,300,131232,1,0,0:0:0:0:
160,296,131329,1,0,0:0:0:0:
232,148,131522,1,2,0:0:0:0:
80,108,131716,6,0,L|64:49,2,60,12|0|0,3:2|3:0|3:0,0:0:0:0:
147,241,132103,2,0,L|132:300,2,60,8|0|0,3:2|3:0|3:0,0:0:0:0:
292,96,132490,6,0,P|292:64|280:16,2,60,12|0|0,3:2|3:0|3:0,0:0:0:0:
396,236,132877,2,0,P|396:268|408:316,2,60,8|0|0,3:2|3:0|3:0,0:0:0:0:
208,128,133264,6,0,P|172:124|128:136,1,60,12|0,3:2|3:0,0:0:0:0:
92,288,133522,1,0,3:0:0:0:
292,156,133651,2,0,P|296:128|292:96,1,60,12|0,3:2|3:0,0:0:0:0:
100,32,133910,1,10,1:3:0:0:
84,216,134039,5,14,1:3:0:0:
152,316,134168,1,10,1:3:0:0:
8,324,134297,5,10,1:3:0:0:
244,236,134426,1,14,1:3:0:0:
244,236,134813,6,0,P|324:260|404:208,1,150,14|2,1:3|0:0,0:0:0:0:
216,152,135200,2,0,L|192:312,1,150,10|2,1:3|0:0,0:0:0:0:
132,160,135587,2,0,P|168:80|260:84,1,150,10|2,1:3|0:0,0:0:0:0:
308,180,135974,1,10,1:3:0:0:
440,188,136103,1,0,0:0:0:0:
372,220,136232,1,2,0:0:0:0:
456,120,136361,6,0,L|444:276,1,150,10|2,1:3|0:0,0:0:0:0:
308,180,136748,2,0,L|296:30,1,150,10|2,1:3|0:0,0:0:0:0:
212,160,137135,2,0,P|168:144|112:152,2,75,10|0|2,1:3|0:0|0:0,0:0:0:0:
320,300,137522,2,0,P|364:316|420:308,1,75,10|0,1:3|0:0,0:0:0:0:
476,256,137781,1,10,1:3:0:0:
200,288,137910,6,0,P|120:272|40:332,1,150,10|2,1:3|0:0,0:0:0:0:
228,364,138297,2,0,L|244:200,1,150,10|2,1:3|0:0,0:0:0:0:
184,132,138684,2,0,P|260:172|332:136,1,150,10|2,1:3|0:0,0:0:0:0:
160,44,139071,1,10,1:3:0:0:
52,128,139200,1,0,0:0:0:0:
88,64,139329,1,2,0:0:0:0:
64,204,139458,6,0,L|32:360,1,150,10|2,1:3|0:0,0:0:0:0:
214,278,139845,2,0,L|184:132,1,150,10|2,1:3|0:0,0:0:0:0:
344,92,140232,1,10,1:3:0:0:
460,92,140361,1,0,0:0:0:0:
400,32,140490,1,2,0:0:0:0:
400,152,140619,2,0,L|400:256,1,75,10|0,1:3|0:0,0:0:0:0:
400,336,140877,1,10,1:3:0:0:
260,192,141006,6,0,P|272:112|216:40,1,150,10|2,1:3|0:0,0:0:0:0:
180,204,141393,2,0,L|340:264,1,150,10|2,1:3|0:0,0:0:0:0:
352,352,141781,2,0,P|368:264|440:228,1,150,10|2,1:3|0:0,0:0:0:0:
280,76,142168,1,10,1:3:0:0:
420,84,142297,1,0,0:0:0:0:
348,104,142426,1,2,0:0:0:0:
472,28,142555,6,0,L|460:192,1,150,10|2,1:3|0:0,0:0:0:0:
348,248,142942,2,0,P|276:212|192:236,1,150,10|2,1:3|0:0,0:0:0:0:
96,148,143329,5,10,1:3:0:0:
116,76,143458,1,0,0:0:0:0:
176,124,143587,1,2,0:0:0:0:
384,128,143716,5,10,1:3:0:0:
364,56,143845,1,0,0:0:0:0:
304,104,143974,1,2,0:0:0:0:
464,144,144103,6,0,P|484:224|456:304,1,150,10|2,1:3|0:0,0:0:0:0:
332,240,144490,2,0,P|256:220|164:256,1,150,10|2,1:3|0:0,0:0:0:0:
45,287,144877,2,0,P|27:215|48:144,1,150,10|2,1:3|0:0,0:0:0:0:
324,64,145264,1,10,1:3:0:0:
188,64,145393,1,0,0:0:0:0:
256,92,145522,1,2,0:0:0:0:
112,184,145651,6,0,L|131:257,1,75,10|0,1:3|0:0,0:0:0:0:
256,344,145910,1,2,0:0:0:0:
381,257,146039,2,0,L|400:184,1,75,10|0,1:3|0:0,0:0:0:0:
336,320,146297,5,14,1:3:0:0:
176,48,146555,1,14,1:3:0:0:
96,236,146813,1,14,1:3:0:0:
416,148,147071,1,14,1:3:0:0:
416,148,147200,6,0,L|324:128,2,75,14|0|2,1:3|0:0|0:0,0:0:0:0:
232,252,147587,2,0,L|324:232,2,75,10|0|2,1:3|0:0|0:0,0:0:0:0:
156,156,147974,5,10,1:3:0:0:
104,212,148103,1,0,0:0:0:0:
80,140,148232,1,2,0:0:0:0:
252,112,148361,5,10,1:3:0:0:
340,88,148490,1,0,0:0:0:0:
272,28,148619,1,2,0:0:0:0:
392,184,148748,6,0,P|432:184|480:168,2,75,10|0|2,1:3|0:0|0:0,0:0:0:0:
252,112,149135,2,0,P|212:112|164:128,2,75,10|0|2,1:3|0:0|0:0,0:0:0:0:
240,288,149522,5,10,1:3:0:0:
292,204,149651,1,0,0:0:0:0:
344,288,149781,1,2,0:0:0:0:
160,140,149910,5,10,1:3:0:0:
116,52,150039,1,0,0:0:0:0:
212,60,150169,1,10,1:3:0:0:
76,280,150297,6,0,L|84:380,2,75,10|0|2,1:3|0:0|0:0,0:0:0:0:
160,140,150684,2,0,L|165:65,2,75,10|0|2,1:3|0:0|0:0,0:0:0:0:
239,340,151071,5,10,1:3:0:0:
296,228,151200,1,0,0:0:0:0:
167,224,151329,1,2,0:0:0:0:
432,136,151458,5,10,1:3:0:0:
368,272,151587,1,0,0:0:0:0:
284,148,151716,1,2,0:0:0:0:
464,264,151845,6,0,P|464:304|448:360,2,75,10|0|2,1:3|0:0|0:0,0:0:0:0:
284,148,152232,2,0,P|276:111|276:73,2,75,10|0|2,1:3|0:0|0:0,0:0:0:0:
240,300,152619,5,10,1:3:0:0:
16,248,152748,1,0,0:0:0:0:
112,340,152877,1,2,0:0:0:0:
220,148,153006,5,10,1:3:0:0:
121,241,153135,1,0,0:0:0:0:
29,143,153264,1,10,1:3:0:0:
312,124,153393,6,0,L|404:112,2,75,14|0|2,1:3|0:0|0:0,0:0:0:0:
148,68,153781,5,0,3:0:0:0:
68,94,153910,1,0,3:0:0:0:
135,151,154039,1,2,3:2:0:0:
152,66,154168,5,0,3:0:0:0:
63,88,154297,1,0,3:0:0:0:
131,157,154426,1,2,3:2:0:0:
161,70,154555,5,0,3:0:0:0:
60,76,154684,1,0,3:0:0:0:
120,164,154813,1,10,1:3:0:0:
244,108,154942,6,0,L|228:12,2,75,14|0|2,1:3|0:0|0:0,0:0:0:0:
438,148,155329,5,0,3:0:0:0:
308,136,155458,1,0,3:0:0:0:
383,36,155587,1,2,3:2:0:0:
433,164,155716,5,0,3:0:0:0:
294,127,155845,1,0,3:0:0:0:
394,32,155974,1,2,3:2:0:0:
425,180,156103,5,0,3:0:0:0:
281,113,156232,1,0,3:0:0:0:
408,30,156361,1,10,1:3:0:0:
296,240,156490,5,10,1:3:0:0:
160,304,156619,1,10,1:3:0:0:
72,180,156748,1,10,1:3:0:0:
368,184,156877,1,0,1:0:0:0:
380,212,156942,1,0,1:0:0:0:
384,240,157006,1,0,1:0:0:0:
380,272,157071,1,0,1:0:0:0:
364,300,157135,5,10,1:3:0:0:
76,276,157264,1,14,1:3:0:0:
216,360,157393,1,10,1:3:0:0:
144,124,157522,1,10,1:3:0:0:
284,300,157651,2,0,L|296:328,6,18.75,0|0|0|0|0|0|0,1:0|1:0|1:0|1:0|1:0|1:0|1:0,0:0:0:0:
232,216,157910,1,10,1:3:0:0:
44,64,158039,5,14,1:3:0:0:
124,104,158168,1,10,1:3:0:0:
48,152,158297,1,10,1:3:0:0:
308,40,158426,5,10,1:3:0:0:
208,72,158555,1,10,1:3:0:0:
412,64,158684,1,10,1:3:0:0:
364,264,158813,5,10,1:3:0:0:
388,152,158942,1,10,1:3:0:0:
480,232,159071,1,10,1:3:0:0:
144,368,159200,5,10,1:3:0:0:
308,348,159329,1,10,1:3:0:0:
12,316,159458,1,10,1:3:0:0:
120,48,159587,5,4,1:2:0:0:
268,152,159974,5,0,1:0:0:0:
196,100,160361,5,0,1:0:0:0:
340,208,160748,5,0,1:0:0:0:
412,260,161135,6,0,B|440:204|408:152|408:152|376:92|412:44,1,225,14|0,1:3|0:0,0:0:0:0:
20,228,161781,5,0,0:0:0:0:
88,192,161910,1,0,0:0:0:0:
164,188,162039,1,0,0:0:0:0:
236,208,162168,1,0,0:0:0:0:
167,264,162297,2,0,B|152:228|163:192|163:192|175:156|155:104,1,150
76,48,162684,6,0,P|156:76|248:24,1,180.000006866455,10|10,1:3|1:3,0:0:0:0:
316,136,163071,2,0,P|394:97|477:125,1,180.000006866455,10|10,1:3|1:3,0:0:0:0:
264,208,163458,2,0,P|230:148|234:112,1,90.0000034332277,10|0,1:3|0:0,0:0:0:0:
404,184,163716,1,0,1:0:0:0:
404,216,163781,1,0,1:0:0:0:
404,248,163845,2,0,L|404:348,1,90.0000034332277,10|0,1:3|0:0,0:0:0:0:
500,228,164103,1,10,1:3:0:0:
232,296,164232,6,0,L|0:264,1,225,14|0,1:3|0:0,0:0:0:0:
168,76,164877,5,0,0:0:0:0:
232,116,165006,1,0,0:0:0:0:
308,116,165135,1,0,0:0:0:0:
372,76,165264,1,0,0:0:0:0:
296,40,165393,2,0,L|320:200,1,150,0|0,0:0|0:0,0:0:0:0:
220,280,165781,5,10,1:3:0:0:
448,240,165910,1,10,1:3:0:0:
268,344,166039,1,0,1:0:0:0:
236,360,166103,1,0,1:0:0:0:
200,360,166168,2,0,P|159:341|136:288,1,75,10|0,1:3|3:0,0:0:0:0:
28,152,166426,5,10,1:3:0:0:
260,232,166555,2,0,B|300:244|338:237|338:237|388:228|428:240,2,150,10|10|10,1:3|1:3|1:3,0:0:0:0:
120,52,167329,6,0,L|36:32,2,75,14|0|0,1:3|3:0|3:0,0:0:0:0:
268,116,167716,2,0,L|340:98,2,75,0|0|0,3:0|3:0|3:0,0:0:0:0:
128,232,168103,6,0,P|120:268|120:320,2,75,0|0|0,3:0|3:0|3:0,0:0:0:0:
292,364,168490,2,0,P|300:328|300:276,2,75,0|0|0,3:0|3:0|3:0,0:0:0:0:
424,224,168877,6,0,L|504:244,2,75,0|0|0,3:0|3:0|3:0,0:0:0:0:
428,48,169264,2,0,L|348:68,2,75,0|0|0,3:0|3:0|3:0,0:0:0:0:
264,132,169651,6,0,P|204:120|168:124,2,75,0|0|0,3:0|3:0|1:0,0:0:0:0:
44,264,170039,2,0,P|104:276|140:272,2,75,0|0|0,3:0|1:0|3:0,0:0:0:0:
220,228,170426,5,0,1:0:0:0:
280,172,170555,1,0,1:0:0:0:
292,288,170684,1,0,1:0:0:0:
188,124,170813,5,0,1:0:0:0:
360,228,170942,1,0,1:0:0:0:
184,308,171071,1,0,1:0:0:0:
292,96,171200,5,0,1:0:0:0:
92,144,171329,1,0,1:0:0:0:
400,316,171458,1,0,1:0:0:0:
192,36,171587,5,0,1:0:0:0:
256,364,171716,1,0,1:0:0:0:
396,48,171845,1,0,1:0:0:0:
120,348,171974,6,0,P|112:284|168:232,1,135,4|0,1:2|0:0,0:0:0:0:
184,308,172361,2,0,L|204:152,1,155.250002961159
259,87,172748,2,0,B|221:63|174:76|174:76|132:88|87:63,1,175.499991966248,4|0,0:0|0:0,0:0:0:0:
32,121,173135,2,0,P|92:73|4:82,1,202.500007724762,4|0,0:0|0:0,0:0:0:0:
48,80,173522,6,0,B|92:120|60:204|60:204|32:280|88:340,1,270.000010299683,14|10,1:3|1:3,0:0:0:0:
276,176,174168,5,2,0:0:0:0:
220,116,174297,1,10,1:3:0:0:
372,168,174426,1,0,0:0:0:0:
168,188,174555,1,2,0:0:0:0:
452,120,174684,2,0,P|464:184|380:264,1,180.000006866455,10|2,1:3|0:0,0:0:0:0:
132,64,175071,5,10,1:3:0:0:
176,148,175200,1,0,0:0:0:0:
76,144,175329,1,2,0:0:0:0:
216,80,175458,5,10,1:3:0:0:
228,208,175587,1,0,0:0:0:0:
188,8,175716,1,2,0:0:0:0:
128,224,175845,5,10,1:3:0:0:
340,192,175974,1,0,0:0:0:0:
40,208,176103,1,2,0:0:0:0:
264,300,176232,5,10,1:3:0:0:
292,284,176297,1,0,0:0:0:0:
320,276,176361,1,0,0:0:0:0:
352,276,176426,1,0,0:0:0:0:
380,284,176490,1,10,1:3:0:0:
408,300,176555,1,0,0:0:0:0:
444,336,176619,6,0,P|428:232|488:148,1,180.000006866455,14|2,1:3|0:0,0:0:0:0:
340,192,177006,2,0,P|264:200|168:140,1,180.000006866455,10|2,1:3|0:0,0:0:0:0:
44,208,177393,5,10,1:3:0:0:
100,128,177522,1,0,0:0:0:0:
104,272,177651,1,2,0:0:0:0:
20,60,177781,2,0,P|68:32|188:80,1,180.000006866455,10|2,1:3|0:0,0:0:0:0:
252,300,178168,5,10,1:3:0:0:
428,276,178297,1,0,0:0:0:0:
160,236,178426,1,2,0:0:0:0:
464,364,178555,2,0,P|516:280|472:184,1,180.000006866455,10|2,1:3|0:0,0:0:0:0:
272,56,178942,5,10,1:3:0:0:
392,88,179071,1,0,0:0:0:0:
112,112,179200,1,2,1:2:0:0:
480,160,179329,5,10,1:3:0:0:
484,132,179393,1,0,0:0:0:0:
488,104,179458,1,0,0:0:0:0:
492,76,179522,1,0,0:0:0:0:
496,48,179587,1,10,1:3:0:0:
348,216,179716,6,0,P|428:232|472:336,1,180.000006866455,14|2,1:3|0:0,0:0:0:0:
304,300,180103,2,0,L|288:100,1,180.000006866455,10|2,1:3|0:0,0:0:0:0:
144,112,180490,5,10,1:3:0:0:
252,104,180619,1,0,0:0:0:0:
56,44,180748,1,2,0:0:0:0:
341,92,180877,2,0,P|428:103|496:48,1,180.000006866455,10|2,1:3|0:0,0:0:0:0:
144,112,181264,5,10,1:3:0:0:
108,276,181393,1,0,0:0:0:0:
72,180,181522,1,2,0:0:0:0:
208,320,181651,5,10,1:3:0:0:
20,248,181781,1,0,0:0:0:0:
276,256,181910,1,2,0:0:0:0:
12,120,182039,5,10,1:3:0:0:
136,356,182168,1,0,0:0:0:0:
96,36,182297,1,2,0:0:0:0:
264,136,182426,5,10,1:3:0:0:
288,144,182490,1,0,0:0:0:0:
316,148,182555,1,0,0:0:0:0:
344,148,182619,1,0,0:0:0:0:
372,144,182684,1,10,1:3:0:0:
396,132,182748,1,0,0:0:0:0:
428,96,182813,6,0,L|400:376,1,270.000010299683,14|10,1:3|1:3,0:0:0:0:
88,256,183458,5,2,0:0:0:0:
72,144,183587,1,14,1:3:0:0:
32,328,183716,1,0,0:0:0:0:
244,360,183845,1,2,0:0:0:0:
156,100,183974,2,0,P|77:54|-6:89,1,180.000006866455,10|2,1:3|0:0,0:0:0:0:
360,176,184361,6,0,L|464:192,2,90.0000034332277,14|0|2,1:3|0:0|0:0,0:0:0:0:
152,176,184748,2,0,L|48:192,2,90.0000034332277,10|0|2,1:3|0:0|0:0,0:0:0:0:
316,324,185135,5,14,1:3:0:0:
432,360,185264,1,0,0:0:0:0:
188,360,185393,1,10,1:3:0:0:
64,132,185522,5,10,1:3:0:0:
100,336,185651,1,0,0:0:0:0:
272,220,185781,1,10,1:3:0:0:
44,36,185910,6,0,L|24:232,1,180.000006866455,0|10,0:0|1:3,0:0:0:0:
184,180,186297,2,0,P|260:128|364:168,1,180.000006866455,14|2,1:3|0:0,0:0:0:0:
432,360,186684,5,10,1:3:0:0:
404,188,186813,1,0,0:0:0:0:
260,280,186942,1,2,0:0:0:0:
476,260,187071,2,0,P|496:168|444:92,1,180.000006866455,10|2,1:3|0:0,0:0:0:0:
208,140,187458,5,10,1:3:0:0:
252,216,187587,1,0,0:0:0:0:
264,76,187716,1,2,0:0:0:0:
160,216,187845,5,10,1:3:0:0:
312,148,187974,1,0,0:0:0:0:
92,108,188103,1,2,0:0:0:0:
208,288,188232,5,10,1:3:0:0:
156,36,188361,1,0,0:0:0:0:
104,352,188490,1,2,0:0:0:0:
344,304,188619,5,10,1:3:0:0:
368,284,188684,1,0,0:0:0:0:
396,272,188748,1,0,0:0:0:0:
428,268,188813,1,0,0:0:0:0:
460,272,188877,1,10,0:3:0:0:
488,284,188942,1,0,0:0:0:0:
484,328,189006,6,0,L|496:136,1,180.000006866455,14|2,1:3|0:0,0:0:0:0:
372,184,189393,2,0,P|280:204|196:132,1,180.000006866455,10|2,1:3|0:0,0:0:0:0:
136,244,189781,5,10,1:3:0:0:
88,128,189910,1,0,0:0:0:0:
56,320,190039,1,2,0:0:0:0:
168,72,190168,2,0,P|72:40|4:88,1,180.000006866455,10|2,1:3|0:0,0:0:0:0:
216,336,190555,5,10,1:3:0:0:
320,260,190684,1,0,0:0:0:0:
136,244,190813,1,2,0:0:0:0:
356,336,190942,2,0,L|384:144,1,180.000006866455,10|2,1:3|0:0,0:0:0:0:
172,132,191329,5,10,1:3:0:0:
136,244,191458,1,0,0:0:0:0:
88,48,191587,1,2,0:0:0:0:
36,240,191716,5,10,1:3:0:0:
44,272,191781,1,0,0:0:0:0:
52,300,191845,1,0,0:0:0:0:
60,332,191910,1,0,0:0:0:0:
68,364,191974,1,10,1:3:0:0:
304,304,192103,6,0,P|400:280|476:340,1,180.000006866455,14|2,1:3|0:0,0:0:0:0:
272,384,192490,2,0,L|256:200,1,180.000006866455,10|2,1:3|0:0,0:0:0:0:
368,104,192877,5,10,1:3:0:0:
440,208,193006,1,0,0:0:0:0:
456,24,193135,1,2,0:0:0:0:
352,236,193264,2,0,P|427:297|502:278,1,180.000006866455,10|2,1:3|0:0,0:0:0:0:
268,212,193651,5,10,1:3:0:0:
188,164,193781,1,0,0:0:0:0:
344,160,193910,1,2,0:0:0:0:
188,252,194039,5,10,1:3:0:0:
268,72,194168,1,0,0:0:0:0:
268,324,194297,1,2,0:0:0:0:
168,76,194426,5,10,1:3:0:0:
352,236,194555,1,0,0:0:0:0:
56,200,194684,1,10,1:3:0:0:
344,64,194813,5,10,1:3:0:0:
368,84,194877,1,0,0:0:0:0:
400,92,194942,1,0,0:0:0:0:
432,92,195006,1,0,0:0:0:0:
464,84,195071,1,10,1:3:0:0:
488,64,195135,1,0,0:0:0:0:
500,20,195200,6,0,L|484:200,1,180.000006866455,14|2,1:3|0:0,0:0:0:0:
472,356,195587,1,10,1:3:0:0:
448,364,195845,1,10,1:3:0:0:
232,232,195974,5,14,1:3:0:0:
260,324,196103,1,0,0:0:0:0:
300,168,196232,1,10,1:3:0:0:
172,304,196361,5,10,1:3:0:0:
356,260,196490,1,10,1:3:0:0:
76,220,196619,1,10,1:3:0:0:
424,192,196748,6,0,P|444:276|352:352,1,180.000006866455,14|10,1:3|1:3,0:0:0:0:
152,152,197135,5,10,1:3:0:0:
232,232,197264,1,10,1:3:0:0:
76,220,197393,1,10,1:3:0:0:
240,128,197522,5,14,1:3:0:0:
172,304,197651,1,0,0:0:0:0:
104,56,197781,1,14,1:3:0:0:
88,308,197910,5,0,0:0:0:0:
196,28,198039,1,14,1:3:0:0:
240,360,198168,1,2,0:0:0:0:
328,96,198297,6,0,P|408:88|496:160,1,180.000006866455,14|2,1:3|0:0,0:0:0:0:
268,168,198684,6,0,P|240:120|240:76,1,90.0000034332277,10|0,1:3|0:0,0:0:0:0:
304,16,198942,1,2,0:0:0:0:
352,204,199071,6,0,L|328:304,1,90.0000034332277,10|0,1:3|0:0,0:0:0:0:
304,376,199329,1,2,0:0:0:0:
164,184,199458,6,0,P|108:164|56:172,1,90.0000034332277,10|0,1:3|0:0,0:0:0:0:
8,212,199716,1,2,0:0:0:0:
228,344,199845,6,0,L|248:252,1,90.0000034332277,10|0,1:3|0:0,0:0:0:0:
268,168,200103,1,2,0:0:0:0:
432,60,200232,6,0,P|368:72|332:64,1,90.0000034332277,10|0,1:3|0:0,0:0:0:0:
256,24,200490,1,2,0:0:0:0:
444,160,200619,6,0,L|428:352,1,180.000006866455,10|2,1:3|0:0,0:0:0:0:
216,256,201006,5,10,1:3:0:0:
268,168,201135,1,0,0:0:0:0:
292,336,201264,1,2,0:0:0:0:
72,100,201393,5,10,1:3:0:0:
132,176,201522,1,0,0:0:0:0:
148,24,201651,1,2,0:0:0:0:
120,320,201781,5,10,1:3:0:0:
192,240,201910,1,0,0:0:0:0:
24,260,202039,1,2,0:0:0:0:
404,232,202168,5,10,1:3:0:0:
300,260,202297,1,0,0:0:0:0:
472,316,202426,1,2,0:0:0:0:
188,76,202555,5,10,1:3:0:0:
288,104,202684,1,0,0:0:0:0:
120,156,202813,1,2,0:0:0:0:
416,92,202942,5,14,1:3:0:0:
216,160,203071,1,14,1:3:0:0:
304,28,203200,1,14,1:3:0:0:
368,312,203329,2,0,L|176:284,1,180.000006866455,14|10,1:3|1:3,0:0:0:0:
32,244,203716,6,0,B|104:304|200:284|256:228|256:228|344:140|420:160|476:220,1,450.000017166138,14|10,1:3|1:3,0:0:0:0:
304,100,204490,6,0,P|244:84|196:48,2,90.0000034332277,14|0|0,1:3|0:0|0:0,0:0:0:0:
448,28,204877,5,0,3:0:0:0:
472,116,205006,1,0,3:0:0:0:
448,204,205135,1,2,3:2:0:0:
453,34,205264,5,0,3:0:0:0:
474,123,205393,1,0,3:0:0:0:
447,210,205522,1,2,3:2:0:0:
458,41,205651,5,0,3:0:0:0:
476,131,205780,1,0,3:0:0:0:
446,217,205909,1,10,1:3:0:0:
264,280,206039,6,0,L|252:380,2,90.0000034332277,14|0|2,1:3|0:0|0:0,0:0:0:0:
52,184,206426,5,0,3:0:0:0:
212,152,206555,1,0,3:0:0:0:
124,128,206684,1,2,3:2:0:0:
360,248,206813,6,0,L|376:60,2,180.000006866455,14|14|14,1:3|1:3|1:3,0:0:0:0:
352,352,207458,1,10,1:3:0:0:
196,240,207587,5,14,1:3:0:0:
132,336,207716,1,10,1:3:0:0:
124,128,207845,1,10,1:3:0:0:
392,160,207974,1,0,1:0:0:0:
392,188,208039,1,0,1:0:0:0:
392,216,208103,1,0,1:0:0:0:
392,244,208168,1,0,1:0:0:0:
392,272,208232,5,10,1:3:0:0:
196,240,208361,1,14,1:3:0:0:
288,344,208490,1,10,1:3:0:0:
260,108,208619,1,10,1:3:0:0:
184,324,208748,2,0,L|180:356,6,22.5000008583069,0|0|0|0|0|0|0,1:0|1:0|1:0|1:0|1:0|1:0|1:0,0:0:0:0:
196,240,209007,1,10,1:3:0:0:
88,76,209135,6,0,L|88:56,56,16.8750006437302,4|0|0|0|0|0|0|0|0|0|0|0|0|0|0|0|0|0|0|0|0|0|0|0|0|0|0|0|0|0|0|0|0|0|0|0|0|0|0|0|0|0|0|0|0|0|0|0|0|0|0|0|0|0|0|0|0,1:2|1:0|1:0|1:0|1:0|1:0|1:0|1:0|1:0|1:0|1:0|1:0|1:0|1:0|1:0|1:0|1:0|1:0|1:0|1:0|1:0|1:0|1:0|1:0|1:0|1:0|1:0|1:0|1:0|1:0|1:0|1:0|1:0|1:0|1:0|1:0|1:0|1:0|1:0|1:0|1:0|1:0|1:0|1:0|1:0|1:0|1:0|1:0|1:0|1:0|1:0|1:0|1:0|1:0|1:0|1:0|1:0,0:0:0:0:
188,60,210555,5,10,1:3:0:0:
84,112,210684,2,0,L|72:216,1,90.0000034332277,14|0,1:3|0:0,0:0:0:0:
176,240,211071,2,0,L|188:344,1,90.0000034332277,0|0,0:0|0:0,0:0:0:0:
280,352,211458,1,2,0:0:0:0:
304,128,211716,2,0,P|352:136|428:64,1,135.000005149842,0|0,0:0|0:0,0:0:0:0:
388,208,212232,6,0,P|376:268|380:320,1,90.0000034332277,2|0,0:0|0:0,0:0:0:0:
492,228,212619,2,0,P|491:183|480:139,1,90.0000034332277,0|0,0:0|0:0,0:0:0:0:
392,48,213006,2,0,L|276:32,1,90.0000034332277,2|0,0:0|0:0,0:0:0:0:
220,104,213393,2,0,L|130:116,1,90.0000034332277,0|0,0:0|0:0,0:0:0:0:
44,52,213781,5,2,0:0:0:0:
36,84,214039,1,0,0:0:0:0:
56,168,214168,2,0,P|64:212|56:280,1,90.0000034332277,0|0,0:0|0:0,0:0:0:0:
24,336,214555,1,2,0:0:0:0:
260,280,214813,2,0,L|408:304,1,135.000005149842,0|0,0:0|0:0,0:0:0:0:
476,224,215329,6,0,P|484:160|468:120,1,90.0000034332277,2|0,0:0|0:0,0:0:0:0:
336,128,215716,2,0,P|327:171|336:215,1,90.0000034332277,0|0,0:0|0:0,0:0:0:0:
408,176,216103,1,2,0:0:0:0:
384,44,216361,1,0,0:0:0:0:
300,16,216490,2,0,L|204:32,1,90.0000034332277,0|0,0:0|0:0,0:0:0:0:
168,112,216877,6,0,P|124:104|56:136,1,90.0000034332277,2|0,0:0|0:0,0:0:0:0:
44,208,217264,2,0,L|68:296,1,90.0000034332277,0|0,0:0|0:0,0:0:0:0:
148,336,217651,1,2,0:0:0:0:
268,212,217910,2,0,P|256:156|296:76,1,135.000005149842,0|0,0:0|0:0,0:0:0:0:
356,220,218426,6,0,L|340:332,1,90.0000034332277,2|0,0:0|0:0,0:0:0:0:
468,256,218813,2,0,L|455:166,1,90.0000034332277,0|0,0:0|0:0,0:0:0:0:
488,84,219200,1,2,0:0:0:0:
332,120,219458,1,0,0:0:0:0:
256,72,219587,2,0,P|196:84|136:52,1,90.0000034332277,0|0,0:0|0:0,0:0:0:0:
96,24,219974,6,0,L|76:136,1,90.0000034332277,2|0,0:0|0:0,0:0:0:0:
108,196,220361,2,0,L|128:308,1,90.0000034332277,0|0,0:0|0:0,0:0:0:0:
68,356,220748,1,2,0:0:0:0:
256,300,221006,2,0,P|300:320|396:284,1,135.000005149842,0|0,0:0|0:0,0:0:0:0:
396,212,221522,6,0,L|372:104,1,90.0000034332277,2|0,0:0|0:0,0:0:0:0:
424,48,221910,1,0,0:0:0:0:
184,60,222168,1,0,0:0:0:0:
260,108,222297,6,0,L|240:195,1,90.0000034332277,2|0,0:0|0:0,0:0:0:0:
164,240,222684,2,0,P|116:228|76:240,1,90.0000034332277,0|0,0:0|0:0,0:0:0:0:
248,320,223071,6,0,P|316:328|372:292,1,120,0|2,0:0|0:0,0:0:0:0:
340,164,223458,2,0,P|272:156|216:192,1,120,0|2,0:0|0:0,0:0:0:0:
296,244,223845,1,0,0:0:0:0:
436,148,224103,1,2,0:0:0:0:
488,80,224232,2,0,L|500:232,1,120,0|2,0:0|0:0,0:0:0:0:
444,308,224619,6,0,P|368:292|312:328,1,120,0|2,0:0|0:0,0:0:0:0:
216,280,225006,2,0,P|159:298|103:279,1,120,0|2,0:0|0:0,0:0:0:0:
40,176,225393,2,0,P|28:136|8:104,2,60,0|0|2,0:0|0:0|0:0,0:0:0:0:
140,160,225781,2,0,P|152:200|172:232,2,60,0|0|2,0:0|0:0|0:0,0:0:0:0:
252,172,226168,6,0,P|308:160|384:192,1,120,0|2,0:0|0:0,0:0:0:0:
448,268,226555,2,0,L|476:132,1,120,0|2,0:0|0:0,0:0:0:0:
424,60,226942,1,0,0:0:0:0:
88,60,227200,1,2,0:0:0:0:
44,152,227329,2,0,P|64:216|44:280,1,120,0|2,0:0|0:0,0:0:0:0:
120,340,227716,6,0,L|240:356,1,120,0|2,0:0|0:0,0:0:0:0:
280,264,228103,2,0,L|400:248,1,120,0|2,0:0|0:0,0:0:0:0:
452,160,228490,2,0,P|468:112|468:84,2,60,0|0|2,0:0|0:0|0:0,0:0:0:0:
340,48,228877,2,0,P|324:96|324:124,2,60,0|0|2,0:0|0:0|0:0,0:0:0:0:
364,180,229264,6,0,P|296:180|244:136,1,120,0|2,0:0|0:0,0:0:0:0:
196,236,229651,2,0,P|128:236|76:280,1,120,0|2,0:0|0:0,0:0:0:0:
164,332,230039,1,0,0:0:0:0:
200,132,230297,1,2,0:0:0:0:
128,60,230426,2,0,L|268:40,1,120,0|2,0:0|0:0,0:0:0:0:
332,100,230813,6,0,P|392:88|452:128,1,120,0|2,0:0|0:0,0:0:0:0:
424,240,231200,2,0,P|364:252|304:212,1,120,0|2,0:0|0:0,0:0:0:0:
232,284,231587,2,0,P|188:280|152:288,2,60,0|0|2,0:0|0:0|0:0,0:0:0:0:
120,176,231974,2,0,P|164:180|200:172,2,60,0|0|2,0:0|0:0|0:0,0:0:0:0:
48,92,232361,5,4,0:2:0:0:
464,92,233135,5,4,0:2:0:0:
256,192,233910,12,0,234684,0:0:0:0:
256,244,234877,5,0,0:0:0:0:
256,244,234974,1,0,0:0:0:0:
256,244,235071,2,0,L|256:184,1,45,0|0,0:0|0:0,0:0:0:0:
256,104,235264,2,0,L|256:64,3,22.5,0|0|0|0,0:0|0:0|0:0|0:0,0:0:0:0:
340,100,235458,6,0,L|448:72,1,90,4|0,1:2|0:0,0:0:0:0:
452,208,235651,1,2,0:0:0:0:
472,296,235748,1,0,0:0:0:0:
400,352,235845,2,0,P|304:344|256:264,1,180,0|2,1:0|0:0,0:0:0:0:
56,229,236135,1,0,0:0:0:0:
104,153,236232,2,0,L|120:349,1,180,0|2,1:0|0:0,0:0:0:0:
256,188,236522,1,0,0:0:0:0:
256,188,236619,2,0,P|356:136|456:180,1,180,0|2,1:0|0:0,0:0:0:0:
184,36,237006,6,0,L|84:20,1,90,0|0,1:0|0:0,0:0:0:0:
8,216,237200,2,0,L|96:201,1,90,2|0,0:0|0:0,0:0:0:0:
256,188,237393,2,0,L|228:380,1,180,0|2,1:0|0:0,0:0:0:0:
356,208,237684,1,0,0:0:0:0:
328,124,237781,2,0,P|236:96|165:160,1,180,0|2,1:0|0:0,0:0:0:0:
28,248,238071,1,0,0:0:0:0:
104,296,238168,2,0,L|96:104,1,180,0|2,1:0|0:0,0:0:0:0:
444,172,238555,6,0,L|436:268,1,90,0|0,1:0|0:0,0:0:0:0:
256,328,238748,1,2,0:0:0:0:
192,268,238845,1,0,0:0:0:0:
276,236,238942,2,0,P|308:136|260:48,1,180,0|2,1:0|0:0,0:0:0:0:
116,216,239232,1,0,0:0:0:0:
192,268,239329,2,0,L|384:252,1,180,0|2,1:0|0:0,0:0:0:0:
352,76,239619,1,0,0:0:0:0:
412,152,239716,2,0,P|320:164|256:84,1,180,0|2,1:0|0:0,0:0:0:0:
40,284,240103,6,0,P|36:328|56:384,1,90,0|0,1:0|0:0,0:0:0:0:
272,304,240297,2,0,P|276:260|256:204,1,90,2|0,0:0|0:0,0:0:0:0:
72,112,240490,2,0,P|172:120|228:48,1,180,0|2,1:0|0:0,0:0:0:0:
124,20,240781,1,0,0:0:0:0:
12,32,240877,2,0,L|60:216,1,180,0|2,1:0|0:0,0:0:0:0:
196,308,241168,1,0,0:0:0:0:
248,236,241264,2,0,P|292:216|352:224,1,90,0|0,1:0|0:0,0:0:0:0:
296,32,241458,1,2,1:2:0:0:
364,92,241555,1,0,1:0:0:0:
280,120,241651,6,0,P|188:112|136:20,1,180,0|2,1:0|0:0,0:0:0:0:
88,172,241942,1,0,0:0:0:0:
88,172,242039,2,0,L|112:368,1,180,0|2,1:0|0:0,0:0:0:0:
316,304,242329,1,0,0:0:0:0:
248,236,242426,2,0,P|348:216|408:296,1,180,0|2,1:0|0:0,0:0:0:0:
320,68,242716,1,0,0:0:0:0:
265,141,242813,2,0,L|88:172,1,180,0|2,1:0|0:0,0:0:0:0:
448,208,243200,6,0,P|456:148|440:104,1,90,0|0,1:0|0:0,0:0:0:0:
264,140,243393,2,0,P|254:183|263:227,1,90,2|0,0:0|0:0,0:0:0:0:
336,64,243587,2,0,P|240:44|160:120,1,180,0|2,1:0|0:0,0:0:0:0:
68,252,243877,1,0,0:0:0:0:
32,168,243974,2,0,L|236:204,1,180,0|2,1:0|0:0,0:0:0:0:
376,272,244264,1,0,0:0:0:0:
296,316,244361,2,0,P|300:220|376:180,1,180,0|2,1:0|0:0,0:0:0:0:
72,40,244748,6,0,L|176:56,1,90,4|0,1:2|0:0,0:0:0:0:
228,184,244942,1,2,0:0:0:0:
228,184,245039,1,0,0:0:0:0:
228,184,245135,2,0,L|124:200,1,90,0|0,1:0|0:0,0:0:0:0:
460,180,245329,6,0,P|475:137|475:93,1,90,2|0,1:2|0:0,0:0:0:0:
311,229,245522,2,0,P|295:271|296:316,1,90,4|0,1:2|0:0,0:0:0:0:
48,336,245716,1,2,1:2:0:0:
132,300,245813,1,0,1:0:0:0:
60,248,245910,6,0,P|48:188|56:136,1,90,0|0,1:0|0:0,0:0:0:0:
216,264,246103,2,0,P|217:308|206:352,1,90,2|0,1:2|0:0,0:0:0:0:
312,84,246297,6,0,L|416:100,1,90,4|0,1:2|0:0,0:0:0:0:
200,188,246490,1,2,1:2:0:0:
128,136,246587,1,0,1:0:0:0:
44,168,246684,6,0,P|32:216|40:264,1,90,4|0,1:2|0:0,0:0:0:0:
200,364,246877,2,0,P|202:338|200:320,2,45,2|0|0,1:2|1:0|1:0,0:0:0:0:
468,168,247071,6,0,P|479:211|474:255,1,90,4|0,1:2|0:0,0:0:0:0:
304,252,247264,2,0,P|256:240|204:256,1,90,2|0,1:2|0:0,0:0:0:0:
37,255,247458,2,0,P|32:211|43:168,1,90,4|0,1:2|0:0,0:0:0:0:
268,112,247651,1,2,1:2:0:0:
328,180,247748,1,0,1:0:0:0:
360,80,247845,6,0,L|176:108,1,180,4|2,1:2|0:0,0:0:0:0:
32,204,248135,1,0,0:0:0:0:
120,220,248232,2,0,L|304:248,1,180,0|2,1:0|0:0,0:0:0:0:
468,272,248522,1,0,0:0:0:0:
408,340,248619,6,0,P|384:249|454:183,1,180,0|2,1:0|0:0,0:0:0:0:
448,184,248877,1,0,0:0:0:0:
460,180,248942,1,0,0:0:0:0:
472,176,249006,2,0,P|472:136|456:84,1,90,0|0,1:0|0:0,0:0:0:0:
264,88,249200,2,0,P|250:130|250:175,1,90,2|0,0:0|0:0,0:0:0:0:
48,284,249393,6,0,P|125:247|197:295,1,180,0|2,1:0|0:0,0:0:0:0:
340,212,249684,1,0,0:0:0:0:
340,212,249781,2,0,L|356:24,1,180,0|2,1:0|0:0,0:0:0:0:
212,176,250071,1,0,0:0:0:0:
260,252,250168,6,0,P|344:300|416:252,1,180,0|2,1:0|0:0,0:0:0:0:
416,256,250426,1,0,0:0:0:0:
424,248,250490,1,0,0:0:0:0:
432,240,250555,2,0,L|444:144,1,90,0|0,1:0|0:0,0:0:0:0:
296,28,250748,2,0,L|284:124,1,90,2|0,0:0|0:0,0:0:0:0:
212,324,250942,6,0,P|112:284|28:344,1,180,0|2,1:0|0:0,0:0:0:0:
84,88,251232,1,0,0:0:0:0:
24,156,251329,2,0,L|216:196,1,180,0|2,1:0|0:0,0:0:0:0:
288,212,251619,1,0,0:0:0:0:
240,120,251716,6,0,P|304:108|352:132,1,90,0|0,1:0|0:0,0:0:0:0:
332,300,251910,2,0,P|288:308|232:292,1,90,2|0,0:0|0:0,0:0:0:0:
468,64,252103,1,0,1:0:0:0:
460,152,252200,1,0,0:0:0:0:
452,240,252297,1,2,0:0:0:0:
444,328,252393,1,0,0:0:0:0:
332,300,252490,6,0,P|224:272|152:320,1,180,0|2,1:0|0:0,0:0:0:0:
160,312,252748,1,0,0:0:0:0:
152,324,252813,1,0,0:0:0:0:
148,336,252877,1,0,1:0:0:0:
368,228,253071,1,2,0:0:0:0:
368,228,253264,6,0,L|464:204,1,90,0|0,1:0|0:0,0:0:0:0:
464,24,253458,2,0,L|368:48,1,90,2|0,0:0|0:0,0:0:0:0:
149,89,253651,2,0,P|137:132|148:176,1,90,0|0,1:0|0:0,0:0:0:0:
368,228,253845,2,0,P|380:185|369:141,1,90,2|0,0:0|0:0,0:0:0:0:
260,104,254039,6,0,L|280:296,1,180,4|2,1:2|1:2,0:0:0:0:
168,156,254329,1,0,0:0:0:0:
184,48,254426,2,0,P|276:16|352:80,1,180,0|2,1:0|1:2,0:0:0:0:
368,228,254716,1,0,0:0:0:0:
448,296,254813,2,0,L|256:268,1,180,0|2,1:0|1:2,0:0:0:0:
256,268,255071,1,0,0:0:0:0:
244,267,255135,1,0,0:0:0:0:
231,266,255200,2,0,P|215:314|223:358,1,90,0|0,1:0|0:0,0:0:0:0:
320,161,255393,2,0,P|329:136|332:114,2,45,2|0|0,1:2|1:0|1:0,0:0:0:0:
168,156,255587,6,0,P|88:136|56:36,1,180,4|2,1:2|1:2,0:0:0:0:
284,20,255877,1,0,0:0:0:0:
196,72,255974,2,0,L|220:260,1,180,0|2,1:0|1:2,0:0:0:0:
404,328,256264,1,0,0:0:0:0:
328,276,256361,2,0,P|388:240|496:316,1,180,0|2,1:0|1:2,0:0:0:0:
480,268,256619,1,0,0:0:0:0:
480,256,256684,1,0,0:0:0:0:
480,244,256748,2,0,L|476:144,1,90,0|0,1:0|1:0,0:0:0:0:
316,70,256942,2,0,P|296:64|272:64,2,45,2|0|0,1:2|1:0|1:0,0:0:0:0:
168,152,257135,5,4,1:2:0:0:
168,152,257232,1,0,0:0:0:0:
168,152,257329,2,0,L|56:136,1,90,2|0,1:2|0:0,0:0:0:0:
76,336,257522,1,0,1:2:0:0:
76,336,257619,1,0,0:0:0:0:
76,336,257716,2,0,L|184:320,1,90,2|0,1:2|0:0,0:0:0:0:
416,148,257910,1,4,1:2:0:0:
416,148,258006,1,0,0:0:0:0:
416,148,258103,6,0,P|424:92|408:48,1,90,2|0,1:2|0:0,0:0:0:0:
97,60,258297,1,0,1:2:0:0:
97,60,258393,1,0,0:0:0:0:
97,60,258490,2,0,P|87:104|96:148,1,90,2|0,1:2|0:0,0:0:0:0:
420,332,258684,5,4,1:2:0:0:
256,224,258813,1,0,1:0:0:0:
92,332,258942,1,0,1:0:0:0:
256,336,259071,5,0,1:0:0:0:
388,116,259200,1,0,1:0:0:0:
124,116,259329,1,0,1:0:0:0:
400,228,259458,5,4,1:2:0:0:
112,228,259587,1,0,1:0:0:0:
112,228,259651,1,0,1:0:0:0:
112,228,259716,1,0,1:0:0:0:
256,88,259845,5,0,1:0:0:0:
420,332,259974,1,0,1:0:0:0:
92,332,260103,1,0,1:0:0:0:
256,4,260232,5,4,1:2:0:0:
112,228,260619,1,0,1:0:0:0:
188,180,260716,1,0,1:0:0:0:
256,240,260813,1,0,1:0:0:0:
324,180,260910,1,0,1:0:0:0:
400,228,261006,6,0,B|416:192|416:164|416:164|388:116|388:116|396:80|392:48,1,180
188,288,261781,6,0,P|68:268|48:116,1,270,4|0,1:2|0:0,0:0:0:0:
236,200,262168,2,0,L|208:400,1,180,0|2,1:0|0:0,0:0:0:0:
164,60,262555,6,0,P|264:80|348:12,1,180,0|2,1:0|0:0,0:0:0:0:
348,64,262813,1,0,0:0:0:0:
368,84,262877,1,0,0:0:0:0:
388,104,262942,2,0,P|400:164|388:212,1,90,0|0,1:0|0:0,0:0:0:0:
184,288,263135,2,0,P|172:228|184:180,1,90,2|0,0:0|0:0,0:0:0:0:
32,48,263329,5,0,1:0:0:0:
72,84,263426,1,0,0:0:0:0:
124,92,263522,1,2,0:0:0:0:
176,76,263619,1,0,0:0:0:0:
228,144,263716,5,0,1:0:0:0:
268,108,263813,1,0,0:0:0:0:
320,100,263909,1,2,0:0:0:0:
372,116,264006,1,0,0:0:0:0:
436,180,264103,6,0,P|444:228|428:276,1,90,0|0,1:0|0:0,0:0:0:0:
268,108,264297,2,0,P|260:60|276:12,1,90,2|0,0:0|0:0,0:0:0:0:
356,224,264490,5,0,1:0:0:0:
320,216,264555,1,0,0:0:0:0:
284,208,264619,1,0,0:0:0:0:
248,200,264684,1,2,0:0:0:0:
212,192,264748,1,0,0:0:0:0:
176,184,264813,1,0,0:0:0:0:
116,208,264877,6,0,P|196:160|152:-4,1,270,4|0,1:2|0:0,0:0:0:0:
16,208,265264,2,0,P|64:288|164:300,1,180,0|2,1:0|0:0,0:0:0:0:
444,192,265651,5,0,1:0:0:0:
236,92,265845,1,2,0:0:0:0:
200,80,265910,1,0,0:0:0:0:
164,76,265974,1,0,0:0:0:0:
128,80,266039,2,0,P|76:100|44:148,1,90,0|0,1:0|0:0,0:0:0:0:
152,312,266232,2,0,P|204:292|236:244,1,90,2|0,0:0|0:0,0:0:0:0:
348,96,266426,5,0,1:0:0:0:
160,216,266619,1,2,0:0:0:0:
132,240,266684,1,0,0:0:0:0:
104,260,266748,1,0,0:0:0:0:
76,284,266813,2,0,L|60:380,1,90,0|0,1:0|0:0,0:0:0:0:
336,372,267006,2,0,L|320:276,1,90,2|0,0:0|0:0,0:0:0:0:
12,140,267200,5,0,1:0:0:0:
64,160,267297,1,0,0:0:0:0:
116,152,267393,1,2,0:0:0:0:
156,116,267490,1,0,0:0:0:0:
228,176,267587,5,0,1:0:0:0:
244,208,267651,1,0,0:0:0:0:
252,244,267716,1,0,0:0:0:0:
248,280,267781,1,2,1:2:0:0:
236,312,267845,1,0,1:0:0:0:
444,228,267974,6,0,P|392:132|484:0,1,270,4|0,1:2|0:0,0:0:0:0:
504,304,268361,2,0,P|404:308|348:252,1,180,0|2,1:0|0:0,0:0:0:0:
240,48,268748,6,0,L|228:248,1,180,0|2,1:0|0:0,0:0:0:0:
228,264,269006,1,0,0:0:0:0:
224,300,269071,1,0,0:0:0:0:
220,336,269135,2,0,P|272:348|332:328,1,90,0|0,1:0|0:0,0:0:0:0:
88,204,269329,2,0,P|36:192|-24:212,1,90,2|0,0:0|0:0,0:0:0:0:
440,112,269522,5,0,1:0:0:0:
396,80,269619,1,0,0:0:0:0:
340,80,269716,1,2,0:0:0:0:
292,104,269813,1,0,0:0:0:0:
240,176,269910,6,0,P|220:236|228:284,1,90,0|0,1:0|0:0,0:0:0:0:
392,368,270103,2,0,P|412:308|404:260,1,90,2|0,0:0|0:0,0:0:0:0:
240,176,270297,5,0,1:0:0:0:
192,200,270394,1,0,0:0:0:0:
136,200,270491,1,2,0:0:0:0:
92,168,270588,1,0,0:0:0:0:
36,116,270684,5,0,1:0:0:0:
48,148,270748,1,0,0:0:0:0:
60,184,270813,1,0,0:0:0:0:
60,220,270877,1,2,0:0:0:0:
48,256,270942,1,0,0:0:0:0:
28,284,271006,1,0,0:0:0:0:
0,308,271071,6,0,L|284:356,1,270,4|0,1:2|0:0,0:0:0:0:
396,248,271458,2,0,P|300:260|232:184,1,180,0|2,1:0|0:0,0:0:0:0:
56,88,271845,5,4,1:2:0:0:
384,48,272039,1,2,0:0:0:0:
404,80,272103,1,0,0:0:0:0:
424,112,272168,1,0,0:0:0:0:
444,144,272232,2,0,L|428:264,1,90,0|0,1:0|0:0,0:0:0:0:
224,232,272426,2,0,L|240:112,1,90,2|0,0:0|0:0,0:0:0:0:
24,336,272619,5,4,1:2:0:0:
68,304,272716,1,0,0:0:0:0:
120,292,272813,1,2,0:0:0:0:
176,296,272910,1,0,0:0:0:0:
228,316,273006,1,0,1:0:0:0:
276,344,273103,1,0,0:0:0:0:
328,348,273200,1,2,0:0:0:0:
380,328,273297,1,0,0:0:0:0:
416,288,273393,6,0,P|428:196|384:104,1,180,4|2,1:2|1:2,0:0:0:0:
368,92,273651,1,0,0:0:0:0:
336,72,273716,1,0,0:0:0:0:
304,56,273781,5,0,1:0:0:0:
252,116,273877,1,0,0:0:0:0:
172,128,273974,1,2,1:2:0:0:
108,76,274071,1,0,0:0:0:0:
184,42,274168,6,0,L|148:314,1,270,4|0,1:2|0:0,0:0:0:0:
24,180,274555,2,0,L|46:1,1,180,0|2,1:0|0:0,0:0:0:0:
368,92,274942,6,0,P|420:176|384:272,1,180,0|2,1:0|0:0,0:0:0:0:
380,280,275200,1,0,0:0:0:0:
352,304,275264,1,0,0:0:0:0:
320,324,275329,2,0,P|272:336|216:328,1,90,0|0,1:0|0:0,0:0:0:0:
24,180,275522,2,0,P|72:168|128:176,1,90,2|0,1:2|0:0,0:0:0:0:
448,28,275716,5,0,1:0:0:0:
420,76,275813,1,0,0:0:0:0:
412,128,275910,1,2,0:0:0:0:
428,180,276006,1,0,0:0:0:0:
356,220,276103,5,0,1:0:0:0:
384,268,276200,1,0,0:0:0:0:
392,320,276297,1,2,0:0:0:0:
376,372,276393,1,0,0:0:0:0:
292,356,276490,6,0,L|188:340,1,90,0|0,1:0|0:0,0:0:0:0:
24,180,276684,2,0,L|128:164,1,90,2|0,0:0|0:0,0:0:0:0:
328,32,276877,5,0,1:0:0:0:
320,68,276942,1,0,0:0:0:0:
312,104,277006,1,0,0:0:0:0:
304,140,277071,1,2,0:0:0:0:
296,176,277135,1,0,0:0:0:0:
288,212,277200,1,0,0:0:0:0:
280,248,277264,6,0,P|380:224|492:360,1,270,4|0,1:2|0:0,0:0:0:0:
208,340,277651,2,0,P|176:248|224:148,1,180,0|2,1:0|0:0,0:0:0:0:
460,40,278039,5,0,1:0:0:0:
436,280,278232,1,2,0:0:0:0:
404,300,278297,1,0,0:0:0:0:
368,308,278361,1,0,0:0:0:0:
332,308,278426,2,0,P|276:288|232:248,1,90,0|0,1:0|0:0,0:0:0:0:
160,124,278619,2,0,P|149:80|152:35,1,90,2|0,0:0|0:0,0:0:0:0:
460,40,278814,5,0,1:0:0:0:
252,212,279006,1,2,0:0:0:0:
216,208,279071,1,0,0:0:0:0:
180,204,279135,1,0,0:0:0:0:
144,200,279200,2,0,L|44:188,1,90,0|0,1:0|0:0,0:0:0:0:
272,44,279393,2,0,L|372:32,1,90,2|0,0:0|0:0,0:0:0:0:
456,332,279587,5,0,1:0:0:0:
412,304,279684,1,0,0:0:0:0:
360,300,279781,1,2,0:0:0:0:
312,320,279877,1,0,0:0:0:0:
244,364,279974,5,0,1:0:0:0:
248,328,280039,1,0,0:0:0:0:
252,292,280103,1,0,0:0:0:0:
256,256,280168,1,2,1:2:0:0:
260,220,280232,1,0,1:0:0:0:
60,60,280361,6,0,P|160:96|288:8,1,270,4|0,1:2|0:0,0:0:0:0:
148,180,280748,2,0,P|108:268|144:364,1,180,0|2,1:0|0:0,0:0:0:0:
456,192,281135,5,0,1:0:0:0:
254,71,281329,1,2,0:0:0:0:
218,75,281393,1,0,0:0:0:0:
182,83,281458,1,0,0:0:0:0:
146,91,281522,2,0,P|139:136|148:180,1,90,0|0,1:0|0:0,0:0:0:0:
364,112,281716,2,0,P|371:67|362:23,1,90,2|0,0:0|0:0,0:0:0:0:
28,300,281910,5,0,1:0:0:0:
72,272,282006,1,0,0:0:0:0:
124,260,282103,1,2,0:0:0:0:
180,260,282200,1,0,0:0:0:0:
232,180,282297,5,0,1:0:0:0:
276,208,282393,1,0,0:0:0:0:
328,220,282490,1,2,0:0:0:0:
384,220,282587,1,0,0:0:0:0:
460,164,282684,5,0,1:0:0:0:
464,108,282781,1,0,0:0:0:0:
448,56,282877,1,2,0:0:0:0:
404,24,282974,1,0,0:0:0:0:
316,10,283071,5,0,1:0:0:0:
280,16,283135,1,0,0:0:0:0:
247,33,283200,1,0,0:0:0:0:
222,62,283264,1,2,0:0:0:0:
207,96,283329,1,0,0:0:0:0:
202,132,283393,1,0,0:0:0:0:
136,172,283458,6,0,P|238:171|346:308,1,270,4|0,1:2|0:0,0:0:0:0:
504,148,283845,2,0,L|408:168,1,90,0|0,1:0|0:0,0:0:0:0:
168,40,284039,2,0,L|264:60,1,90,2|0,1:2|0:0,0:0:0:0:
96,240,284232,2,0,L|0:260,1,90,4|0,1:2|0:0,0:0:0:0:
416,328,284426,5,2,1:2:0:0:
412,292,284490,1,0,1:0:0:0:
408,256,284555,1,0,1:0:0:0:
404,220,284619,2,0,L|392:120,1,90,0|0,1:0|0:0,0:0:0:0:
168,40,284813,2,0,L|157:129,1,90,2|0,1:2|0:0,0:0:0:0:
48,336,285006,5,4,1:2:0:0:
92,308,285103,1,0,0:0:0:0:
144,296,285200,1,2,1:2:0:0:
196,312,285297,1,0,1:0:0:0:
268,260,285393,5,0,1:0:0:0:
312,288,285490,1,0,0:0:0:0:
364,300,285587,1,2,1:2:0:0:
416,284,285684,1,0,1:0:0:0:
468,208,285781,6,0,L|448:16,1,180,4|2,1:2|1:2,0:0:0:0:
412,24,286039,1,0,0:0:0:0:
376,28,286103,1,0,0:0:0:0:
344,44,286168,2,0,P|276:56|244:48,1,90,0|0,1:0|0:0,0:0:0:0:
28,32,286361,2,0,P|96:20|128:28,1,90,2|0,1:2|1:0,0:0:0:0:
448,328,286555,6,0,L|156:296,1,270,4|0,1:2|0:0,0:0:0:0:
84,320,286942,5,0,1:0:0:0:
348,220,287135,1,2,0:0:0:0:
148,368,287329,5,0,1:0:0:0:
28,32,287522,1,2,0:0:0:0:
472,132,287716,5,0,1:0:0:0:
184,196,287910,1,2,0:0:0:0:
344,28,288103,5,0,1:0:0:0:
280,332,288297,1,2,0:0:0:0:
28,124,288490,5,0,1:0:0:0:
424,224,288684,1,2,0:0:0:0:
32,212,288877,6,0,P|56:308|220:320,1,270,0|0,1:0|0:0,0:0:0:0:
264,152,289264,2,0,P|324:144|380:156,1,90,0|0,1:0|0:0,0:0:0:0:
488,356,289458,2,0,P|428:364|372:352,1,90,2|0,0:0|0:0,0:0:0:0:
68,48,289651,5,0,1:0:0:0:
112,80,289748,1,0,0:0:0:0:
164,92,289845,1,2,0:0:0:0:
216,84,289942,1,0,0:0:0:0:
264,152,290039,5,0,1:0:0:0:
308,120,290136,1,0,0:0:0:0:
360,108,290233,1,2,0:0:0:0:
412,116,290330,1,0,0:0:0:0:
456,192,290426,5,0,1:0:0:0:
420,232,290522,1,0,0:0:0:0:
408,284,290619,1,2,0:0:0:0:
420,336,290716,1,0,0:0:0:0:
336,344,290813,5,0,1:0:0:0:
284,328,290910,1,0,0:0:0:0:
232,312,291006,1,2,0:0:0:0:
180,296,291103,1,0,0:0:0:0:
100,332,291200,5,0,1:0:0:0:
136,292,291297,1,0,0:0:0:0:
140,240,291393,1,2,0:0:0:0:
128,188,291490,1,0,0:0:0:0:
60,132,291587,5,0,1:0:0:0:
92,152,291651,1,0,0:0:0:0:
128,164,291716,1,0,0:0:0:0:
164,164,291781,1,2,0:0:0:0:
200,152,291845,1,0,0:0:0:0:
228,132,291910,1,0,0:0:0:0:
240,60,291974,6,0,L|196:344,1,270,0|0,1:0|0:0,0:0:0:0:
336,344,292361,2,0,P|376:352|432:340,1,90,0|0,1:0|0:0,0:0:0:0:
505,25,292555,1,2,1:2:0:0:
493,77,292651,1,0,1:0:0:0:
461,121,292748,6,0,P|334:148|240:60,1,270,4|0,1:2|0:0,0:0:0:0:
136,84,293135,5,0,1:0:0:0:
372,32,293329,1,2,0:0:0:0:
52,40,293522,5,0,1:0:0:0:
204,316,293716,1,2,0:0:0:0:
480,200,293910,5,0,1:0:0:0:
120,288,294103,1,2,0:0:0:0:
372,32,294297,5,0,1:0:0:0:
304,348,294490,1,2,0:0:0:0:
20,124,294684,5,0,1:0:0:0:
436,96,294877,1,2,0:0:0:0:
124,32,295071,6,0,P|100:128|232:236,1,270,0|0,1:0|0:0,0:0:0:0:
349,93,295458,2,0,P|392:84|436:96,1,90,0|0,1:0|0:0,0:0:0:0:
432,312,295651,2,0,P|388:320|345:309,1,90,2|0,0:0|0:0,0:0:0:0:
12,284,295845,5,4,1:2:0:0:
60,256,295942,1,0,0:0:0:0:
112,252,296039,1,2,0:0:0:0:
164,268,296135,1,0,0:0:0:0:
232,212,296232,5,0,1:0:0:0:
280,240,296329,1,0,0:0:0:0:
332,244,296426,1,2,0:0:0:0:
384,228,296522,1,0,0:0:0:0:
440,156,296619,5,4,1:2:0:0:
388,140,296716,1,0,0:0:0:0:
336,124,296813,1,2,0:0:0:0:
284,108,296910,1,0,0:0:0:0:
224,60,297006,5,0,1:0:0:0:
236,96,297071,1,0,0:0:0:0:
240,132,297135,1,0,0:0:0:0:
240,168,297200,1,2,0:0:0:0:
232,204,297264,1,0,0:0:0:0:
216,236,297329,1,0,0:0:0:0:
156,276,297393,6,0,L|44:292,1,90,4|0,1:2|0:0,0:0:0:0:
28,92,297587,2,0,L|117:104,1,90,2|0,0:0|0:0,0:0:0:0:
356,276,297781,2,0,L|468:292,1,90,0|0,1:0|0:0,0:0:0:0:
484,92,297975,2,0,L|394:104,1,90,2|0,0:0|0:0,0:0:0:0:
140,184,298168,6,0,L|170:361,1,180,4|2,1:2|1:2,0:0:0:0:
204,348,298426,1,0,0:0:0:0:
236,336,298490,1,0,0:0:0:0:
268,324,298555,2,0,P|316:332|364:316,1,90,0|0,1:0|0:0,0:0:0:0:
296,112,298748,2,0,P|248:104|200:120,1,90,2|0,1:2|0:0,0:0:0:0:
452,360,298942,6,0,L|424:84,1,270,4|0,1:2|0:0,0:0:0:0:
496,16,299329,5,0,1:0:0:0:
344,200,299522,1,2,0:0:0:0:
36,104,299716,5,0,1:0:0:0:
328,280,299910,1,2,0:0:0:0:
128,32,300103,5,0,1:0:0:0:
64,348,300297,1,2,0:0:0:0:
464,152,300490,5,0,1:0:0:0:
120,228,300684,1,2,0:0:0:0:
316,24,300877,5,0,1:0:0:0:
448,340,301071,1,2,0:0:0:0:
32,242,301264,6,0,P|26:112|128:32,1,270,0|0,1:0|0:0,0:0:0:0:
264,204,301651,2,0,P|308:212|356:200,1,90,0|0,1:0|0:0,0:0:0:0:
403,22,301845,2,0,P|359:14|316:24,1,90,2|0,0:0|0:0,0:0:0:0:
120,284,302039,5,0,1:0:0:0:
172,272,302135,1,0,0:0:0:0:
228,276,302232,1,2,0:0:0:0:
276,300,302329,1,0,0:0:0:0:
340,252,302426,5,0,1:0:0:0:
392,264,302522,1,0,0:0:0:0:
448,260,302619,1,2,0:0:0:0:
496,236,302716,1,0,0:0:0:0:
432,180,302813,5,0,1:0:0:0:
420,128,302910,1,0,0:0:0:0:
412,76,303006,1,2,0:0:0:0:
404,24,303103,1,0,0:0:0:0:
328,68,303200,5,0,1:0:0:0:
288,32,303297,1,0,0:0:0:0:
236,28,303393,1,2,0:0:0:0:
188,52,303490,1,0,0:0:0:0:
128,116,303587,5,0,1:0:0:0:
176,140,303684,1,0,0:0:0:0:
224,164,303781,1,2,0:0:0:0:
272,188,303877,1,0,0:0:0:0:
380,132,303974,5,0,1:0:0:0:
356,156,304039,1,0,0:0:0:0:
340,188,304103,1,0,0:0:0:0:
332,224,304168,1,2,0:0:0:0:
332,260,304232,1,0,0:0:0:0:
344,296,304297,1,0,0:0:0:0:
404,332,304361,6,0,L|36:308,2,360,0|0|4,1:0|1:0|1:2,0:0:0:0:
396,56,305329,6,0,P|448:64|487:98,1,90,2|0,1:2|0:0,0:0:0:0:
400,264,305522,2,0,P|348:256|308:221,1,90,0|0,1:0|0:0,0:0:0:0:
116,56,305716,6,0,P|64:64|24:98,1,90,2|0,1:2|0:0,0:0:0:0:
112,264,305909,2,0,P|164:256|203:221,1,90,0|0,1:0|0:0,0:0:0:0:
396,56,306103,6,0,L|404:164,1,90,2|0,1:2|0:0,0:0:0:0:
109,145,306297,2,0,L|116:56,1,90,0|0,1:0|0:0,0:0:0:0:
256,220,306490,6,0,L|256:272,2,45,2|0|0,1:2|1:0|1:0,0:0:0:0:
396,56,306684,6,0,P|456:44|500:56,1,90,4|0,1:2|0:0,0:0:0:0:
483,334,306877,2,0,P|439:339|396:328,1,90,2|0,1:2|0:0,0:0:0:0:
116,56,307071,6,0,P|56:44|12:56,1,90,0|0,1:0|0:0,0:0:0:0:
28,334,307264,2,0,P|72:339|116:328,1,90,2|0,1:2|0:0,0:0:0:0:
352,168,307458,5,0,1:0:0:0:
340,116,307555,1,0,1:0:0:0:
328,64,307651,2,0,L|316:12,2,45,2|0|0,1:2|1:0|1:0,0:0:0:0:
160,216,307845,5,0,1:0:0:0:
172,268,307942,1,0,1:0:0:0:
184,320,308038,2,0,L|196:372,2,45,2|0|0,1:2|1:0|1:0,0:0:0:0:
40,116,308232,5,4,1:2:0:0:
88,144,308329,1,0,0:0:0:0:
144,140,308426,1,2,1:2:0:0:
188,108,308522,1,0,0:0:0:0:
244,168,308619,5,0,1:0:0:0:
292,140,308716,1,0,0:0:0:0:
348,144,308813,1,2,1:2:0:0:
392,176,308909,1,0,0:0:0:0:
476,200,309006,5,0,1:0:0:0:
472,144,309103,1,0,0:0:0:0:
468,88,309200,1,2,1:2:0:0:
464,32,309297,1,0,0:0:0:0:
384,60,309393,5,0,1:0:0:0:
356,36,309458,1,0,0:0:0:0:
324,24,309522,1,0,0:0:0:0:
288,20,309587,1,2,1:2:0:0:
252,24,309651,1,0,0:0:0:0:
220,36,309716,1,0,0:0:0:0:
184,100,309781,6,0,L|168:192,2,90,0|0|2,1:0|0:0|0:0,0:0:0:0:
48,112,310071,2,0,L|63:23,2,90,0|0|0,1:0|0:0|0:0,0:0:0:0:
48,280,310361,2,0,P|136:228|316:356,1,270,2|0,1:2|0:0,0:0:0:0:
460,260,310748,2,0,L|452:160,1,90,2|0,1:2|0:0,0:0:0:0:
67,82,310942,5,0,1:0:0:0:
63,118,311006,1,0,1:0:0:0:
59,154,311071,1,0,1:0:0:0:
55,190,311135,2,0,L|48:280,1,90,2|0,1:2|1:0,0:0:0:0:
452,348,311329,5,4,1:2:0:0:
