osu file format v12

[General]
AudioFilename: squartatrice.mp3
AudioLeadIn: 2000
PreviewTime: 81678
Countdown: 0
SampleSet: Soft
StackLeniency: 0.6
Mode: 0
LetterboxInBreaks: 0
EpilepsyWarning: 1

[Editor]
Bookmarks: 26666,42666,61333,71999,82999,93999,104333,114999
DistanceSpacing: 1.1
BeatDivisor: 4
GridSize: 4

[Metadata]
Title:squartatrice
TitleUnicode:squartatrice
Artist:gmtn vs. kozato
ArtistUnicode:gmtn vs. kozato
Creator:Maddy
Version:Hyper
Source:
Tags:Mr Color RLC Chewin
BeatmapID:234895
BeatmapSetID:81010

[Difficulty]
HPDrainRate:5
CircleSize:4
OverallDifficulty:6
ApproachRate:8
SliderMultiplier:1.6
SliderTickRate:1

[Events]
//Background and Video events
0,0,"324975-1024x768.jpg",1,1
//Break Periods
//Storyboard Layer 0 (Background)
//Storyboard Layer 1 (Fail)
//Storyboard Layer 2 (Pass)
//Storyboard Layer 3 (Foreground)
//Storyboard Sound Samples
//Background Colour Transformations
3,100,163,162,255

[TimingPoints]
12,333.333333333333,3,2,0,5,1,0
2678,333.333333333333,3,2,0,50,1,0
2778,-100,3,2,0,40,0,0
24677,-100,3,2,0,20,0,0
25677,-100,3,2,0,30,0,0
26011,-100,3,2,0,40,0,0
26344,-100,3,1,0,50,0,0
26677,333.333333333333,4,2,0,75,1,0
42676,333.333333333333,6,2,0,75,1,0
58675,333.333333333333,4,2,0,75,1,0
81341,333.333333333333,5,2,0,75,1,0
83007,333.333333333333,4,2,0,75,1,1
83340,-100,4,2,0,75,0,1
93673,-133.333333333333,4,2,0,75,0,0
94006,-100,4,2,0,75,0,1
103006,-100,4,2,0,75,0,0
104340,-100,4,2,0,75,0,1
104673,-100,4,2,0,75,0,1
104840,-100,4,2,0,75,0,1
105173,-100,4,2,0,75,0,1
105340,-100,4,2,0,75,0,1
105673,-100,4,2,0,75,0,1
105840,-100,4,2,0,75,0,1
106173,-100,4,2,0,75,0,1
106340,-100,4,2,0,75,0,1
106840,-100,4,2,0,75,0,1
107006,-100,4,2,0,75,0,1
107340,-100,4,2,0,75,0,1
107506,-100,4,2,0,75,0,1
107840,-100,4,2,0,75,0,1
108006,-100,4,2,0,75,0,1
108340,-100,4,2,0,75,0,1
108506,-100,4,2,0,75,0,1
108840,-100,4,2,0,75,0,1
109006,-100,4,2,0,75,0,1
109340,-100,4,2,0,75,0,1
109673,-100,4,1,0,75,0,1
110006,-100,4,1,0,75,0,1
110173,-100,4,1,0,75,0,1
110506,-100,4,1,0,75,0,1
110673,-100,4,1,0,75,0,1
110840,-100,4,1,0,75,0,1
111840,-100,4,2,0,75,0,1
112340,-100,4,2,0,75,0,1
112673,-100,4,2,0,75,0,1
112840,-100,4,2,0,75,0,1
113173,-100,4,2,0,75,0,1
113340,-100,4,2,0,75,0,1
114340,-100,4,1,0,75,0,1
115006,-100,4,2,0,75,0,0
115090,-100,4,2,0,50,0,0
132340,-100,4,2,0,5,0,0

[Colours]
Combo1 : 81,118,174
Combo2 : 196,215,205
Combo3 : 152,201,220

[HitObjects]
256,192,178,12,0,2345,0:0:0:0:
92,188,2678,6,0,L|80:96,1,80,4|0,0:0|0:0,0:0:0:0:
153,56,3011,2,0,L|164:136,1,80,2|0,0:0|0:0,0:0:0:0:
250,159,3344,2,0,L|240:80,1,80,2|0,0:0|0:0,0:0:0:0:
328,204,3677,5,2,0:0:0:0:
372,128,3844,1,0,0:0:0:0:
320,200,4011,5,2,0:0:0:0:
404,224,4177,1,0,0:0:0:0:
380,132,4344,53,2,0:0:0:0:
408,216,4511,1,0,0:0:0:0:
320,200,4677,6,0,P|312:236|336:300,1,80,2|0,0:0|0:0,0:0:0:0:
432,332,5011,2,0,P|440:296|416:232,1,80,2|0,0:0|0:0,0:0:0:0:
320,278,5344,6,0,L|216:302,1,80,2|0,0:0|0:0,0:0:0:0:
92,324,5677,2,0,L|196:348,1,80,2|0,0:0|0:0,0:0:0:0:
288,244,6011,2,0,L|184:268,1,80,2|0,0:0|0:0,0:0:0:0:
60,290,6344,2,0,L|164:314,1,80,2|0,0:0|0:0,0:0:0:0:
80,208,6677,5,2,0:0:0:0:
48,288,6844,1,0,0:0:0:0:
72,196,7011,5,2,0:0:0:0:
148,236,7177,1,0,0:0:0:0:
228,204,7344,1,2,0:0:0:0:
252,120,7511,1,0,0:0:0:0:
200,52,7677,1,2,0:0:0:0:
116,80,7844,6,0,L|132:176,1,80,0|2,0:0|0:0,0:0:0:0:
200,52,8177,2,0,L|216:148,1,80,0|2,0:0|0:0,0:0:0:0:
232,216,8511,1,0,0:0:0:0:
216,300,8677,6,0,P|264:296|304:252,1,80,2|0,0:0|0:0,0:0:0:0:
244,132,9011,2,0,P|196:136|156:180,1,80,2|0,0:0|0:0,0:0:0:0:
232,216,9344,6,0,P|280:212|320:168,1,80,2|0,0:0|0:0,0:0:0:0:
260,48,9678,2,0,P|212:52|172:96,1,80,2|0,0:0|0:0,0:0:0:0:
324,104,10011,6,0,P|344:64|340:24,1,80,2|0,0:0|0:0,0:0:0:0:
244,132,10344,2,0,P|264:168|320:184,1,80,2|0,0:0|0:0,0:0:0:0:
260,48,10677,5,4,0:0:0:0:
232,132,10844,1,0,0:0:0:0:
176,64,11011,1,2,0:0:0:0:
148,148,11178,1,0,0:0:0:0:
88,84,11344,1,2,0:0:0:0:
60,168,11511,1,0,0:0:0:0:
120,232,11677,6,0,P|168:240|220:200,1,80,2|0,0:0|0:0,0:0:0:0:
60,168,12011,2,0,P|40:192|48:260,1,80,2|0,0:0|0:0,0:0:0:0:
148,148,12344,2,0,P|128:96|72:84,1,80,2|0,0:0|0:0,0:0:0:0:
120,232,12677,6,0,L|128:280,2,40,2|0|0,0:0|0:0|0:0,0:0:0:0:
224,140,13011,2,0,L|230:100,2,40,2|0|0,0:0|0:0|0:0,0:0:0:0:
296,256,13344,2,0,L|320:352,1,80,2|0,0:0|0:0,0:0:0:0:
356,192,13677,5,2,0:0:0:0:
288,248,13844,1,0,0:0:0:0:
260,164,14011,5,2,0:0:0:0:
288,248,14178,1,0,0:0:0:0:
356,192,14344,5,2,0:0:0:0:
288,248,14511,1,0,0:0:0:0:
260,164,14677,6,0,L|248:72,1,80,2|0,0:0|0:0,0:0:0:0:
180,140,15011,2,0,L|169:60,1,80,2|0,0:0|0:0,0:0:0:0:
100,116,15344,2,0,L|88:24,1,80,2|0,0:0|0:0,0:0:0:0:
20,92,15677,1,2,0:0:0:0:
28,180,15844,6,0,P|52:204|124:200,1,80,0|2,0:0|0:0,0:0:0:0:
168,56,16177,2,0,P|144:32|72:36,1,80,0|2,0:0|0:0,0:0:0:0:
100,116,16511,1,0,0:0:0:0:
180,140,16677,6,0,P|224:128|244:92,1,80,2|0,0:0|0:0,0:0:0:0:
304,36,17011,2,0,L|360:128,1,80,2|0,0:0|0:0,0:0:0:0:
432,124,17344,2,0,L|412:220,1,80,2|0,0:0|0:0,0:0:0:0:
328,196,17677,5,2,0:0:0:0:
364,276,17844,1,2,0:0:0:0:
332,188,18011,1,0,0:0:0:0:
360,280,18177,1,0,0:0:0:0:
340,184,18344,1,2,0:0:0:0:
356,284,18511,1,0,0:0:0:0:
344,176,18677,6,0,L|336:272,1,80,2|0,0:0|0:0,0:0:0:0:
436,224,19011,2,0,L|442:144,1,80,2|0,0:0|0:0,0:0:0:0:
350,98,19344,2,0,L|342:194,1,80,2|0,0:0|0:0,0:0:0:0:
448,132,19677,6,0,L|479:44,1,80,2|0,0:0|0:0,0:0:0:0:
348,88,20011,2,0,L|379:0,1,80,2|0,0:0|0:0,0:0:0:0:
248,76,20344,6,0,L|221:151,1,80,2|0,0:0|0:0,0:0:0:0:
148,31,20678,2,0,L|121:106,1,80,2|0,0:0|0:0,0:0:0:0:
88,132,20927,1,0,0:0:0:0:
64,168,21011,1,2,0:0:0:0:
68,212,21094,1,0,0:0:0:0:
104,240,21177,1,0,0:0:0:0:
148,236,21261,1,0,0:0:0:0:
180,204,21344,6,0,L|288:248,1,80,2|0,0:0|0:0,0:0:0:0:
200,304,21677,2,0,L|308:348,1,80,2|0,0:0|0:0,0:0:0:0:
316,172,22011,6,0,L|424:216,1,80,2|0,0:0|0:0,0:0:0:0:
336,272,22344,2,0,L|444:316,1,80,2|0,0:0|0:0,0:0:0:0:
320,160,22677,5,2,0:0:0:0:
252,216,22844,1,0,0:0:0:0:
180,164,23011,5,2,0:0:0:0:
256,208,23177,1,0,0:0:0:0:
332,160,23344,1,2,0:0:0:0:
328,72,23511,1,0,0:0:0:0:
340,160,23677,1,2,0:0:0:0:
328,64,23844,6,0,L|220:84,1,80,0|2,0:0|0:0,0:0:0:0:
340,160,24177,2,0,L|418:145,1,80,0|2,0:0|0:0,0:0:0:0:
368,256,24511,2,0,L|260:276,1,80,0|2,0:0|0:0,0:0:0:0:
276,272,25677,6,0,L|268:320,2,40,2|0|0,0:0|0:0|0:0,0:0:0:0:
164,184,26011,2,0,L|156:144,2,40,2|0|0,0:0|0:0|0:0,0:0:0:0:
296,136,26344,2,0,L|308:92,3,40
308,52,26677,6,0,P|352:96|424:88,1,120,4|0,0:0|0:0,0:0:0:0:
420,88,27010,2,0,L|404:184,1,80,0|0,1:0|0:0,0:0:0:0:
456,336,27343,2,0,L|469:257,1,80,0|0,1:0|0:0,0:0:0:0:
396,100,27677,6,0,L|380:196,1,80,0|0,1:0|0:0,0:0:0:0:
432,348,28010,2,0,L|445:269,1,80,0|0,1:0|0:0,0:0:0:0:
376,112,28343,6,0,L|360:208,1,80,0|0,1:0|0:0,0:0:0:0:
412,360,28676,2,0,L|425:281,1,80,0|0,1:0|0:0,0:0:0:0:
440,192,29010,5,0,1:0:0:0:
444,188,29343,1,0,1:0:0:0:
448,184,29676,1,0,1:0:0:0:
452,180,30343,5,0,1:0:0:0:
417,198,30426,1,0,0:0:0:0:
378,189,30509,1,0,1:0:0:0:
354,159,30592,1,0,0:0:0:0:
348,116,30676,6,0,L|240:132,1,80,0|0,1:0|0:0,0:0:0:0:
296,44,31010,2,0,L|124:68,1,160,0|0,1:0|1:0,0:0:0:0:
112,148,31510,1,0,0:0:0:0:
128,60,31676,1,0,1:0:0:0:
120,148,31843,1,0,0:0:0:0:
44,108,32010,6,0,P|32:148|68:208,1,80,0|0,1:0|0:0,0:0:0:0:
164,276,32343,2,0,P|176:236|140:176,1,80,0|0,1:0|0:0,0:0:0:0:
96,336,32676,6,0,P|136:364|192:356,1,80,0|0,1:0|0:0,0:0:0:0:
232,148,33010,2,0,P|192:120|136:128,1,80,0|0,1:0|0:0,0:0:0:0:
284,216,33343,5,0,1:0:0:0:
288,208,33676,1,0,1:0:0:0:
292,200,34010,1,0,1:0:0:0:
296,192,34343,2,0,L|288:156,6,20,0|0|0|0|0|0|0,1:0|0:0|0:0|0:0|0:0|0:0|0:0,0:0:0:0:
332,216,34676,5,4,0:0:0:0:
416,244,34843,1,0,0:0:0:0:
480,184,35010,1,0,1:0:0:0:
464,96,35176,1,0,0:0:0:0:
380,72,35343,6,0,L|296:96,1,80,0|0,1:0|0:0,0:0:0:0:
244,28,35676,2,0,L|160:52,1,80,0|0,1:0|0:0,0:0:0:0:
216,124,36010,2,0,L|132:148,1,80,0|0,1:0|0:0,0:0:0:0:
80,80,36343,2,0,L|-4:104,1,80,0|0,1:0|0:0,0:0:0:0:
24,188,36676,2,0,P|12:232|32:272,1,80,0|0,1:0|0:0,0:0:0:0:
84,328,37010,2,0,L|160:306,1,80,0|0,1:0|0:0,0:0:0:0:
244,276,37343,5,0,1:0:0:0:
400,352,37676,1,0,1:0:0:0:
400,352,38343,1,0,1:0:0:0:
406,312,38426,1,0,0:0:0:0:
413,273,38509,1,0,1:0:0:0:
420,233,38593,1,0,0:0:0:0:
428,192,38676,6,0,L|444:92,1,80,0|0,1:0|0:0,0:0:0:0:
368,60,39010,2,0,L|344:224,1,160,0|0,1:0|1:0,0:0:0:0:
276,272,39510,1,0,0:0:0:0:
208,324,39676,2,0,P|248:356|304:348,1,80,0|0,1:0|0:0,0:0:0:0:
192,236,40010,5,0,1:0:0:0:
196,324,40176,1,0,0:0:0:0:
200,236,40343,1,0,1:0:0:0:
188,324,40510,1,0,0:0:0:0:
117,196,40676,6,0,P|108:216|116:272,1,80,4|0,0:0|0:0,0:0:0:0:
256,168,41010,2,0,P|265:148|257:92,1,80,4|0,0:0|0:0,0:0:0:0:
200,236,41343,2,0,P|228:256|288:248,1,80,4|0,0:0|0:0,0:0:0:0:
172,124,41676,2,0,P|144:104|84:112,1,80,4|0,0:0|0:0,0:0:0:0:
256,168,42010,5,0,1:0:0:0:
336,208,42176,1,0,1:0:0:0:
416,176,42343,1,0,1:0:0:0:
444,92,42510,1,0,1:0:0:0:
392,20,42676,5,4,0:0:0:0:
336,208,43009,1,0,1:0:0:0:
124,52,43509,1,0,1:0:0:0:
72,220,43842,6,0,L|56:312,1,80,0|0,1:0|1:0,0:0:0:0:
132,348,44176,2,0,L|145:269,1,80,0|0,1:0|1:0,0:0:0:0:
228,244,44509,6,0,L|240:268,4,20,0|0|0|0|4,1:0|0:0|0:0|0:0|0:0,0:0:0:0:
180,172,44842,1,0,1:0:0:0:
108,120,45009,2,0,P|132:92|176:84,1,80,0|0,1:0|1:0,0:0:0:0:
344,40,45509,1,4,0:0:0:0:
460,172,45842,6,0,L|476:272,1,80,0|0,1:0|1:0,0:0:0:0:
404,308,46176,2,0,P|420:328|452:336,2,40,0|0|4,1:0|1:0|0:0,1:0:0:0:
388,224,46509,1,0,1:0:0:0:
320,276,46675,6,0,L|232:304,1,80,4|0,0:0|0:0,0:0:0:0:
160,328,47009,1,0,1:0:0:0:
52,88,47509,1,0,1:0:0:0:
228,68,47842,5,0,1:0:0:0:
284,136,48009,1,0,1:0:0:0:
324,56,48175,1,0,1:0:0:0:
380,124,48342,1,0,1:0:0:0:
420,44,48509,6,0,L|436:0,2,40,0|0|4,1:0|0:0|0:0,0:0:0:0:
380,124,48842,1,0,1:0:0:0:
396,212,49009,1,4,0:0:0:0:
412,300,49175,1,0,1:0:0:0:
380,124,49509,1,0,0:0:0:0:
412,300,49842,6,0,L|336:328,1,80
280,312,50120,2,0,P|248:308|220:320,1,53.3333333333333
176,344,50342,2,0,P|156:350|124:346,2,53.3333333333333
196,288,50675,5,0,0:0:0:0:
108,136,51009,1,0,1:0:0:0:
348,32,51509,1,0,1:0:0:0:
472,160,51842,6,0,P|464:208|480:252,1,80,0|0,0:0|1:0,0:0:0:0:
452,324,52175,2,0,L|368:352,1,80,0|0,0:0|1:0,0:0:0:0:
308,292,52509,1,0,0:0:0:0:
228,328,52675,6,0,P|180:336|132:312,2,80,0|0|0,1:0|0:0|1:0,0:0:0:0:
308,292,53175,1,0,1:0:0:0:
428,160,53509,1,0,1:0:0:0:
308,32,53842,1,0,0:0:0:0:
276,116,54009,6,0,P|232:136|188:128,1,80,4|0,0:0|1:0,0:0:0:0:
148,64,54342,2,0,P|104:56|60:72,1,80,0|0,1:0|0:0,0:0:0:0:
32,144,54675,5,4,0:0:0:0:
32,144,55009,1,0,1:0:0:0:
184,360,55509,1,4,0:0:0:0:
352,308,55842,6,0,P|400:320|448:296,1,80,0|0,0:0|1:0,0:0:0:0:
472,236,56175,2,0,P|424:224|376:248,1,80,0|0,0:0|1:0,0:0:0:0:
308,228,56509,6,0,L|324:176,2,40,0|0|4,0:0|0:0|0:0,0:0:0:0:
216,136,56842,2,0,L|216:76,2,40,0|0|4,0:0|0:0|0:0,0:0:0:0:
100,196,57175,2,0,L|84:140,2,40,0|0|4,0:0|0:0|0:0,0:0:0:0:
176,304,57509,5,0,0:0:0:0:
176,304,57592,1,0,0:0:0:0:
176,304,57675,2,0,L|256:336,2,80,0|0|0,1:0|0:0|1:0,0:0:0:0:
104,356,58175,2,0,L|29:326,2,80,0|0|0,0:0|1:0|0:0,0:0:0:0:
104,268,58675,6,0,P|120:244|140:228,4,40,0|0|0|0|0,1:0|0:0|0:0|0:0|0:0,0:0:0:0:
228,184,59175,2,0,L|224:140,4,40,0|0|0|0|0,1:0|0:0|0:0|0:0|0:0,0:0:0:0:
240,328,59675,2,0,P|256:344|280:352,3,40,0|0|0|0,1:0|0:0|0:0|0:0,0:0:0:0:
312,336,60008,6,0,P|332:328|380:348,4,40,0|0|0|0|0,1:0|0:0|0:0|0:0|0:0,0:0:0:0:
460,352,60508,2,0,P|468:336|469:314,4,40,0|0|0|0|4,1:0|0:0|0:0|0:0|0:0,0:0:0:0:
392,224,61008,2,0,P|384:176|412:120,1,80,0|0,1:0|0:0,0:0:0:0:
440,72,61341,5,4,0:0:0:0:
412,248,61675,1,2,0:0:0:0:
420,72,62008,1,2,0:0:0:0:
436,248,62341,1,2,0:0:0:0:
396,76,62674,1,2,0:0:0:0:
460,240,63008,1,2,0:0:0:0:
380,84,63341,1,2,0:0:0:0:
484,224,63674,1,2,0:0:0:0:
361,102,64008,5,4,0:0:0:0:
496,219,64342,1,2,0:0:0:0:
351,119,64675,1,2,0:0:0:0:
508,199,65008,1,2,0:0:0:0:
341,142,65341,1,2,0:0:0:0:
512,174,65675,1,2,0:0:0:0:
340,159,66008,1,2,0:0:0:0:
512,145,66341,1,2,0:0:0:0:
340,180,66674,5,4,0:0:0:0:
460,308,67008,1,2,0:0:0:0:
512,145,67341,1,2,0:0:0:0:
340,180,67674,1,2,0:0:0:0:
470,302,68008,1,2,0:0:0:0:
505,134,68342,1,2,0:0:0:0:
337,187,68675,1,2,0:0:0:0:
476,296,69008,1,2,0:0:0:0:
489,127,69341,5,4,0:0:0:0:
332,205,69675,1,2,0:0:0:0:
485,290,70008,1,2,0:0:0:0:
472,116,70341,2,0,L|492:36,1,80,2|0,0:0|0:0,0:0:0:0:
444,112,70674,6,0,P|364:132|284:88,1,160,4|2,0:0|0:0,0:0:0:0:
132,40,71341,1,4,0:0:0:0:
56,200,71674,2,0,L|48:236,8,20,0|0|0|0|0|0|0|0|4,1:0|1:0|1:0|1:0|1:0|1:0|1:0|0:0|0:0,0:0:0:0:
128,148,72174,5,0,0:0:0:0:
208,188,72341,2,0,P|176:224|132:232,1,80,2|0,0:0|0:0,0:0:0:0:
200,104,72674,2,0,P|240:108|284:152,1,80,2|0,0:0|0:0,0:0:0:0:
128,148,73008,2,0,P|112:96|132:52,1,80,2|0,0:0|0:0,0:0:0:0:
188,20,73341,6,0,P|264:28|340:76,1,160,2|2,0:0|0:0,0:0:0:0:
472,180,74008,2,0,P|420:232|308:216,1,160,2|2,0:0|0:0,0:0:0:0:
440,92,74674,5,2,0:0:0:0:
388,260,75008,2,0,L|204:276,1,160,2|2,0:0|0:0,0:0:0:0:
84,172,75674,2,0,L|243:158,1,160,2|2,0:0|0:0,0:0:0:0:
408,92,76341,6,0,P|408:68|400:28,2,40,2|0|0,0:0|0:0|0:0,0:0:0:0:
468,156,76674,2,0,P|468:180|476:220,2,40,2|0|0,0:0|0:0|0:0,0:0:0:0:
380,168,77008,2,0,P|364:172|336:184,2,40,2|0|0,0:0|0:0|0:0,0:0:0:0:
360,264,77341,6,0,P|292:256|256:168,1,160,4|0,0:0|0:0,0:0:0:0:
352,272,78008,6,0,P|292:268|248:176,1,160,4|0,0:0|0:0,0:0:0:0:
336,184,78508,1,0,1:0:0:0:
344,280,78674,6,0,L|184:300,1,160,4|0,0:0|0:0,0:0:0:0:
340,288,79341,6,0,L|180:308,1,160,4|0,0:0|0:0,0:0:0:0:
100,276,79841,1,0,1:0:0:0:
68,192,80008,6,0,P|116:188|164:212,1,80,0|0,1:0|1:0,0:0:0:0:
216,104,80341,2,0,B|257:113|257:113|321:97,1,80,0|0,1:0|1:0,0:0:0:0:
366,198,80674,2,0,P|396:188|444:192,1,80,0|0,1:0|0:0,0:0:0:0:
329,342,81008,6,0,P|257:313|173:351,1,160,0|4,1:0|0:0,0:0:0:0:
256,180,81674,6,0,P|252:156|244:132,3,40,0|0|0|0,1:0|0:0|0:0|0:0,0:0:0:0:
216,104,82007,2,0,L|244:68,3,40,0|0|0|0,1:0|0:0|0:0|0:0,0:0:0:0:
284,72,82341,2,0,P|308:76|348:68,3,40,0|0|0|0,1:0|0:0|0:0|0:0,0:0:0:0:
368,72,82674,2,0,P|376:52|392:24,3,40,0|0|0|0,1:0|0:0|0:0|0:0,0:0:0:0:
396,112,83007,6,0,P|388:148|408:200,1,80,4|0,0:0|0:0,0:0:0:0:
436,216,83257,1,0,0:0:0:0:
436,216,83340,2,0,P|436:304|356:344,1,160,8|0,0:0|0:0,0:0:0:0:
312,272,83840,1,0,0:0:0:0:
232,324,84007,2,0,L|136:336,1,80,8|0,0:0|0:0,0:0:0:0:
108,340,84257,1,0,0:0:0:0:
108,340,84340,6,0,P|112:292|100:244,1,80
16,152,84673,2,0,P|12:200|24:248,1,80,8|0,0:0|0:0,0:0:0:0:
88,108,85007,2,0,P|56:76|0:72,2,80,0|0|8,0:0|0:0|0:0,0:0:0:0:
108,192,85507,1,0,0:0:0:0:
128,200,85590,1,0,0:0:0:0:
148,208,85673,6,0,L|248:196,1,80,0|0,0:0|0:0,0:0:0:0:
272,208,85923,1,0,0:0:0:0:
272,208,86007,2,0,P|264:168|284:112,1,80,8|0,0:0|0:0,0:0:0:0:
288,88,86257,1,0,0:0:0:0:
288,88,86340,2,0,L|208:97,1,80,0|0,0:0|0:0,0:0:0:0:
364,36,86673,1,8,0:0:0:0:
404,112,86840,1,0,0:0:0:0:
496,112,87007,6,0,P|480:168|428:204,1,120
388,204,87340,2,0,L|316:168,1,80,8|0,0:0|0:0,0:0:0:0:
288,88,87673,5,0,1:0:0:0:
364,36,87840,1,0,1:0:0:0:
404,112,88007,1,0,1:0:0:0:
496,112,88173,1,0,1:0:0:0:
484,200,88340,6,0,P|472:244|492:292,1,80,4|0,0:0|0:0,0:0:0:0:
496,316,88590,1,0,0:0:0:0:
496,316,88673,2,0,L|400:336,1,80,8|0,0:0|0:0,0:0:0:0:
336,296,89007,2,0,P|348:276|364:260,2,40
252,324,89340,2,0,L|260:368,2,40,8|0|0,0:0|0:0|0:0,0:0:0:0:
164,308,89673,6,0,L|76:320,1,80
36,244,90007,2,0,L|115:233,1,80,8|0,0:0|0:0,0:0:0:0:
144,148,90340,2,0,L|64:158,1,80
16,84,90673,2,0,L|95:73,1,80,8|0,0:0|0:0,0:0:0:0:
136,56,90923,1,0,0:0:0:0:
180,64,91006,6,0,P|252:100|332:68,1,160,4|0,0:0|0:0,1:0:0:0:
404,44,91506,2,0,L|416:220,1,160,4|0,0:0|1:0,0:0:0:0:
468,276,92006,2,0,P|424:296|392:288,1,80,0|0,0:0|1:0,0:0:0:0:
316,248,92340,5,0,1:0:0:0:
280,328,92506,1,0,1:0:0:0:
224,260,92673,1,0,1:0:0:0:
316,248,92840,1,0,1:0:0:0:
280,328,93006,1,0,1:0:0:0:
274,333,93089,1,0,1:0:0:0:
268,338,93172,1,0,1:0:0:0:
261,343,93255,1,0,1:0:0:0:
254,346,93339,1,0,1:0:0:0:
246,349,93422,1,0,1:0:0:0:
239,351,93505,1,0,1:0:0:0:
231,351,93589,1,0,1:0:0:0:
223,351,93672,5,0,1:0:0:0:
223,351,94006,6,0,L|128:328,1,80,12|0,0:0|0:0,0:0:0:0:
100,232,94340,1,0,0:0:0:0:
136,336,94506,1,0,0:0:0:0:
92,232,94673,2,0,L|169:251,1,80,8|0,0:0|0:0,0:0:0:0:
200,244,94923,1,0,0:0:0:0:
212,216,95006,6,0,P|204:160|232:112,1,80,0|0,0:0|0:0,0:0:0:0:
252,60,95340,2,0,L|404:92,1,120,8|0,0:0|0:0,0:0:0:0:
412,92,95673,1,0,0:0:0:0:
472,156,95840,1,0,0:0:0:0:
412,220,96006,2,0,L|308:196,1,80,8|0,0:0|0:0,0:0:0:0:
416,232,96340,6,0,P|408:276|428:328,1,80
472,156,96673,2,0,P|480:112|460:60,1,80,8|0,0:0|0:0,0:0:0:0:
392,40,97006,1,0,0:0:0:0:
312,80,97173,1,0,0:0:0:0:
312,80,97256,1,0,0:0:0:0:
312,80,97340,2,0,P|352:120|400:120,1,80,8|0,0:0|0:0,0:0:0:0:
308,64,97673,6,0,L|204:72,1,80
144,44,98006,2,0,L|40:52,1,80,8|0,0:0|0:0,0:0:0:0:
44,136,98340,2,0,L|148:128,1,80,0|0,1:0|0:0,1:0:0:0:
208,156,98673,2,0,L|312:148,1,80,0|0,1:0|1:0,0:0:0:0:
364,108,99006,6,0,P|372:152|364:192,1,80,4|0,0:0|0:0,0:0:0:0:
356,228,99256,1,0,0:0:0:0:
356,228,99340,2,0,P|352:288|376:332,1,80,8|0,0:0|0:0,0:0:0:0:
444,328,99673,2,0,P|436:356|420:372,2,40
448,240,100006,2,0,P|476:244|500:264,2,40,8|0|0,0:0|0:0|0:0,0:0:0:0:
356,228,100340,6,0,P|316:236|264:248,1,80
240,324,100673,2,0,P|201:332|161:340,1,80,8|0,0:0|0:0,0:0:0:0:
76,324,101006,2,0,P|80:268|68:216,1,80
48,160,101340,1,4,0:0:0:0:
48,160,101506,1,4,0:0:0:0:
88,80,101673,6,0,L|224:104,1,120,4|0,0:0|0:0,0:0:0:0:
248,108,102006,1,0,0:0:0:0:
232,20,102173,2,0,L|368:44,1,120,4|0,0:0|0:0,0:0:0:0:
392,48,102506,1,0,0:0:0:0:
420,132,102673,2,0,P|464:100|476:60,1,80,4|0,0:0|0:0,0:0:0:0:
400,128,103006,2,0,P|420:188|400:244,1,120,4|0,0:0|0:0,0:0:0:0:
376,272,103340,5,2,0:0:0:0:
384,96,103673,1,2,0:0:0:0:
392,272,104006,2,0,L|304:296,1,80,2|0,0:0|0:0,0:0:0:0:
240,340,104340,6,0,L|48:304,1,160,4|0,0:0|0:0,0:0:0:0:
64,224,104840,6,0,L|221:253,1,160,4|0,0:0|0:0,0:0:0:0:
264,176,105340,6,0,L|106:146,1,160,4|0,0:0|0:0,0:0:0:0:
80,60,105840,6,0,L|237:89,1,160,4|0,0:0|0:0,0:0:0:0:
320,56,106340,5,0,1:0:0:0:
400,16,106506,1,0,1:0:0:0:
480,52,106673,1,0,1:0:0:0:
484,140,106840,1,0,1:0:0:0:
416,192,107006,6,0,L|448:356,1,160,4|0,0:0|0:0,0:0:0:0:
360,352,107506,6,0,L|329:194,1,160,4|0,0:0|0:0,0:0:0:0:
240,196,108006,6,0,L|270:353,1,160,4|0,0:0|0:0,0:0:0:0:
184,352,108506,6,0,L|153:194,1,160,4|0,0:0|0:0,0:0:0:0:
76,152,109006,5,0,1:0:0:0:
80,64,109173,1,0,0:0:0:0:
160,104,109340,1,0,1:0:0:0:
220,40,109506,1,0,0:0:0:0:
220,40,109590,1,0,0:0:0:0:
220,40,109673,6,0,L|332:32,1,80,0|0,1:0|0:0,0:0:0:0:
376,120,110006,2,0,L|296:125,1,80,0|0,0:0|0:0,0:0:0:0:
208,56,110340,6,0,L|320:48,1,80
364,136,110673,2,0,L|284:141,1,80,0|0,0:0|0:0,0:0:0:0:
176,160,111006,6,0,L|160:200,9,40
120,212,111840,2,0,P|128:260|104:320,1,80,4|4,0:0|0:0,0:0:0:0:
60,356,112173,1,0,0:0:0:0:
44,268,112340,6,0,P|120:292|148:368,1,160,4|8,0:0|0:0,0:0:0:0:
232,332,112840,1,0,0:0:0:0:
232,332,112923,1,0,0:0:0:0:
232,332,113006,2,0,B|300:368|300:368|408:352,1,160,4|8,0:0|0:0,0:0:0:0:
444,292,113506,1,0,0:0:0:0:
356,272,113673,6,0,B|316:280|316:280|268:252,1,80,0|0,1:0|1:0,0:0:0:0:
216,204,114006,2,0,P|168:200|124:224,1,80,0|0,1:0|1:0,0:0:0:0:
60,256,114340,2,0,L|52:216,3,40
64,172,114673,2,0,L|56:132,3,40
48,88,115006,6,0,P|84:104|144:92,1,80,4|0,0:0|0:0,0:0:0:0:
188,40,115340,1,2,0:0:0:0:
252,100,115506,1,0,0:0:0:0:
252,100,115590,1,0,0:0:0:0:
252,100,115673,2,0,L|356:88,1,80,2|0,0:0|0:0,0:0:0:0:
392,28,116006,1,2,0:0:0:0:
468,76,116173,1,0,0:0:0:0:
416,148,116340,6,0,P|412:184|424:232,1,80,2|0,0:0|0:0,0:0:0:0:
460,304,116673,1,2,0:0:0:0:
396,364,116840,1,0,0:0:0:0:
340,296,117006,2,0,L|244:284,1,80,2|0,0:0|0:0,0:0:0:0:
212,360,117340,2,0,L|132:350,1,80,2|0,0:0|0:0,0:0:0:0:
68,292,117673,6,0,P|72:244|60:196,1,80,2|0,0:0|0:0,0:0:0:0:
48,128,118006,2,0,L|136:92,1,80,2|0,0:0|0:0,0:0:0:0:
196,48,118340,1,2,0:0:0:0:
280,28,118506,1,0,0:0:0:0:
192,40,118673,1,2,0:0:0:0:
280,36,118840,1,0,0:0:0:0:
260,120,119006,6,0,P|252:160|268:208,1,80,2|0,0:0|0:0,0:0:0:0:
392,264,119340,2,0,P|400:224|384:176,1,80,2|0,0:0|0:0,0:0:0:0:
324,316,119673,2,0,P|352:344|424:340,1,80,2|0,0:0|0:0,0:0:0:0:
308,232,120006,2,0,L|208:264,1,80,2|0,0:0|0:0,0:0:0:0:
172,320,120340,5,2,0:0:0:0:
88,340,120506,1,0,0:0:0:0:
36,268,120673,1,2,0:0:0:0:
92,200,120840,1,0,0:0:0:0:
92,200,120923,1,0,0:0:0:0:
92,200,121006,2,0,P|100:144|84:104,1,80,2|0,0:0|0:0,0:0:0:0:
144,48,121340,2,0,L|248:64,1,80,2|0,0:0|0:0,0:0:0:0:
292,168,121673,6,0,L|212:155,1,80,2|0,0:0|0:0,0:0:0:0:
328,84,122006,2,0,L|407:96,1,80,2|0,0:0|0:0,0:0:0:0:
300,172,122340,1,2,0:0:0:0:
320,80,122506,1,0,0:0:0:0:
308,172,122673,1,2,0:0:0:0:
312,80,122840,1,0,0:0:0:0:
316,168,123006,6,0,B|340:212|316:260,1,80,2|0,0:0|0:0,0:0:0:0:
436,332,123340,2,0,B|416:288|444:240,1,80,2|0,0:0|0:0,0:0:0:0:
320,332,123673,2,0,L|240:340,1,80,2|0,0:0|0:0,0:0:0:0:
416,168,124006,2,0,L|496:160,1,80,2|0,0:0|0:0,0:0:0:0:
408,156,124340,6,0,P|420:212|400:244,1,80,2|0,0:0|0:0,0:0:0:0:
324,128,124673,2,0,P|348:84|400:76,1,80,2|0,0:0|0:0,0:0:0:0:
328,212,125006,2,0,P|280:204|256:172,1,80,2|0,0:0|0:0,0:0:0:0:
220,104,125340,1,2,0:0:0:0:
220,104,125506,1,0,0:0:0:0:
164,36,125673,6,0,L|76:48,1,80,2|0,0:0|0:0,0:0:0:0:
136,116,126006,2,0,L|56:126,1,80,0|0,0:0|0:0,0:0:0:0:
112,196,126340,2,0,L|24:208,1,80,2|0,0:0|0:0,0:0:0:0:
84,276,126673,2,0,L|4:286,1,80
140,344,127006,6,0,L|219:333,1,80,2|0,0:0|0:0,0:0:0:0:
168,264,127339,2,0,L|247:253,1,80
192,184,127673,2,0,L|271:173,1,80,2|0,0:0|0:0,0:0:0:0:
220,104,128006,2,0,L|299:93,1,80
372,44,128340,5,4,0:0:0:0:
256,192,128423,12,0,132340,0:0:0:0:
