osu file format v12

[General]
AudioFilename: squartatrice.mp3
AudioLeadIn: 2000
PreviewTime: 81678
Countdown: 0
SampleSet: Soft
StackLeniency: 0.6
Mode: 0
LetterboxInBreaks: 0
EpilepsyWarning: 1

[Editor]
Bookmarks: 26666,42666,61333,71999,82999,93999,104333,114999
DistanceSpacing: 1
BeatDivisor: 4
GridSize: 4

[Metadata]
Title:squartatrice
TitleUnicode:squartatrice
Artist:gmtn vs. kozato
ArtistUnicode:gmtn vs. kozato
Creator:Maddy
Version:Black Another
Source:
Tags:Mr Color RLC Chewin
BeatmapID:234707
BeatmapSetID:81010

[Difficulty]
HPDrainRate:10
CircleSize:4
OverallDifficulty:9
ApproachRate:9
SliderMultiplier:1.9
SliderTickRate:1

[Events]
//Background and Video events
0,0,"324975-1024x768.jpg",1,1
//Break Periods
//Storyboard Layer 0 (Background)
Sprite,Background,Centre,"SB\Black.png",320,240 F,0,-2000,2678,1
Sprite,Background,Centre,"SB\1.png",320,240 S,0,2678,26678,0.624
Sprite,Background,Centre,"SB\Black.png",320,240 F,0,2678,9345,0.6,0.3
Sprite,Background,Centre,"SB\Black.png",320,240 F,0,9345,10678,0.3,1
Sprite,Background,Centre,"SB\Black.png",320,240 F,0,10678,25345,0.3,0
Sprite,Background,Centre,"SB\Black.png",320,240 F,0,25345,26678,0,1
Sprite,Background,Centre,"SB\Black.png",320,240 F,0,41345,42678,0,1
Sprite,Background,Centre,"SB\Black.png",320,240 F,0,60011,61345,0,1
Sprite,Background,Centre,"SB\Black.png",320,240 F,0,70678,72011,0,1
Sprite,Background,Centre,"SB\Black.png",320,240 F,0,80011,81345,0,1
Sprite,Background,Centre,"SB\Black.png",320,240 F,0,81345,83011,1
Sprite,Background,Centre,"SB\3.png",320,240 S,0,83011,104346,0.624
Sprite,Background,Centre,"SB\Black.png",320,240 F,0,92346,94012,0,1
Sprite,Background,Centre,"SB\Black.png",320,240 F,0,103012,104346,0,1
Sprite,Background,Centre,"SB\BA.png",320,240 S,0,104346,115012,0.624
Sprite,Background,Centre,"SB\Black.png",320,240 F,0,113679,115012,0,1
Sprite,Background,Centre,"SB\1.png",320,240 S,0,115012,131096,0.624
Sprite,Background,Centre,"SB\Black.png",320,240 F,0,115012,128346,0.3,0.6
Sprite,Background,Centre,"SB\Black.png",320,240 F,0,128346,140068,1
//Storyboard Layer 1 (Fail)
//Storyboard Layer 2 (Pass)
//Storyboard Layer 3 (Foreground)
Sprite,Foreground,Centre,"SB\Pulse.png",320,240 F,1,2678,3345,1,0 S,1,2678,3345,0.624,0.7
Sprite,Foreground,Centre,"SB\Pulse.png",320,240 F,1,10678,11345,1,0 S,1,10678,11345,0.624,0.7
Sprite,Foreground,Centre,"SB\Pulse.png",320,240 F,1,26678,27345,1,0 S,1,26678,27345,0.624,0.7
Sprite,Foreground,Centre,"SB\Pulse.png",320,240 F,1,42678,43345,1,0 S,1,42678,43345,0.624,0.7
Sprite,Foreground,Centre,"SB\Pulse.png",320,240 F,1,61345,62011,1,0 S,1,61345,62011,0.624,0.7
Sprite,Foreground,Centre,"SB\Pulse.png",320,240 F,1,72011,72678,1,0 S,1,72011,72678,0.624,0.7
Sprite,Foreground,Centre,"SB\Pulse.png",320,240 F,1,83011,83678,1,0 S,1,83011,83678,0.624,0.7
Sprite,Foreground,Centre,"SB\Pulse.png",320,240 F,1,94012,94679,1,0 S,1,94012,94679,0.624,0.7
Sprite,Foreground,Centre,"SB\Pulse.png",320,240 F,1,104346,105012,1,0 S,1,104346,105012,0.624,0.7
Sprite,Foreground,Centre,"SB\Pulse.png",320,240 S,1,115012,105679,0.624,0.7 F,1,115012,115679,1,0
Sprite,Foreground,Centre,"SB\Pulse.png",320,240 F,1,128346,129012,1,0 S,1,128346,129012,0.624,0.7
//Storyboard Sound Samples
//Background Colour Transformations
3,100,0,0,0

[TimingPoints]
12,333.333333333333,3,2,0,5,1,0
2678,333.333333333333,3,2,0,75,1,0
26677,333.333333333333,4,2,0,75,1,0
42676,333.333333333333,6,2,0,75,1,0
58675,333.333333333333,4,2,0,75,1,0
81341,333.333333333333,5,2,0,75,1,0
83007,333.333333333333,4,2,0,75,1,1
83340,-100,4,2,0,75,0,1
93673,-133.333333333333,4,2,0,75,0,0
94006,-100,4,2,0,75,0,1
103006,-100,4,2,0,75,0,0
104340,-133.333333333333,4,2,0,75,0,1
104673,-100,4,2,0,75,0,1
104840,-133.333333333333,4,2,0,75,0,1
105173,-100,4,2,0,75,0,1
105340,-133.333333333333,4,2,0,75,0,1
105673,-100,4,2,0,75,0,1
105840,-133.333333333333,4,2,0,75,0,1
106173,-100,4,2,0,75,0,1
106340,-133.333333333333,4,2,0,75,0,1
106840,-100,4,2,0,75,0,1
107006,-133.333333333333,4,2,0,75,0,1
107340,-100,4,2,0,75,0,1
107506,-133.333333333333,4,2,0,75,0,1
107840,-100,4,2,0,75,0,1
108006,-133.333333333333,4,2,0,75,0,1
108340,-100,4,2,0,75,0,1
108506,-133.333333333333,4,2,0,75,0,1
108840,-100,4,2,0,75,0,1
109006,-133.333333333333,4,2,0,75,0,1
109340,-100,4,2,0,75,0,1
109506,-83.3333333333333,4,2,0,75,0,1
109673,-83.3333333333333,4,2,0,75,0,1
110006,-83.3333333333333,4,2,0,75,0,1
110173,-83.3333333333333,4,2,0,75,0,1
110506,-83.3333333333333,4,2,0,75,0,1
110673,-83.3333333333333,4,2,0,75,0,1
110840,-83.3333333333333,4,2,0,75,0,1
111006,-66.6666666666667,4,2,0,75,0,1
111840,-66.6666666666667,4,2,0,75,0,1
112340,-66.6666666666667,4,2,0,75,0,1
112673,-66.6666666666667,4,2,0,75,0,1
112840,-66.6666666666667,4,2,0,75,0,1
113173,-66.6666666666667,4,2,0,75,0,1
113340,-66.6666666666667,4,2,0,75,0,1
115006,-100,4,2,0,75,0,0
125673,-133.333333333333,4,2,0,75,0,0
127006,-166.666666666667,4,2,0,75,0,0
132340,-166.666666666667,4,2,0,5,0,0

[Colours]
Combo1 : 126,126,126
Combo2 : 196,215,205
Combo3 : 152,201,220
Combo4 : 81,118,174
Combo5 : 82,220,41
Combo6 : 83,223,139

[HitObjects]
256,192,178,12,0,2345,0:0:0:0:
113,136,2678,5,0,0:0:0:0:
226,53,2844,1,0,0:0:0:0:
357,116,3011,1,0,0:0:0:0:
226,53,3177,1,0,0:0:0:0:
357,116,3344,1,0,0:0:0:0:
226,53,3511,1,0,0:0:0:0:
390,54,3677,6,0,L|291:66,1,95
120,169,4011,2,0,L|214:157,1,95
216,65,4344,2,0,L|122:54,1,95
297,157,4677,6,0,L|392:169,1,95
452,245,5011,1,0,0:0:0:0:
452,245,5177,1,0,0:0:0:0:
361,307,5344,1,0,0:0:0:0:
461,349,5511,1,0,0:0:0:0:
285,344,5677,53,0,0:0:0:0:
461,349,5844,1,0,0:0:0:0:
290,259,6011,1,0,0:0:0:0:
461,349,6177,1,0,0:0:0:0:
212,296,6344,2,0,P|154:287|97:291,1,95
19,343,6677,5,0,0:0:0:0:
37,144,6844,1,0,0:0:0:0:
117,194,7011,1,0,0:0:0:0:
208,167,7177,1,0,0:0:0:0:
236,76,7344,1,0,0:0:0:0:
290,259,7511,1,0,0:0:0:0:
354,108,7677,5,0,0:0:0:0:
402,243,7844,1,0,0:0:0:0:
473,66,8011,1,0,0:0:0:0:
428,139,8177,1,0,0:0:0:0:
510,137,8344,1,0,0:0:0:0:
428,139,8511,1,0,0:0:0:0:
475,207,8677,54,0,L|489:306,1,95
322,374,9011,2,0,L|308:275,1,95
336,163,9344,2,0,P|286:179|230:170,1,95
1,199,9677,6,0,P|51:183|107:192,1,95
237,306,10011,2,0,P|198:270|177:217,1,95
215,47,10344,2,0,P|203:98|168:142,1,95
29,84,10677,5,0,0:0:0:0:
466,58,11011,1,0,0:0:0:0:
373,81,11178,1,0,0:0:0:0:
333,167,11344,2,0,P|326:218|335:275,1,95
397,343,11678,53,0,0:0:0:0:
248,256,11844,1,0,0:0:0:0:
107,356,12011,2,0,L|220:336,1,95
331,261,12344,1,0,0:0:0:0:
277,380,12511,1,0,0:0:0:0:
210,254,12678,6,0,P|192:205|146:165,1,95
130,153,12928,1,0,0:0:0:0:
99,131,13011,1,0,0:0:0:0:
135,120,13094,1,0,0:0:0:0:
162,94,13178,1,0,0:0:0:0:
182,62,13261,1,0,0:0:0:0:
189,24,13344,1,0,0:0:0:0:
86,38,13511,1,0,0:0:0:0:
11,144,13678,6,0,L|25:247,1,95
182,191,14011,2,0,L|168:294,1,95
322,131,14344,2,0,L|336:234,1,95
426,342,14678,1,0,0:0:0:0:
404,180,14844,1,0,0:0:0:0:
497,44,15011,54,0,L|486:155,1,95
403,264,15344,1,0,0:0:0:0:
512,212,15511,1,0,0:0:0:0:
392,123,15678,6,0,P|398:69|374:9,1,95
125,30,16011,2,0,P|114:69|120:123,1,95
170,247,16344,2,0,P|255:286|348:229,1,190
255,105,16844,5,0,0:0:0:0:
214,178,17011,1,0,0:0:0:0:
294,180,17178,1,0,0:0:0:0:
256,23,17344,1,0,0:0:0:0:
255,257,17511,1,0,0:0:0:0:
174,102,17678,54,0,L|67:120,1,95
336,102,18011,2,0,L|443:120,1,95
256,216,18344,2,0,L|256:328,1,95
352,352,18678,6,0,B|373:300|373:300|515:312,1,190
490,217,19178,1,0,0:0:0:0:
395,207,19344,2,0,P|359:168|353:102,1,95
160,352,19677,6,0,B|139:300|139:300|-3:312,1,190
22,217,20177,1,0,0:0:0:0:
117,207,20344,2,0,P|153:168|159:102,1,95
183,12,20677,54,0,P|217:68|279:91,1,95
276,97,20927,1,0,0:0:0:0:
314,101,21011,1,0,0:0:0:0:
351,94,21094,1,0,0:0:0:0:
385,78,21177,1,0,0:0:0:0:
410,49,21261,1,0,0:0:0:0:
419,12,21344,1,0,0:0:0:0:
399,169,21511,1,0,0:0:0:0:
510,204,21677,6,0,P|457:231|435:272,1,95
303,295,22011,2,0,P|353:315|392:371,1,95
241,239,22344,2,0,L|135:265,1,95
19,180,22677,6,0,B|64:192|64:192|216:154,1,190
348,70,23177,1,0,0:0:0:0:
277,16,23344,2,0,P|262:71|278:121,1,95
388,207,23677,1,0,0:0:0:0:
124,207,23844,1,0,0:0:0:0:
91,356,24011,54,0,L|205:333,1,95
421,356,24344,2,0,L|307:333,1,95
256,268,24677,5,0,0:0:0:0:
275,174,24844,1,0,0:0:0:0:
247,82,25011,1,0,0:0:0:0:
329,35,25177,5,0,0:0:0:0:
347,242,25344,1,0,0:0:0:0:
158,161,25511,1,0,0:0:0:0:
348,119,25677,54,0,L|402:126,1,47.5
488,199,25844,2,0,L|434:192,1,47.5
464,69,26011,6,0,L|481:131,1,47.5
388,281,26177,2,0,L|376:236,1,47.5
480,289,26344,6,0,L|497:351,1,47.5
281,204,26511,2,0,L|268:158,1,47.5
296,49,26677,54,0,P|244:73|182:66,1,95
178,67,26926,1,0,0:0:0:0:
150,59,27010,2,0,P|174:117|171:166,1,95
83,253,27343,2,0,L|39:298,2,47.5
184,306,27676,6,0,L|304:277,1,95
512,228,28010,2,0,L|392:199,1,95
391,198,28260,1,0,0:0:0:0:
363,191,28343,1,0,0:0:0:0:
448,110,28510,1,0,0:0:0:0:
369,276,28676,6,0,P|364:330|371:378,1,95
369,370,28926,1,0,0:0:0:0:
369,370,29010,1,0,0:0:0:0:
449,314,29176,1,0,0:0:0:0:
281,216,29343,1,0,0:0:0:0:
448,110,29510,1,0,0:0:0:0:
304,135,29676,54,0,P|309:81|302:33,1,95
303,40,29926,1,0,0:0:0:0:
303,40,30010,1,0,0:0:0:0:
224,97,30176,1,0,0:0:0:0:
365,200,30343,1,0,0:0:0:0:
337,208,30426,1,0,0:0:0:0:
309,216,30510,1,0,0:0:0:0:
281,224,30593,1,0,0:0:0:0:
253,232,30676,6,0,L|238:334,1,95
34,187,31010,2,0,L|126:209,1,95
153,218,31260,1,0,0:0:0:0:
179,227,31343,1,0,0:0:0:0:
108,292,31510,1,0,0:0:0:0:
61,100,31676,5,0,0:0:0:0:
228,163,31843,1,0,0:0:0:0:
61,100,32010,1,0,0:0:0:0:
195,95,32176,1,0,0:0:0:0:
133,151,32343,1,0,0:0:0:0:
127,46,32510,1,0,0:0:0:0:
248,30,32676,54,0,P|297:54|350:48,1,95
364,46,32926,1,0,0:0:0:0:
390,35,33010,2,0,L|378:138,1,95
409,237,33343,2,0,P|448:235|497:259,1,95
323,215,33676,6,0,L|116:254,2,190
370,209,34426,1,0,0:0:0:0:
408,237,34510,1,0,0:0:0:0:
429,279,34593,1,0,0:0:0:0:
419,325,34676,5,0,0:0:0:0:
505,240,34843,1,0,0:0:0:0:
444,144,35010,2,0,L|454:41,1,95
425,56,35260,1,0,0:0:0:0:
397,62,35343,1,0,0:0:0:0:
315,131,35510,1,0,0:0:0:0:
258,43,35676,53,0,0:0:0:0:
212,145,35843,1,0,0:0:0:0:
184,151,35927,1,0,0:0:0:0:
155,147,36010,2,0,P|103:124|74:83,1,95
224,242,36343,2,0,P|230:298|209:344,1,95
0,322,36677,6,0,L|116:290,1,95
118,287,36927,1,0,0:0:0:0:
145,277,37010,1,0,0:0:0:0:
306,340,37177,1,0,0:0:0:0:
275,166,37343,1,0,0:0:0:0:
420,230,37510,1,0,0:0:0:0:
392,235,37593,1,0,0:0:0:0:
364,241,37677,5,0,0:0:0:0:
326,91,37843,1,0,0:0:0:0:
354,96,37927,1,0,0:0:0:0:
382,102,38010,1,0,0:0:0:0:
457,33,38177,1,0,0:0:0:0:
261,42,38343,1,0,0:0:0:0:
225,73,38427,1,0,0:0:0:0:
181,93,38510,1,0,0:0:0:0:
133,97,38593,1,0,0:0:0:0:
86,87,38677,54,0,L|79:191,1,95
286,291,39010,2,0,L|279:187,1,95
74,332,39343,1,0,0:0:0:0:
194,279,39510,1,0,0:0:0:0:
348,366,39677,5,0,0:0:0:0:
386,250,39843,1,0,0:0:0:0:
458,56,40010,5,0,0:0:0:0:
492,168,40177,1,0,0:0:0:0:
467,343,40343,53,0,0:0:0:0:
374,149,40510,1,0,0:0:0:0:
240,279,40676,6,0,L|298:256,1,47.5
340,37,40843,2,0,L|282:60,1,47.5
203,112,41010,2,0,L|310:136,1,95
386,183,41343,2,0,L|330:206,1,47.5
216,203,41510,2,0,L|158:229,1,47.5
67,276,41677,6,0,L|163:307,1,95
216,363,41927,1,0,0:0:0:0:
216,363,42010,2,0,L|294:345,1,47.5
431,338,42177,2,0,L|353:356,1,47.5
224,281,42343,2,0,L|302:263,1,47.5
439,256,42510,2,0,L|361:274,1,47.5
122,281,42676,54,0,P|142:227|232:184,1,142.5
282,169,43009,2,0,P|233:150|208:104,1,95
210,115,43509,6,0,L|219:305,1,190
129,367,44009,1,0,0:0:0:0:
311,298,44176,1,0,0:0:0:0:
121,189,44342,1,0,0:0:0:0:
304,97,44509,2,0,L|297:67,1,23.75
324,94,44592,2,0,L|317:55,1,23.75
348,91,44676,5,0,0:0:0:0:
487,215,44842,1,0,0:0:0:0:
276,199,45009,1,0,0:0:0:0:
427,338,45176,54,0,B|395:317|395:317|288:301|288:301|244:270,2,190
188,337,46009,2,0,L|133:281,1,47.5
215,206,46176,1,0,0:0:0:0:
230,188,46259,1,0,0:0:0:0:
245,169,46342,1,0,0:0:0:0:
268,359,46509,1,0,0:0:0:0:
86,53,46676,6,0,P|102:110|53:193,1,142.5
25,205,47009,2,0,L|128:192,1,95
119,194,47509,6,0,P|84:266|124:367,1,190
313,313,48009,1,0,0:0:0:0:
199,186,48176,1,0,0:0:0:0:
233,379,48342,1,0,0:0:0:0:
411,301,48509,2,0,L|407:336,1,23.75
436,298,48592,2,0,L|444:329,1,23.75
458,285,48676,53,0,0:0:0:0:
496,193,48842,1,0,0:0:0:0:
455,93,49009,1,0,0:0:0:0:
493,1,49176,1,0,0:0:0:0:
458,285,49509,5,0,0:0:0:0:
493,1,49842,1,0,0:0:0:0:
325,80,50009,2,0,L|389:65,1,63.3333333333333
248,196,50231,2,0,L|203:148,1,63.3333333333333
382,207,50453,2,0,L|362:269,1,63.3333333333333
269,312,50676,6,0,L|165:332,1,95
47,138,51009,2,0,L|65:194,1,47.5
147,185,51176,2,0,L|165:236,1,47.5
253,218,51342,1,0,0:0:0:0:
164,102,51509,54,0,P|221:103|341:26,1,190
447,111,52009,2,0,P|436:174|441:213,1,95
376,349,52342,2,0,L|384:290,1,47.5
279,220,52509,2,0,L|269:287,1,47.5
359,183,52676,5,0,0:0:0:0:
192,268,52842,1,0,0:0:0:0:
376,349,53009,1,0,0:0:0:0:
280,132,53176,2,0,P|218:135|171:115,1,95
105,34,53509,6,0,P|141:85|144:221,1,190
43,306,54009,2,0,L|99:288,1,47.5
201,348,54176,2,0,L|267:327,1,47.5
253,192,54342,2,0,L|248:247,1,47.5
448,157,54509,2,0,L|453:102,1,47.5
396,47,54676,54,0,P|343:78|248:73,1,142.5
119,60,55009,2,0,P|167:82|199:123,1,95
142,174,55259,2,0,P|152:209|158:233,1,47.5
222,384,55509,6,0,B|189:293|260:287|241:198,1,190
299,343,56009,1,0,0:0:0:0:
477,292,56176,1,0,0:0:0:0:
343,150,56342,2,0,L|340:207,1,47.5
416,240,56509,2,0,L|417:179,1,47.5
417,112,56676,6,0,L|469:93,1,47.5
343,273,56842,2,0,L|291:292,1,47.5
172,124,57009,2,0,L|278:92,1,95
260,176,57259,1,0,0:0:0:0:
260,176,57342,2,0,L|154:208,1,95
97,167,57592,1,0,0:0:0:0:
97,167,57676,54,0,L|79:234,1,47.5
184,286,57842,2,0,L|179:338,1,47.5
328,286,58009,2,0,L|332:333,1,47.5
415,167,58176,2,0,L|427:212,1,47.5
437,361,58342,1,0,0:0:0:0:
75,361,58509,1,0,0:0:0:0:
260,176,58675,6,0,L|193:163,1,47.5
132,88,58841,1,0,0:0:0:0:
155,82,58925,1,0,0:0:0:0:
178,76,59008,1,0,0:0:0:0:
388,264,59175,6,0,L|321:251,1,47.5
260,176,59341,1,0,0:0:0:0:
283,170,59425,1,0,0:0:0:0:
306,164,59508,1,0,0:0:0:0:
48,85,59675,53,0,0:0:0:0:
94,72,59758,1,0,0:0:0:0:
139,59,59841,1,0,0:0:0:0:
184,46,59925,1,0,0:0:0:0:
230,33,60008,6,0,L|251:79,1,47.5
177,199,60175,1,0,0:0:0:0:
179,175,60258,1,0,0:0:0:0:
181,151,60341,1,0,0:0:0:0:
355,46,60508,6,0,L|376:92,1,47.5
302,212,60675,1,0,0:0:0:0:
304,188,60758,1,0,0:0:0:0:
306,164,60841,2,0,L|334:229,1,47.5
247,264,61008,54,0,L|229:340,1,47.5
403,300,61175,2,0,L|423:347,1,47.5
305,374,61341,5,0,0:0:0:0:
305,374,61508,1,0,0:0:0:0:
390,208,61675,2,0,B|419:198|419:198|454:196|454:196|486:189,1,95
319,84,62008,2,0,B|290:74|290:74|255:72|255:72|223:65,1,95
49,199,62341,2,0,B|78:189|78:189|113:187|113:187|145:180,1,95
257,257,62675,5,0,0:0:0:0:
368,299,62841,1,0,0:0:0:0:
257,257,63008,1,0,0:0:0:0:
414,61,63175,1,0,0:0:0:0:
369,212,63341,1,0,0:0:0:0:
414,61,63508,1,0,0:0:0:0:
499,197,63675,1,0,0:0:0:0:
414,61,63841,1,0,0:0:0:0:
256,118,64008,54,0,B|219:122|219:122|162:167,1,95
36,304,64341,2,0,B|73:300|73:300|130:255,1,95
248,35,64675,1,0,0:0:0:0:
152,39,64841,1,0,0:0:0:0:
82,103,65008,1,0,0:0:0:0:
15,169,65175,1,0,0:0:0:0:
108,194,65341,6,0,L|207:185,1,95
286,234,65675,1,0,0:0:0:0:
279,76,65841,1,0,0:0:0:0:
286,234,66008,5,0,0:0:0:0:
484,309,66175,1,0,0:0:0:0:
325,151,66341,1,0,0:0:0:0:
398,306,66508,1,0,0:0:0:0:
241,158,66675,53,0,0:0:0:0:
371,225,66841,1,0,0:0:0:0:
248,310,67008,1,0,0:0:0:0:
325,151,67175,1,0,0:0:0:0:
197,77,67341,5,0,0:0:0:0:
149,155,67508,1,0,0:0:0:0:
108,381,67675,5,0,0:0:0:0:
156,303,67841,1,0,0:0:0:0:
198,381,68008,53,0,0:0:0:0:
65,303,68175,1,0,0:0:0:0:
198,381,68341,1,0,0:0:0:0:
112,228,68508,1,0,0:0:0:0:
245,305,68675,5,0,0:0:0:0:
204,224,68841,1,0,0:0:0:0:
337,317,69008,1,0,0:0:0:0:
259,146,69174,1,0,0:0:0:0:
355,149,69341,5,0,0:0:0:0:
393,241,69508,1,0,0:0:0:0:
301,231,69674,1,0,0:0:0:0:
301,231,70008,53,0,0:0:0:0:
328,54,70174,1,0,0:0:0:0:
459,159,70341,1,0,0:0:0:0:
259,146,70508,2,0,L|199:143,1,47.5
116,137,70674,6,0,L|211:143,1,95
343,148,71008,1,0,0:0:0:0:
343,148,71174,1,0,0:0:0:0:
45,211,71341,2,0,L|139:216,1,95
373,230,71674,2,0,L|376:198,1,23.75
399,240,71758,2,0,L|421:207,1,23.75
422,256,71841,2,0,L|458:234,1,23.75
439,278,71924,2,0,L|479:276,1,23.75
452,303,72008,5,0,0:0:0:0:
405,312,72091,1,0,0:0:0:0:
358,321,72174,1,0,0:0:0:0:
311,330,72258,1,0,0:0:0:0:
264,339,72341,2,0,L|141:360,1,95
71,123,72674,53,0,0:0:0:0:
70,170,72758,1,0,0:0:0:0:
101,204,72841,1,0,0:0:0:0:
145,221,72924,1,0,0:0:0:0:
192,221,73008,2,0,L|219:179,1,47.5
177,99,73174,2,0,L|150:141,1,47.5
257,114,73341,5,0,0:0:0:0:
258,67,73424,1,0,0:0:0:0:
227,33,73508,1,0,0:0:0:0:
183,16,73591,1,0,0:0:0:0:
136,16,73674,2,0,L|79:107,1,95
344,95,74008,5,0,0:0:0:0:
379,125,74091,1,0,0:0:0:0:
425,133,74174,1,0,0:0:0:0:
469,116,74258,1,0,0:0:0:0:
497,78,74341,2,0,L|451:41,1,47.5
306,166,74508,2,0,L|235:175,1,47.5
215,330,74674,53,0,0:0:0:0:
167,338,74758,1,0,0:0:0:0:
119,335,74841,1,0,0:0:0:0:
75,316,74924,1,0,0:0:0:0:
49,275,75008,2,0,L|35:167,1,95
257,254,75341,5,0,0:0:0:0:
296,279,75424,1,0,0:0:0:0:
343,286,75508,1,0,0:0:0:0:
388,273,75591,1,0,0:0:0:0:
427,246,75674,2,0,L|461:305,1,47.5
335,186,75841,2,0,L|301:127,1,47.5
504,124,76008,6,0,L|414:155,1,95
370,81,76258,1,0,0:0:0:0:
370,81,76341,2,0,L|432:58,2,47.5
110,91,76674,54,0,L|30:82,1,47.5
213,70,76841,2,0,L|259:47,1,47.5
110,197,77008,2,0,L|43:219,1,47.5
234,189,77174,2,0,L|268:235,1,47.5
408,361,77341,5,0,0:0:0:0:
418,314,77424,1,0,0:0:0:0:
428,267,77508,1,0,0:0:0:0:
438,220,77591,1,0,0:0:0:0:
449,174,77674,2,0,L|468:72,1,95
326,341,78008,5,0,0:0:0:0:
327,292,78091,1,0,0:0:0:0:
329,244,78174,1,0,0:0:0:0:
331,196,78258,1,0,0:0:0:0:
333,149,78341,2,0,L|276:160,1,47.5
181,196,78508,1,0,0:0:0:0:
104,361,78674,53,0,0:0:0:0:
94,314,78758,1,0,0:0:0:0:
84,267,78841,1,0,0:0:0:0:
74,220,78924,1,0,0:0:0:0:
63,174,79008,2,0,L|40:72,1,95
186,341,79341,5,0,0:0:0:0:
185,292,79424,1,0,0:0:0:0:
183,244,79508,1,0,0:0:0:0:
181,196,79591,1,0,0:0:0:0:
179,149,79674,2,0,L|236:160,1,47.5
331,196,79841,1,0,0:0:0:0:
441,111,80008,6,0,B|422:143|422:143|438:219,1,95
483,270,80258,2,0,P|426:285|384:350,1,95
376,384,80508,1,0,0:0:0:0:
331,196,80674,53,0,0:0:0:0:
291,301,80841,1,0,0:0:0:0:
335,115,81008,5,0,0:0:0:0:
295,220,81174,1,0,0:0:0:0:
341,32,81341,6,0,B|292:43|292:43|246:37|246:37|193:52,1,142.5
82,84,81674,54,0,L|146:99,1,47.5
179,168,81840,2,0,L|239:183,1,47.5
403,195,82007,6,0,L|339:210,1,47.5
306,279,82174,2,0,L|246:294,1,47.5
123,326,82340,6,0,L|113:360,1,23.75
106,309,82424,2,0,L|96:341,1,23.75
91,295,82507,1,0,0:0:0:0:
179,168,82674,1,0,0:0:0:0:
170,256,82840,1,0,0:0:0:0:
111,106,83007,6,0,P|180:112|230:85,1,95
228,88,83256,1,0,0:0:0:0:
244,64,83340,1,0,0:0:0:0:
306,168,83506,1,0,0:0:0:0:
311,196,83590,2,0,L|321:262,1,47.5
427,132,83757,1,0,0:0:0:0:
432,104,83841,2,0,L|442:38,1,47.5
420,219,84006,5,0,0:0:0:0:
420,219,84090,1,0,0:0:0:0:
420,219,84173,2,0,L|412:281,1,47.5
398,353,84340,1,0,0:0:0:0:
306,167,84506,21,0,0:0:0:0:
302,195,84590,1,0,0:0:0:0:
298,223,84673,2,0,L|292:288,1,47.5
277,380,84840,1,0,0:0:0:0:
193,93,85006,37,0,0:0:0:0:
186,130,85090,1,0,0:0:0:0:
178,167,85173,1,0,0:0:0:0:
169,203,85256,1,0,0:0:0:0:
160,239,85340,2,0,L|146:299,1,47.5
61,353,85506,2,0,L|46:293,1,47.5
4,204,85673,6,0,P|56:205|101:178,1,95
53,80,85923,2,0,L|38:137,1,47.5
264,54,86173,1,0,0:0:0:0:
291,46,86256,2,0,L|355:34,1,47.5
484,158,86423,1,0,0:0:0:0:
457,150,86506,2,0,L|376:131,1,47.5
241,199,86673,21,0,0:0:0:0:
285,184,86756,1,0,0:0:0:0:
331,193,86840,1,0,0:0:0:0:
370,220,86923,1,0,0:0:0:0:
393,261,87006,2,0,L|413:377,1,95
318,316,87256,1,0,0:0:0:0:
318,316,87340,2,0,L|282:359,2,47.5
197,292,87673,38,0,L|125:308,1,47.5
43,160,87840,2,0,L|107:190,1,47.5
47,311,88006,2,0,L|73:246,1,47.5
177,153,88173,2,0,L|179:227,1,47.5
106,87,88340,6,0,P|172:71|212:34,1,95
273,67,88590,2,0,L|276:132,1,47.5
418,263,88840,1,0,0:0:0:0:
426,226,88923,2,0,L|439:171,1,47.5
226,225,89090,1,0,0:0:0:0:
231,262,89173,2,0,L|239:339,1,47.5
448,355,89340,1,0,0:0:0:0:
411,346,89423,1,0,0:0:0:0:
372,344,89506,1,0,0:0:0:0:
334,349,89590,1,0,0:0:0:0:
300,366,89673,21,0,0:0:0:0:
60,296,89840,1,0,0:0:0:0:
96,305,89923,2,0,L|155:322,1,47.5
205,154,90090,1,0,0:0:0:0:
169,165,90173,2,0,L|105:189,1,47.5
39,101,90340,1,0,0:0:0:0:
60,58,90423,1,0,0:0:0:0:
100,32,90506,1,0,0:0:0:0:
147,33,90590,1,0,0:0:0:0:
188,55,90673,2,0,L|244:56,1,47.5
324,22,90840,2,0,L|390:24,1,47.5
507,201,91006,38,0,P|446:174|354:196,1,142.5
291,263,91340,1,0,0:0:0:0:
56,225,91506,2,0,P|117:198|217:226,1,142.5
291,263,91840,1,0,0:0:0:0:
444,355,92006,2,0,L|447:288,1,47.5
376,257,92173,2,0,L|372:315,1,47.5
451,224,92340,5,0,0:0:0:0:
202,14,92506,1,0,0:0:0:0:
287,332,92673,1,0,0:0:0:0:
397,31,92840,1,0,0:0:0:0:
135,200,93006,6,0,L|189:210,1,47.5
257,95,93173,2,0,L|219:146,1,47.5
293,258,93340,2,0,L|269:199,1,47.5
153,101,93506,1,0,0:0:0:0:
153,101,93590,1,0,0:0:0:0:
153,101,93673,6,0,P|99:108|39:86,1,106.875004076958
22,165,94006,38,0,L|42:267,1,95
111,287,94256,2,0,L|110:342,1,47.5
195,378,94423,2,0,L|185:308,1,47.5
268,44,94673,5,0,0:0:0:0:
306,72,94756,1,0,0:0:0:0:
352,80,94840,1,0,0:0:0:0:
397,68,94923,1,0,0:0:0:0:
433,36,95006,1,0,0:0:0:0:
470,179,95173,1,0,0:0:0:0:
426,159,95256,1,0,0:0:0:0:
378,160,95340,1,0,0:0:0:0:
338,185,95423,1,0,0:0:0:0:
312,225,95506,1,0,0:0:0:0:
353,362,95673,21,0,0:0:0:0:
397,382,95756,1,0,0:0:0:0:
445,381,95840,1,0,0:0:0:0:
485,356,95923,1,0,0:0:0:0:
511,316,96006,2,0,L|448:303,1,47.5
312,225,96173,2,0,L|377:241,1,47.5
268,334,96340,37,0,0:0:0:0:
52,243,96506,2,0,L|123:270,1,47.5
137,278,96673,1,0,0:0:0:0:
235,124,96840,1,0,0:0:0:0:
239,76,96923,2,0,L|242:10,1,47.5
129,54,97090,1,0,0:0:0:0:
133,102,97173,2,0,L|140:169,1,47.5
337,100,97340,6,0,L|343:52,1,47.5
451,100,97506,2,0,L|461:146,1,47.5
416,26,97673,1,0,0:0:0:0:
295,209,97840,2,0,L|273:166,1,47.5
458,215,98006,2,0,L|453:265,1,47.5
378,197,98173,1,0,0:0:0:0:
246,321,98340,22,0,L|251:274,1,47.5
428,331,98506,2,0,L|431:378,1,47.5
171,276,98673,2,0,L|176:229,1,47.5
339,286,98840,2,0,L|342:333,1,47.5
83,186,99006,37,0,0:0:0:0:
220,40,99173,2,0,L|180:76,1,47.5
148,102,99340,1,0,0:0:0:0:
274,222,99506,1,0,0:0:0:0:
436,36,99673,2,0,L|396:72,1,47.5
365,106,99840,1,0,0:0:0:0:
485,207,100006,1,0,0:0:0:0:
418,231,100090,1,0,0:0:0:0:
372,285,100173,2,0,L|369:344,1,47.5
471,362,100340,6,0,L|463:301,1,47.5
268,261,100506,2,0,L|260:326,1,47.5
368,161,100673,2,0,L|377:109,1,47.5
171,85,100840,2,0,L|172:144,1,47.5
269,166,101006,2,0,L|276:95,1,47.5
102,236,101173,2,0,L|95:285,1,47.5
52,114,101340,1,0,0:0:0:0:
149,359,101506,1,0,0:0:0:0:
219,362,101590,1,0,0:0:0:0:
284,334,101673,22,0,P|325:303|391:292,1,95
488,246,101923,2,0,P|428:236|396:201,1,95
397,126,102173,1,0,0:0:0:0:
467,361,102340,1,0,0:0:0:0:
482,120,102506,2,0,L|467:62,1,47.5
327,39,102673,2,0,L|311:102,1,47.5
180,146,102840,2,0,L|166:90,1,47.5
44,30,103006,38,0,L|20:130,1,95
66,178,103256,2,0,L|82:252,1,47.5
244,36,103506,1,0,0:0:0:0:
205,233,103673,2,0,P|267:205|320:207,1,95
324,132,103923,2,0,P|350:130|412:102,1,95
403,29,104173,1,0,0:0:0:0:
487,351,104340,22,0,L|357:318,1,106.875004076958
164,305,104673,6,0,L|169:367,1,47.5
413,252,104840,70,0,L|283:219,1,106.875004076958
36,202,105173,6,0,L|41:264,1,47.5
232,126,105340,70,0,L|336:153,1,106.875004076958
153,113,105673,6,0,L|158:175,1,47.5
341,68,105840,70,0,L|211:35,1,106.875004076958
25,29,106173,6,0,L|30:91,1,47.5
145,192,106340,70,0,P|98:231|48:242,1,106.875004076958
299,376,106673,2,0,P|290:361|251:325,1,71.2500027179719
453,286,107006,2,0,L|346:272,1,106.875004076958
144,278,107340,6,0,L|175:330,1,47.5
54,175,107506,70,0,L|166:161,1,106.875004076958
386,159,107840,6,0,L|358:222,1,47.5
502,59,108006,70,0,L|390:45,1,106.875004076958
128,37,108340,6,0,L|157:90,1,47.5
208,195,108506,70,0,P|256:212|312:190,1,106.875004076958
109,204,108840,6,0,L|112:273,1,47.5
384,347,109006,70,0,L|382:260,1,71.2500027179719
256,19,109340,2,0,L|256:128,1,95
459,296,109673,2,0,B|465:251|465:251|463:225|463:225|469:183,1,113.999996520996
256,368,110006,1,0,0:0:0:0:
52,296,110173,2,0,B|47:251|47:251|48:225|48:225|43:183,1,113.999996520996
256,368,110506,1,0,0:0:0:0:
308,48,110673,2,0,B|284:40|284:40|256:48|256:48|224:40|224:40|188:48,1,113.999996520996
155,323,111006,6,0,L|178:382,1,35.625001358986
175,319,111090,70,0,L|178:270,1,35.625001358986
195,315,111173,6,0,L|211:366,1,35.625001358986
216,311,111256,70,0,L|218:266,1,35.625001358986
236,307,111340,6,0,L|256:354,1,35.625001358986
256,303,111423,70,0,L|260:264,1,35.625001358986
277,299,111506,6,0,L|306:350,1,35.625001358986
297,295,111590,70,0,L|303:253,1,35.625001358986
317,291,111673,6,0,L|346:340,1,35.625001358986
338,287,111756,70,0,L|354:245,1,35.625001358986
358,284,111840,5,0,0:0:0:0:
482,106,112006,1,0,0:0:0:0:
487,334,112173,1,0,0:0:0:0:
352,146,112340,69,0,0:0:0:0:
149,241,112506,1,0,0:0:0:0:
363,241,112673,1,0,0:0:0:0:
160,146,112839,1,0,0:0:0:0:
420,72,113006,1,0,0:0:0:0:
43,316,113173,1,0,0:0:0:0:
469,316,113340,1,0,0:0:0:0:
92,72,113507,1,0,0:0:0:0:
256,352,113673,5,0,0:0:0:0:
373,156,113840,1,0,0:0:0:0:
140,160,114006,1,0,0:0:0:0:
373,156,114173,1,0,0:0:0:0:
281,80,114340,70,0,L|243:20,1,71.2500027179719
68,37,114506,2,0,L|106:97,1,71.2500027179719
258,227,114673,2,0,L|220:167,1,71.2500027179719
45,184,114840,2,0,L|83:244,1,71.2500027179719
187,82,115006,5,0,0:0:0:0:
159,250,115173,1,0,0:0:0:0:
325,320,115340,1,0,0:0:0:0:
429,181,115506,6,0,L|504:174,2,47.5
159,250,115840,1,0,0:0:0:0:
337,48,116006,1,0,0:0:0:0:
325,320,116173,1,0,0:0:0:0:
208,156,116340,5,0,0:0:0:0:
227,335,116506,1,0,0:0:0:0:
371,235,116673,1,0,0:0:0:0:
271,239,116840,1,0,0:0:0:0:
371,235,117006,53,0,0:0:0:0:
271,239,117173,1,0,0:0:0:0:
418,154,117340,1,0,0:0:0:0:
325,320,117506,1,0,0:0:0:0:
319,152,117673,6,0,P|312:101|329:48,1,95
196,76,118006,2,0,P|203:127|186:180,1,95
92,320,118340,5,0,0:0:0:0:
86,145,118506,1,0,0:0:0:0:
195,280,118673,1,0,0:0:0:0:
25,233,118840,1,0,0:0:0:0:
192,168,119006,53,0,0:0:0:0:
25,233,119173,1,0,0:0:0:0:
195,280,119340,1,0,0:0:0:0:
86,145,119506,1,0,0:0:0:0:
92,320,119673,5,0,0:0:0:0:
272,373,119840,1,0,0:0:0:0:
378,220,120006,1,0,0:0:0:0:
258,80,120173,1,0,0:0:0:0:
224,226,120340,5,0,0:0:0:0:
224,226,120506,1,0,0:0:0:0:
329,66,120673,2,0,P|387:72|435:62,1,95
451,61,120923,1,0,0:0:0:0:
479,55,121006,2,0,P|467:117|473:155,1,95
397,312,121340,2,0,P|409:250|403:212,1,95
218,261,121673,53,0,0:0:0:0:
312,259,121840,1,0,0:0:0:0:
142,188,122006,2,0,L|24:212,1,95
262,116,122340,2,0,L|327:22,1,95
126,28,122673,2,0,L|186:125,1,95
159,262,123006,6,0,P|146:316|159:367,1,95
358,354,123340,2,0,P|366:316|353:262,1,95
256,136,123673,1,0,0:0:0:0:
196,192,123840,1,0,0:0:0:0:
256,248,124006,1,0,0:0:0:0:
316,192,124173,1,0,0:0:0:0:
256,48,124340,5,0,0:0:0:0:
256,336,124506,1,0,0:0:0:0:
106,148,124673,2,0,P|140:116|196:104,1,95
406,148,125006,2,0,P|372:116|316:104,1,95
158,255,125340,1,0,0:0:0:0:
256,336,125506,1,0,0:0:0:0:
354,255,125673,53,0,0:0:0:0:
256,176,125840,1,0,0:0:0:0:
148,120,126006,2,0,L|71:76,1,71.2500027179719
364,120,126340,2,0,L|440:76,1,71.2500027179719
256,288,126673,2,0,L|256:376,1,71.2500027179719
166,286,127006,6,0,P|160:251|173:208,1,56.9999982604981
348,230,127340,2,0,P|352:251|346:286,1,56.9999982604981
409,179,127673,2,0,L|457:223,1,56.9999982604981
443,107,128006,2,0,P|485:99|513:82,1,56.9999982604981
445,16,128340,5,0,0:0:0:0:
256,192,128423,12,0,132340,0:0:0:0:
