osu file format v5

[General]
AudioFilename: girugamesh - patchwork.mp3
AudioLeadIn: 2000
PreviewTime: -1
Countdown: 1
SampleSet: Soft
StackLeniency: 0.7
Mode: 0
LetterboxInBreaks: 1
EditorBookmarks: 122769,193257

[Metadata]
Title:patchwork
Artist:girugamesh
Creator:Nharox
Version:Hard
Source:
Tags:

[Difficulty]
HPDrainRate:6
CircleSize:5
OverallDifficulty:6
SliderMultiplier:1.4
SliderTickRate:2

[Events]
//Background and Video events
0,0,"scared.png"
//Break Periods
2,29068,37719
2,96227,99629
2,101029,103230
2,134189,134739
//Storyboard Layer 0 (Background)
//Storyboard Layer 1 (Failing)
//Storyboard Layer 2 (Passing)
//Storyboard Layer 3 (Foreground)
//Storyboard Sound Samples
//Background Colour Transformations
3,100,163,162,255

[TimingPoints]
1269,300,4,2,0,50,1
16869,300,4,1,0,100,1
155470,300,4,2,0,50,1
162071,300,4,1,0,100,1

[Colours]
Combo1 : 255,128,0
Combo2 : 128,0,0
SliderBorder : 0,0,0 SpinnerApproachCircle :
0,0,0

[HitObjects]
224,96,69,2,0,B|320:96,15,70,0|0|0|0|0|0|0|0|0|0|0|0|0|0|0|0
352,160,2469,2,0,B|352:256,15,70
288,288,4869,6,0,B|192:288,15,70
160,224,7269,2,0,B|160:128,15,70
256,192,9669,5,4
256,192,10269,1,8
256,64,10869,5,4
256,64,11469,1,8
256,192,12069,5,4
256,192,12669,1,8
128,192,13269,5,4
128,192,13869,1,8
256,192,14469,5,4
256,192,15069,1,8
384,192,15669,5,4
384,192,16269,1,8
192,128,16869,6,4,B|192:288,1,140
331,266,17469,2,4,B|331:106,1,140
256,192,18069,1,4
256,192,18219,1,4
256,192,18519,1,4
256,192,18819,1,4
64,96,19269,5,0
128,96,19419,2,0,B|224:96,3,70
256,96,20019,1,0
256,160,20169,2,0,B|160:160,4,70
256,224,20919,1,0
192,224,21069,2,0,B|192:320,3,70
256,288,21669,5,0
320,288,21819,2,0,B|320:192,3,70
384,224,22419,1,0
448,224,22569,2,0,B|448:128,4,70
384,224,23319,1,0
384,160,23469,2,0,B|384:64,3,70
320,96,24069,5,0
320,160,24219,2,0,B|224:160,3,70
192,160,24819,1,0
192,96,24969,2,0,B|288:96,4,70
192,160,25719,1,0
192,224,25869,2,0,B|288:224,3,70
320,224,26469,5,0
320,288,26619,2,0,B|416:288,6,70
256,320,27669,1,0
256,256,27819,1,0
256,192,27969,1,0
256,128,28119,1,0
256,64,28269,1,0
192,96,28419,2,4,B|192:320,1,210
64,288,38769,5,0
64,160,39069,1,0
96,32,39369,2,0,B|192:32|192:32|224:96,1,140
224,224,39969,1,0
384,96,40569,6,0,B|416:32|416:32|480:96,1,140,0|0
416,224,41169,1,0
288,224,41469,1,0
288,96,41769,1,0
416,96,42069,2,4,B|416:256,3,140
96,192,43569,6,0,B|160:192|160:192|192:160|192:160|256:160|224:160,1,140
352,160,44169,2,0,B|352:256|352:256|288:256,2,140
64,96,45369,6,0,B|128:96|128:96|128:64|128:64|64:64,1,140
224,96,45969,1,0
352,96,46269,1,0
256,192,46569,2,0,B|320:256|320:256|288:192,1,140
448,224,47169,1,0
448,352,47469,1,0
320,352,47769,1,0
128,160,48369,6,0,B|64:160|64:160|128:224,1,140
352,192,49269,2,0,B|512:192,2,140
224,192,50169,1,0
96,192,50469,1,0
224,128,50769,2,0,B|320:32|320:32|384:96|384:96|291:182|291:182|342:236|342:236|352:224,1,420
416,352,51969,1,0
288,320,52269,5,0
160,288,52569,1,0
288,256,52869,1,0
160,224,53169,1,0
288,192,53469,1,0
160,160,53769,1,0
32,64,54369,2,0,B|32:160|128:160,1,140
256,160,54969,1,0
256,288,55269,2,4,B|352:288|448:96,1,280
256,192,56469,5,4
256,192,56619,1,4
256,192,56919,1,4
256,192,57219,1,4
192,224,57369,5,0
320,224,57669,2,0,B|352:288|352:288|448:288|448:288|512:192,1,280
416,96,58569,2,0,B|384:160|384:160|288:128,1,140
192,64,59169,1,0
192,192,59469,1,0
96,96,59769,2,0,B|96:256,1,140
224,288,60369,5,0
224,288,60669,1,0
320,192,60969,2,0,B|320:288|320:288|384:288|384:288|384:352|384:352|320:352,1,280
192,352,61869,1,0
192,224,62169,1,0
246,95,62469,2,0,B|278:127|278:127|246:159|246:159|278:191|278:191|246:223|246:223|278:255|278:255|246:287|246:287|246:319,1,280
128,352,63369,2,0,B|32:352|32:352|32:288,1,140
32,160,63969,1,0
96,32,64269,1,0
160,160,64569,1,0
256,288,65169,5,0
296,153,65469,2,0,B|296:89|232:89|200:121|228:185,2,140
256,288,66369,1,0
256,160,66669,2,0,B|224:192|224:160|224:128|256:128|288:128|288:160|288:192,1,140,0|0
160,192,67269,2,0,B|89:273|89:273|171:353|171:353|263:255,1,350
188,252,68169,2,0,B|293:144|293:144|301:137,1,140
381,48,68769,1,0
251,100,69069,2,0,B|338:86|367:176|373:196,1,140
160,192,69969,6,4,B|160:96|160:96|224:96,1,140
320,192,70569,2,4,B|320:288|320:288|256:288,1,140
256,160,71169,1,0
160,288,71469,1,0
384,128,72069,5,0
384,192,72219,1,0
384,256,72369,1,0
384,320,72519,2,0,B|288:320|288:320|256:256,1,140
320,256,72969,1,0
320,192,73119,1,0
256,224,73269,2,0,B|224:160|224:160|288:128,1,140
416,160,73869,2,4,B|416:320,1,140
288,160,74469,2,4,B|288:320,1,140,4|4
352,160,75069,1,4
352,32,75369,1,4
256,192,75669,5,4
256,192,75819,1,4
256,192,76119,1,4
256,192,76419,1,4
64,64,77169,5,0
64,128,77319,1,0
128,96,77469,1,0
192,96,77619,2,0,B|256:224,1,140
320,224,78069,1,0
448,224,78369,1,0
320,288,78669,1,0
192,256,78969,1,0
192,192,79119,2,0,B|288:96|288:96|256:224|256:224|352:128|352:128|320:256|320:256|416:160|416:160|384:320|384:320|448:224,1,945
384,320,81369,6,0,B|224:320,1,140
96,320,81969,1,0
64,256,82119,1,0
128,256,82269,2,0,B|128:160,1,70
128,128,82569,2,0,B|288:128,1,140
416,128,83169,1,0
416,256,83469,1,0
288,256,83769,1,0
288,192,83919,2,0,B|288:32|288:32|352:192|352:192|352:32|352:32|414:197|414:197|416:64,1,770
288,192,85869,1,4
288,256,86019,1,4
256,32,86769,6,0,B|256:128,1,70
256,160,87069,1,0
192,160,87219,1,0
224,224,87369,1,0
288,224,87519,1,0
352,224,87669,2,0,B|352:320,1,70
288,320,87969,1,0
224,288,88119,1,0
288,256,88269,1,0
224,288,88419,1,0
64,128,88869,6,0,B|96:64|96:64|160:96,1,140
128,160,89319,1,0
128,224,89469,2,0,B|64:192|64:192|32:256,1,140
160,320,90069,1,0
288,320,90369,1,0
288,192,90669,2,0,B|224:128|224:128|192:192|192:192|192:192,1,140
352,192,91269,1,4
224,96,91569,6,0,B|224:0|288:32|320:64,1,140
320,128,92019,1,0
128,224,92469,1,0
192,224,92619,2,0,B|256:288|256:288|192:320,1,140
141,311,93069,1,0
64,192,93369,1,0
64,192,93519,2,0,B|64:64|64:64|160:64|160:64|256:64|256:64|256:224|256:224|160:224|160:224|160:128|160:128|352:128|352:128|352:256,1,980
256,192,96069,5,4
256,192,100869,5,0
256,96,104469,5,0
160,256,105069,1,0
352,256,105669,1,4
224,256,105969,5,0
224,128,106269,2,0,B|224:32|224:32|288:32,1,140
416,32,106869,1,0
416,160,107169,1,0
288,96,107469,1,0
160,96,107769,2,0,B|128:128|128:128|160:160|160:160|96:160,1,140
128,288,108369,1,0
130,148,108669,2,0,B|162:116|162:116|162:212,1,140
352,96,109569,6,0,B|416:64|416:64|448:160,1,140
352,192,110169,1,0
456,211,110469,2,0,B|488:275|488:275|392:307,1,140
352,192,111069,1,0
350,323,111369,2,0,B|286:355|286:355|254:259,1,140
352,192,111969,1,0
234,195,112269,2,0,B|202:131|202:131|298:99,1,140,0|0
288,256,112869,2,0,B|320:224|320:224|384:288|384:288|440:238|440:238|495:292|495:293,1,280
256,192,114069,5,4
256,192,114669,1,4
128,192,114969,5,0
256,192,115269,2,0,B|288:160|320:160|352:192|384:224|416:224|448:192|480:160|512:160|512:160|512:192,1,280
352,256,116169,2,0,B|320:320|320:320|224:288,1,140
128,320,116769,1,0
32,224,117069,1,0
158,163,117369,2,0,B|126:227|126:227|191:176|190:163,1,140
288,288,117969,5,0
416,256,118269,1,0
288,224,118569,1,0
384,320,118869,1,0
384,192,119169,1,0
256,256,119469,1,0
352,160,119769,1,0
230,90,120069,2,0,B|262:122|262:122|230:154|230:154|262:186|262:186|230:218|230:218|262:250|262:250|230:282|230:282|230:314,1,280
102,348,120969,2,0,B|6:348|6:348|6:284,1,140
128,224,121569,1,0
32,128,121869,1,0
160,96,122169,2,0,B|192:64|192:64|64:64,1,140
224,96,122769,5,0
352,96,123069,1,0
224,96,123369,2,0,B|160:96|160:160|192:192|224:160,2,140
352,96,124269,1,0
352,224,124569,1,0
224,224,124869,2,0,B|192:256|224:288|256:288|288:224|352:256|320:288|288:352|224:352|192:320|160:320,1,280
160,192,125769,2,0,B|192:160|160:96|96:96|64:128,1,140
96,256,126369,1,0
32,128,126669,1,0
160,128,126969,2,0,B|224:96|288:128|288:160,1,140
352,256,127569,6,0,B|448:256|448:256|448:320,1,140
320,320,128169,2,0,B|224:320|224:320|224:256,1,140
330,292,128769,1,0
329,292,129069,1,0
96,192,129669,5,0
160,192,129819,1,0
224,192,129969,1,0
224,192,130119,1,0
288,192,130269,1,0
352,192,130419,2,0,B|448:192,1,70
256,192,130719,12,4,132969
256,192,133269,5,4
256,192,133419,1,4
256,192,133719,1,4
256,192,134019,1,4
96,96,135969,5,0
160,128,136119,1,0
224,160,136269,1,0
288,192,136419,2,0,B|320:160|320:160|384:256,1,140
320,288,136869,1,0
192,288,137169,1,0
64,288,137469,1,0
64,160,137769,1,0
115,111,137919,2,0,B|179:47|179:47|243:111|243:111|307:47|307:47|371:111|371:111|435:47|435:47|499:111|499:111|435:175|435:175|371:239|371:239|307:175|307:175|223:258|243:239,1,910
128,160,140169,6,0,B|160:96|160:96|192:192,1,140
160,288,140769,1,0
224,288,140919,1,0
192,224,141069,1,0
256,224,141219,1,0
320,224,141369,2,0,B|352:224|384:224|384:256|384:288|352:288|288:288,1,140
448,256,141969,1,0
352,128,142269,1,0
224,128,142569,1,0
224,64,142719,2,0,B|352:96|352:96|224:128|224:128|352:160|352:160|224:192|224:192|352:224|352:224|224:256,1,770
96,256,144669,5,4
96,256,144819,1,4
224,96,145569,6,0,B|320:96,1,70
352,128,145869,2,0,B|352:224,1,70
320,256,146169,2,0,B|224:256,1,70
192,224,146469,2,0,B|192:128,1,70
224,192,146769,1,0
288,192,146919,1,0
288,192,147069,1,0
288,192,147219,1,0
256,96,147669,6,0,B|288:32|288:32|192:32,1,140
192,96,148119,1,0
128,96,148269,2,0,B|64:64|64:64|64:160,1,140
64,256,148869,1,0
192,256,149169,1,0
320,256,149469,2,0,B|256:128,1,140
320,256,150069,1,4
384,128,150369,6,0,B|384:64|416:96|448:128|416:160|384:192,1,140
384,128,150819,1,0
160,160,151269,1,0
224,160,151419,2,0,B|303:159|303:159|256:224,1,140
192,224,151869,1,0
256,352,152169,1,0
282,287,152319,2,0,B|82:156|244:-4|466:156|207:297,2,490
256,192,155470,5,4
256,192,156070,1,8
256,320,156670,5,4
256,320,157270,1,8
256,192,157870,5,4
256,192,158470,1,8
128,192,159070,5,4
128,192,159670,1,8
256,192,160270,5,4
256,192,160870,1,8
384,192,161470,5,4
257,138,162071,6,0,B|257:266,4,105
128,192,163271,6,4,B|96:256|96:256|128:320,1,140
128,192,163871,2,4,B|160:128|160:128|128:64,1,140
64,64,164471,6,0,B|64:224|64:224|128:96|128:96|256:96,1,420
256,160,165671,2,0,B|160:160|160:160|128:256|128:256|256:256|256:256|256:352,1,420
320,352,166871,2,0,B|320:256|320:256|448:256|448:256|320:160|320:160|384:160,1,420
480,192,168071,2,0,B|412:140|412:140|409:69|416:64,1,140
480,96,168671,2,0,B|480:32|480:32|384:32,1,140
335,35,169271,2,0,B|335:195|335:195|239:195|239:195|239:99|239:99|335:99,1,420
403,97,170471,2,0,B|403:289|403:289|211:257|211:257|179:225,1,420
185,160,171671,2,0,B|185:32|185:32|281:32|281:32|249:96|249:96|313:224,1,420
256,64,172871,5,4
256,64,173021,1,4
256,64,173321,1,4
256,64,173621,1,4
416,64,174371,5,0
352,96,174521,1,0
416,128,174671,1,0
352,160,174821,2,0,B|376:127|376:127|256:128,1,140
288,192,175271,1,0
288,320,175571,1,0
160,256,175871,1,0
256,192,176171,12,4,178121
224,96,178571,6,0,B|256:32|256:32|288:128,1,140
256,224,179171,1,0
224,288,179321,1,0
288,288,179471,1,0
256,224,179621,1,0
224,160,179771,2,0,B|256:96|256:96|288:160,1,140
256,288,180371,1,0
128,288,180671,1,0
192,160,180971,1,0
256,192,181121,12,4,182771
256,128,183971,5,0
256,192,184121,1,0
192,160,184271,1,0
192,163,184421,1,0
192,224,184571,1,0
192,227,184721,1,0
256,256,184871,1,0
256,259,185021,1,0
320,224,185171,1,0
320,227,185321,1,0
320,160,185471,1,0
320,163,185621,1,0
128,192,186071,6,0,B|160:128|160:128|64:128,1,140
32,128,186521,1,0
64,192,186671,2,0,B|0:160|0:160|0:256,1,140
96,320,187271,1,0
224,320,187571,1,0
160,192,187871,2,0,B|256:64,1,140
299,208,188471,1,4
416,128,188771,6,0,B|416:64|448:96|480:128|335:75|416:192,1,140
192,224,189671,1,0
256,224,189821,2,0,B|335:223|335:223|288:288,1,140
224,288,190271,1,0
128,192,190571,1,0
192,192,190721,2,0,B|192:320|192:320|320:320|320:320|320:192|320:192|199:194|192:192,2,490
256,32,193271,5,4
