osu file format v14

[General]
AudioFilename: Dawn of Asia.mp3
AudioLeadIn: 0
PreviewTime: 72363
Countdown: 0
SampleSet: Normal
StackLeniency: 0.7
Mode: 0
LetterboxInBreaks: 0
WidescreenStoryboard: 0

[Editor]
DistanceSpacing: 1
BeatDivisor: 8
GridSize: 4
TimelineZoom: 2.299999

[Metadata]
Title:Dawn of Asia
TitleUnicode:Dawn of Asia
Artist:ginkiha+kamome sano
ArtistUnicode:ginkiha+kamome sano
Creator:Rare
Version:INFINITE
Source:SOUND VOLTEX II -infinite infection-
Tags:SDVX alacat
BeatmapID:596081
BeatmapSetID:122041

[Difficulty]
HPDrainRate:7
CircleSize:4
OverallDifficulty:9
ApproachRate:9.4
SliderMultiplier:1.8
SliderTickRate:1

[Events]
//Background and Video events
0,0,"405720.jpg",0,0
//Break Periods
//Storyboard Layer 0 (Background)
//Storyboard Layer 1 (Fail)
//Storyboard Layer 2 (Pass)
//Storyboard Layer 3 (Foreground)
//Storyboard Sound Samples

[TimingPoints]
395,319.148936170213,4,2,1,60,1,0
873,-133.333333333333,4,2,1,60,0,0
11884,-133.333333333333,4,2,2,60,0,0
15714,-181.818181818182,4,2,1,60,0,0
16352,-133.333333333334,4,2,2,60,0,0
19543,-100,4,1,1,60,0,0
55847,-100,4,2,1,5,0,0
55926,-100,4,1,1,60,0,0
60395,-100,4,1,0,60,0,0
61671,-100,4,2,0,60,0,0
64224,-133.333333333333,4,2,1,60,0,0
71884,-133.333333333333,4,2,1,5,0,0
72363,-133.333333333333,4,2,1,50,0,0
73160,-100,4,1,1,60,0,1
111299,-100,4,1,1,40,0,0

[Colours]
Combo1 : 255,128,255
Combo2 : 255,128,0
Combo3 : 217,255,0
Combo4 : 242,24,57
Combo5 : 0,128,255

[HitObjects]
340,220,873,5,0,0:0:0:0:
262,194,1033,1,0,0:0:0:0:
262,113,1192,1,0,0:0:0:0:
340,88,1352,1,0,0:0:0:0:
387,154,1512,1,0,0:0:0:0:
262,194,1671,5,2,0:0:0:0:
188,164,1831,1,2,0:0:0:0:
112,132,1990,1,2,0:0:0:0:
36,100,2150,2,0,P|124:88|152:48,1,135.000005149842,2|0,0:0|0:0,0:0:0:0:
72,16,2629,1,0,0:0:0:0:
188,232,2788,5,2,0:0:0:0:
232,164,2948,1,2,0:0:0:0:
220,84,3107,1,2,0:0:0:0:
160,32,3267,1,2,0:0:0:0:
148,112,3426,2,0,L|292:96,1,135.000005149842,2|0,0:0|0:0,0:0:0:0:
344,44,3905,1,0,0:0:0:0:
344,212,4065,6,0,P|446:212|480:180,1,135.000005149842,2|0,0:0|0:0,0:0:0:0:
476,96,4543,1,0,0:0:0:0:
392,284,4703,2,0,P|424:228|392:148,1,135.000005149842,2|0,0:0|0:0,0:0:0:0:
256,208,5182,1,0,0:0:0:0:
120,284,5341,2,0,P|88:228|120:148,1,135.000005149842,2|0,0:0|0:0,0:0:0:0:
180,136,5820,2,0,P|200:92|200:60,1,67.5000025749208,0|2,0:0|0:0,0:0:0:0:
148,12,6139,1,0,0:0:0:0:
28,128,6299,1,0,0:0:0:0:
256,168,6458,1,0,0:0:0:0:
248,88,6618,5,2,0:0:0:0:
108,88,6777,1,2,0:0:0:0:
170,131,6937,1,2,0:0:0:0:
28,128,7097,1,2,0:0:0:0:
148,12,7256,2,0,P|176:44|160:144,1,135.000005149842,2|0,0:0|0:0,0:0:0:0:
48,20,7735,1,0,0:0:0:0:
104,192,7895,6,0,L|240:184,1,135.000005149842,2|0,0:0|0:0,0:0:0:0:
288,120,8373,1,0,0:0:0:0:
324,264,8533,2,0,P|384:284|446:244,1,135.000005149842,2|0,0:0|0:0,0:0:0:0:
484,180,9012,1,2,0:0:0:0:
416,56,9171,1,0,0:0:0:0:
288,120,9331,5,2,0:0:0:0:
408,123,9490,2,0,L|416:56,1,67.5000025749208,2|0,0:0|0:0,0:0:0:0:
280,24,9809,1,2,0:0:0:0:
424,204,9969,2,0,L|416:137,1,67.5000025749208,2|0,0:0|0:0,0:0:0:0:
288,120,10288,1,0,0:0:0:0:
268,272,10448,1,2,0:0:0:0:
116,293,10607,5,2,0:0:0:0:
428,192,10767,1,2,0:0:0:0:
116,90,10926,1,2,0:0:0:0:
309,355,11086,1,0,0:0:0:0:
309,28,11246,1,2,0:0:0:0:
268,104,11405,1,0,0:0:0:0:
183,94,11565,2,0,L|116:90,1,67.5000025749208
116,90,11884,6,0,L|264:96,1,135.000005149842,4|8,0:0|0:0,0:0:0:0:
472,196,12363,2,0,P|448:196|428:192,1,33.7500012874604
368,168,12522,2,0,P|351:151|339:134,1,33.7500012874604
312,72,12682,2,0,P|312:48|316:28,1,33.7500012874604
332,4,12841,2,0,L|252:8,1,67.5000025749208,8|0,0:0|0:0,0:0:0:0:
148,136,13160,5,0,0:0:0:0:
148,136,13240,1,0,0:0:0:0:
148,136,13320,1,0,0:0:0:0:
148,44,13480,1,8,0:0:0:0:
64,188,13639,1,0,0:0:0:0:
240,160,13799,1,0,0:0:0:0:
164,368,13958,5,0,0:0:0:0:
151,346,14037,1,0,0:0:0:0:
144,321,14117,1,8,0:0:0:0:
143,296,14197,1,0,0:0:0:0:
148,271,14277,1,0,0:0:0:0:
368,208,14437,6,0,P|380:244|376:276,1,67.5000025749208
244,140,14676,1,0,0:0:0:0:
244,140,14756,2,0,L|252:68,1,67.5000025749208,8|0,0:0|0:0,0:0:0:0:
320,20,15075,2,0,L|332:68,1,33.7500012874604,0|8,0:0|0:0,0:0:0:0:
463,176,15315,2,0,L|472:144,1,33.7500012874604,0|8,0:0|0:0,0:0:0:0:
444,12,15554,1,0,0:0:0:0:
324,164,15714,6,0,B|256:144|252:188|164:160,1,148.50000453186,2|0,0:0|0:0,0:0:0:0:
100,108,16352,6,0,P|96:80|100:40,1,67.5000025749208
172,4,16671,1,8,0:0:0:0:
256,120,16831,1,0,0:0:0:0:
32,16,16990,5,0,0:0:0:0:
168,240,17150,1,0,0:0:0:0:
172,216,17230,1,0,0:0:0:0:
172,188,17309,1,8,0:0:0:0:
64,124,17469,1,0,0:0:0:0:
312,152,17629,1,0,0:0:0:0:
297,132,17709,1,0,0:0:0:0:
278,112,17788,1,0,0:0:0:0:
168,60,17948,1,8,0:0:0:0:
360,216,18107,6,0,L|348:72,1,135.000005149842
292,24,18586,1,8,0:0:0:0:
172,188,18746,1,0,0:0:0:0:
240,144,18905,6,0,P|252:176|248:216,1,67.5000025749208,2|0,0:0|0:0,0:0:0:0:
364,279,19224,2,0,P|352:311|353:344,1,67.5000025749208,2|2,0:0|0:0,0:0:0:0:
496,100,19543,6,0,L|308:84,1,180,4|8,0:0|0:0,0:0:0:0:
96,152,20022,1,0,0:0:0:0:
96,152,20341,2,0,P|152:136|224:184,1,135,0|0,0:0|2:0,0:0:0:0:
152,216,20660,2,0,L|164:32,1,180,8|0,0:0|0:0,0:0:0:0:
163,36,21139,5,8,0:0:0:0:
232,88,21299,1,0,0:0:0:0:
240,8,21458,1,0,0:0:0:0:
84,64,21618,1,0,0:0:0:0:
232,88,21777,1,8,0:0:0:0:
16,16,21937,1,0,0:0:0:0:
44,276,22097,6,0,P|99:309|162:291,1,135,0|0,0:0|2:0,0:0:0:0:
236,260,22416,2,0,L|216:120,1,135,8|0,0:0|2:0,0:0:0:0:
216,52,22735,2,0,L|260:40,1,45
464,152,22895,2,0,L|420:140,1,45
216,126,23054,1,0,0:0:0:0:
368,48,23214,1,0,0:0:0:0:
406,295,23373,5,0,0:0:0:0:
228,124,23533,1,0,0:0:0:0:
254,274,23692,1,0,0:0:0:0:
364,52,23852,1,0,0:0:0:0:
473,159,24012,2,0,L|504:144,5,30,0|0|0|0|0|0,0:0|0:0|0:0|0:0|0:0|0:0,0:0:0:0:
456,168,24331,2,0,L|360:156,1,90,8|0,0:0|0:0,0:0:0:0:
366,156,24570,1,0,0:0:0:0:
366,156,24650,5,4,0:0:0:0:
260,356,24809,1,0,0:0:0:0:
76,220,24969,2,0,L|172:232,1,90,8|0,0:0|0:0,0:0:0:0:
248,68,25288,1,0,0:0:0:0:
344,248,25448,2,0,P|388:248|428:224,1,90,0|0,0:0|0:0,0:0:0:0:
444,120,25767,1,8,0:0:0:0:
249,266,25926,2,0,L|260:356,1,90,0|0,0:0|0:0,0:0:0:0:
188,160,26246,1,8,0:0:0:0:
352,92,26405,1,0,0:0:0:0:
396,348,26565,5,0,0:0:0:0:
396,336,26645,1,0,0:0:0:0:
396,324,26724,1,0,0:0:0:0:
396,312,26804,1,0,0:0:0:0:
396,300,26884,2,0,L|396:252,1,45
232,160,27043,2,0,L|240:116,1,45
280,36,27203,5,0,0:0:0:0:
336,220,27363,1,0,0:0:0:0:
24,124,27522,1,8,0:0:0:0:
167,74,27682,1,0,0:0:0:0:
240,204,27841,2,0,P|312:228|376:196,1,135,0|0,0:0|0:0,0:0:0:0:
376,192,28160,1,0,0:0:0:0:
386,172,28239,1,0,0:0:0:0:
391,150,28319,1,0,0:0:0:0:
390,127,28399,1,0,0:0:0:0:
388,104,28480,6,0,P|382:76|373:54,1,45,0|0,0:0|0:0,0:0:0:0:
312,16,28639,2,0,P|285:4|261:-1,1,45,0|0,0:0|0:0,0:0:0:0:
192,0,28799,2,0,P|164:10|144:23,1,45,0|0,0:0|0:0,0:0:0:0:
96,72,28958,2,0,P|84:98|78:122,1,45,0|0,0:0|0:0,0:0:0:0:
48,280,29118,5,0,0:0:0:0:
46,258,29197,1,0,0:0:0:0:
45,236,29277,1,0,0:0:0:0:
43,213,29357,1,0,0:0:0:0:
41,191,29437,1,8,0:0:0:0:
40,172,29756,6,0,P|95:125|203:141,1,180,4|0,0:0|0:0,0:0:0:0:
280,372,30235,1,0,0:0:0:0:
280,372,30554,2,0,P|252:304|272:228,1,135,0|0,0:0|2:0,0:0:0:0:
284,220,30873,2,0,P|420:256|452:232,1,180,8|0,0:0|0:0,0:0:0:0:
496,148,31352,2,0,L|484:52,1,90,8|0,0:0|0:0,0:0:0:0:
376,200,31671,2,0,P|360:248|368:292,1,90
508,120,31990,2,0,P|506:69|484:30,1,90,8|0,0:0|0:0,0:0:0:0:
380,48,32309,5,0,0:0:0:0:
376,66,32388,1,0,0:0:0:0:
372,84,32468,1,0,0:0:0:0:
368,103,32548,1,0,0:0:0:0:
432,247,32629,5,0,0:0:0:0:
414,237,32708,1,0,0:0:0:0:
396,231,32788,1,0,0:0:0:0:
376,230,32868,1,0,0:0:0:0:
356,232,32948,2,0,L|520:219,2,135,0|0|8,0:0|0:0|0:0,0:0:0:0:
276,304,33586,6,0,P|232:292|184:304,1,90
0,376,33905,2,0,P|45:380|90:361,1,90,8|0,0:0|0:0,0:0:0:0:
104,348,34145,1,0,0:0:0:0:
116,328,34224,2,0,L|104:232,1,90
8,90,34543,1,8,0:0:0:0:
32,196,34703,2,0,L|72:192,3,22.5
40,168,34863,6,0,L|136:156,1,90
236,144,35182,1,0,0:0:0:0:
144,60,35341,1,0,0:0:0:0:
48,136,35501,5,0,0:0:0:0:
236,144,35660,1,0,0:0:0:0:
196,244,35820,1,0,0:0:0:0:
47,123,35980,5,8,0:0:0:0:
204,248,36139,1,0,0:0:0:0:
148,48,36299,1,0,0:0:0:0:
48,152,36458,5,8,0:0:0:0:
240,136,36618,1,0,0:0:0:0:
348,356,36777,5,0,0:0:0:0:
353,334,36856,1,0,0:0:0:0:
356,311,36936,1,0,0:0:0:0:
354,289,37016,1,0,0:0:0:0:
253,104,37097,5,0,0:0:0:0:
247,126,37176,1,0,0:0:0:0:
245,148,37256,1,0,0:0:0:0:
247,171,37336,1,0,0:0:0:0:
252,192,37416,6,0,L|363:183,1,90
123,203,37735,2,0,L|12:212,1,90,8|0,0:0|0:0,0:0:0:0:
312,24,38054,6,0,P|344:68|324:164,1,135,0|0,0:0|0:0,0:0:0:0:
352,144,38373,1,0,0:0:0:0:
364,140,38453,1,0,0:0:0:0:
376,136,38533,1,0,0:0:0:0:
388,132,38613,1,0,0:0:0:0:
400,128,38692,6,0,P|424:116|460:112,1,45
312,44,38852,2,0,P|321:19|343:-8,1,45
192,48,39012,2,0,P|180:23|176:-12,1,45
108,135,39171,2,0,P|83:126|55:104,1,45
44,24,39331,1,0,0:0:0:0:
221,160,39650,5,0,0:0:0:0:
233,178,39729,1,0,0:0:0:0:
240,199,39809,1,0,0:0:0:0:
242,222,39889,1,0,0:0:0:0:
240,244,39969,6,0,L|336:232,1,90,4|0,0:0|0:0,0:0:0:0:
108,136,40288,2,0,L|12:124,1,90,8|0,0:0|0:0,0:0:0:0:
196,32,40607,1,0,0:0:0:0:
296,104,40767,2,0,P|312:128|316:192,1,90,8|0,0:0|0:0,0:0:0:0:
232,280,41086,2,0,B|92:256|92:256|128:288,1,180,8|0,0:0|0:0,0:0:0:0:
132,292,41485,1,0,0:0:0:0:
144,304,41565,2,0,P|152:255|140:211,1,90,8|0,0:0|0:0,0:0:0:0:
30,128,41884,1,0,0:0:0:0:
167,75,42043,1,0,0:0:0:0:
260,192,42203,5,0,0:0:0:0:
292,200,42282,1,0,0:0:0:0:
325,195,42362,1,0,0:0:0:0:
354,178,42442,1,0,0:0:0:0:
374,151,42522,1,0,0:0:0:0:
276,52,42682,1,0,0:0:0:0:
148,184,42841,1,8,0:0:0:0:
72,24,43001,1,0,0:0:0:0:
295,206,43160,5,0,0:0:0:0:
167,74,43400,1,0,0:0:0:0:
28,124,43639,1,8,0:0:0:0:
148,184,43799,6,0,L|160:156,7,22.5
136,208,44118,2,0,L|120:116,1,90,8|0,0:0|0:0,0:0:0:0:
48,24,44357,1,0,0:0:0:0:
36,12,44437,2,0,P|12:52|16:112,1,90
232,140,44756,1,8,0:0:0:0:
280,244,44916,2,0,L|308:236,2,30
264,236,45075,6,0,L|404:228,1,135,0|0,0:0|2:0,0:0:0:0:
428,204,45395,2,0,P|428:152|424:108,1,90,8|0,0:0|0:0,0:0:0:0:
352,32,45714,1,0,0:0:0:0:
260,136,45873,2,0,P|200:156|132:116,1,135,8|0,0:0|2:0,0:0:0:0:
116,108,46192,1,8,0:0:0:0:
200,0,46352,1,0,0:0:0:0:
268,56,46512,1,0,0:0:0:0:
352,32,46671,1,8,0:0:0:0:
260,136,46831,1,0,0:0:0:0:
112,20,46990,5,0,0:0:0:0:
192,84,47150,1,0,0:0:0:0:
116,108,47309,1,8,0:0:0:0:
200,0,47469,1,0,0:0:0:0:
260,136,47629,5,0,0:0:0:0:
283,160,47708,1,0,0:0:0:0:
296,191,47788,1,0,0:0:0:0:
296,224,47868,1,0,0:0:0:0:
284,255,47948,2,0,L|344:240,1,45,0|0,0:0|0:0,0:0:0:0:
436,156,48107,2,0,L|376:171,1,45,0|0,0:0|0:0,0:0:0:0:
320,336,48267,2,0,L|452:308,2,135,0|0|8,0:0|0:0|0:0,0:0:0:0:
320,336,49065,5,0,0:0:0:0:
296,191,49224,1,8,0:0:0:0:
208,252,49384,1,0,0:0:0:0:
384,248,49543,6,0,L|356:240,5,30,0|0|0|0|0|0,0:0|0:0|0:0|0:0|0:0|0:0,0:0:0:0:
412,228,49863,1,0,0:0:0:0:
421,199,49942,1,0,0:0:0:0:
421,169,50022,1,0,0:0:0:0:
411,141,50102,1,0,0:0:0:0:
392,120,50182,5,4,0:0:0:0:
296,48,50341,1,0,0:0:0:0:
224,160,50501,1,8,0:0:0:0:
411,141,50660,1,0,0:0:0:0:
224,160,50820,2,0,L|120:176,1,90,0|8,0:0|0:0,0:0:0:0:
64,92,51139,5,0,0:0:0:0:
20,320,51299,2,0,P|80:340|152:300,1,135,8|0,0:0|2:0,0:0:0:0:
164,288,51618,2,0,P|172:256|160:192,1,90,0|8,0:0|0:0,0:0:0:0:
64,92,51937,1,0,0:0:0:0:
153,88,52097,2,0,L|64:92,1,90
260,144,52416,5,0,0:0:0:0:
274,113,52495,1,0,0:0:0:0:
278,80,52575,1,0,0:0:0:0:
270,47,52655,1,0,0:0:0:0:
252,19,52735,1,0,0:0:0:0:
64,92,52895,5,0,0:0:0:0:
260,144,53054,1,8,0:0:0:0:
252,19,53214,1,0,0:0:0:0:
196,196,53373,2,0,L|332:188,2,135,0|0|8,0:0|0:0|0:0,0:0:0:0:
196,196,54331,1,8,0:0:0:0:
172,356,54490,5,0,0:0:0:0:
172,356,54570,1,0,0:0:0:0:
172,356,54650,2,0,P|128:360|84:340,1,90
0,188,54969,1,0,0:0:0:0:
0,188,55049,2,0,P|44:192|88:172,1,90
100,152,55288,6,0,L|96:96,1,45,0|0,0:0|0:0,0:0:0:0:
172,112,55448,2,0,L|168:56,1,45,0|0,0:0|0:0,0:0:0:0:
220,4,55607,2,0,P|296:0|340:56,1,135,4|0,0:0|0:0,0:0:0:0:
328,76,55926,2,0,L|420:68,1,90,0|8,0:0|0:0,0:0:0:0:
508,0,56246,1,0,0:0:0:0:
484,148,56405,1,8,0:0:0:0:
328,76,56565,5,0,0:0:0:0:
328,76,56645,1,0,0:0:0:0:
328,76,56724,1,0,0:0:0:0:
320,160,56884,1,8,0:0:0:0:
400,32,57043,1,0,0:0:0:0:
260,24,57203,5,0,0:0:0:0:
112,96,57363,1,0,0:0:0:0:
115,9,57522,1,0,0:0:0:0:
240,108,57682,1,0,0:0:0:0:
176,288,57841,5,0,0:0:0:0:
144,298,57920,1,0,0:0:0:0:
110,296,58000,1,0,0:0:0:0:
80,280,58080,1,0,0:0:0:0:
59,255,58160,1,0,0:0:0:0:
112,96,58320,1,0,0:0:0:0:
320,172,58480,1,0,0:0:0:0:
260,24,58639,1,0,0:0:0:0:
240,108,58799,5,0,0:0:0:0:
356,20,58958,1,0,0:0:0:0:
356,20,59038,1,0,0:0:0:0:
356,20,59118,1,0,0:0:0:0:
392,104,59277,1,0,0:0:0:0:
260,24,59437,1,0,0:0:0:0:
320,172,59597,1,0,0:0:0:0:
356,20,59756,5,0,0:0:0:0:
240,108,59916,2,0,L|236:148,3,22.5
260,24,60075,1,0,0:0:0:0:
320,172,60235,1,0,0:0:0:0:
128,108,60395,1,4,0:0:0:0:
128,108,61671,5,2,2:0:0:0:
440,210,61831,1,2,2:0:0:0:
128,311,61990,1,2,2:0:0:0:
321,46,62150,1,2,2:0:0:0:
191,373,62309,5,2,2:0:0:0:
384,108,62469,1,2,2:0:0:0:
72,210,62629,1,2,2:0:0:0:
384,311,62788,1,2,2:0:0:0:
191,46,62948,1,2,0:0:0:0:
256,192,63027,12,0,64145,2:0:0:0:
304,308,64224,6,0,L|412:300,2,90.0000034332277,2|2|0,0:0|0:0|0:0,0:0:0:0:
232,192,64863,1,2,0:0:0:0:
232,192,65022,1,2,0:0:0:0:
72,328,65182,2,0,P|60:240|88:200,1,135,0|4,0:0|0:0,0:0:0:0:
232,192,65926,6,0,L|292:184,2,45.0000017166138,2|0|0,0:0|0:0|0:0,0:0:0:0:
76,40,66565,2,0,L|16:48,2,45.0000017166138,2|0|0,0:0|0:0|0:0,0:0:0:0:
76,40,67655,5,2,0:0:0:0:
248,176,67841,1,0,0:0:0:0:
244,24,68054,1,4,0:0:0:0:
244,24,69171,1,4,0:0:0:0:
256,192,69251,12,0,71884,2:0:0:0:
240,272,72363,5,2,0:0:0:0:
163,251,72522,1,2,0:0:0:0:
255,355,72682,1,0,0:0:0:0:
227,191,72841,1,2,0:0:0:0:
175,335,73001,1,2,0:0:0:0:
319,299,73160,5,2,0:0:0:0:
324,192,73320,1,0,0:0:0:0:
320,176,73400,1,0,0:0:0:0:
316,160,73480,1,8,0:0:0:0:
152,28,73639,1,0,0:0:0:0:
72,172,73799,2,0,P|128:180|164:168,1,90
244,28,74118,1,0,0:0:0:0:
316,160,74277,1,8,0:0:0:0:
42,297,74437,5,0,0:0:0:0:
74,306,74516,1,0,0:0:0:0:
108,304,74596,1,0,0:0:0:0:
138,289,74676,1,0,0:0:0:0:
161,265,74756,1,0,0:0:0:0:
188,72,74916,1,0,0:0:0:0:
72,172,75075,5,0,0:0:0:0:
316,160,75235,1,8,0:0:0:0:
272,84,75395,5,0,0:0:0:0:
284,328,75555,1,8,0:0:0:0:
244,252,75714,5,0,0:0:0:0:
356,80,75873,1,0,0:0:0:0:
244,172,76033,1,0,0:0:0:0:
221,148,76113,1,0,0:0:0:0:
191,133,76193,1,0,0:0:0:0:
157,131,76273,1,0,0:0:0:0:
125,140,76352,1,0,0:0:0:0:
164,248,76512,5,0,0:0:0:0:
168,40,76671,1,0,0:0:0:0:
4,148,76831,1,8,0:0:0:0:
191,133,76990,5,0,0:0:0:0:
200,332,77150,1,0,0:0:0:0:
312,180,77309,1,0,0:0:0:0:
325,149,77388,1,0,0:0:0:0:
326,115,77468,1,0,0:0:0:0:
315,83,77548,1,0,0:0:0:0:
294,57,77628,5,0,0:0:0:0:
168,40,77788,1,8,0:0:0:0:
0,176,77948,1,0,0:0:0:0:
126,158,78108,1,8,0:0:0:0:
248,268,78267,6,0,L|236:220,1,45,0|0,0:0|0:0,0:0:0:0:
72,48,78426,2,0,L|60:96,1,45,0|0,0:0|0:0,0:0:0:0:
128,244,78586,2,0,P|136:188|124:156,1,90,8|0,0:0|0:0,0:0:0:0:
72,48,78905,5,0,0:0:0:0:
0,240,79065,2,0,P|56:248|89:235,1,90,8|0,0:0|0:0,0:0:0:0:
148,116,79384,1,8,0:0:0:0:
216,328,79543,6,0,L|224:292,7,22.5
208,356,79863,2,0,L|184:256,1,90,8|0,0:0|0:0,0:0:0:0:
278,124,80182,2,0,P|292:168|280:211,1,90,0|8,0:0|0:0,0:0:0:0:
236,24,80501,1,0,0:0:0:0:
176,168,80660,1,8,0:0:0:0:
376,96,80820,5,0,0:0:0:0:
448,176,80980,1,0,0:0:0:0:
448,176,81059,1,0,0:0:0:0:
448,176,81139,1,8,0:0:0:0:
416,8,81299,1,0,0:0:0:0:
276,112,81458,1,0,0:0:0:0:
480,84,81618,1,0,0:0:0:0:
340,188,81778,1,0,0:0:0:0:
308,20,81937,1,8,0:0:0:0:
176,128,82097,6,0,L|180:172,1,45
260,280,82256,2,0,L|256:324,1,45,0|0,0:0|0:0,0:0:0:0:
128,372,82416,2,0,P|60:368|44:356,1,90
25,333,82655,5,0,0:0:0:0:
7,304,82734,1,0,0:0:0:0:
0,272,82814,1,0,0:0:0:0:
6,238,82894,1,0,0:0:0:0:
128,372,83054,1,0,0:0:0:0:
224,200,83214,1,0,0:0:0:0:
368,288,83373,5,4,0:0:0:0:
116,248,83533,1,0,0:0:0:0:
116,248,83613,1,0,0:0:0:0:
116,248,83692,1,8,0:0:0:0:
280,272,83852,1,0,0:0:0:0:
388,292,84012,2,0,L|476:308,1,90
308,172,84331,1,0,0:0:0:0:
188,304,84490,1,8,0:0:0:0:
24,164,84650,5,0,0:0:0:0:
167,74,84809,1,0,0:0:0:0:
167,74,84889,1,0,0:0:0:0:
167,74,84969,2,0,P|184:120|176:168,1,90,8|0,0:0|0:0,0:0:0:0:
48,36,85288,1,0,0:0:0:0:
16,192,85448,1,0,0:0:0:0:
188,76,85607,1,0,0:0:0:0:
8,220,85767,1,8,0:0:0:0:
208,80,85926,5,0,0:0:0:0:
216,240,86086,1,0,0:0:0:0:
216,240,86166,1,0,0:0:0:0:
216,240,86246,1,8,0:0:0:0:
128,140,86405,1,0,0:0:0:0:
8,222,86565,5,0,0:0:0:0:
244,156,86725,1,0,0:0:0:0:
208,80,86884,5,0,0:0:0:0:
248,321,87044,1,8,0:0:0:0:
469,245,87203,5,0,0:0:0:0:
435,243,87282,1,0,0:0:0:0:
401,241,87362,1,0,0:0:0:0:
368,240,87442,1,0,0:0:0:0:
334,238,87522,1,8,0:0:0:0:
244,156,87682,1,0,0:0:0:0:
216,240,87841,1,0,0:0:0:0:
216,240,88001,1,0,0:0:0:0:
208,80,88160,2,0,L|204:36,5,30,0|0|0|0|0|0,0:0|0:0|0:0|0:0|0:0|0:0,0:0:0:0:
220,104,88480,6,0,L|312:96,1,90
120,164,88719,1,0,0:0:0:0:
120,164,88799,2,0,L|28:156,1,90,4|0,0:0|0:0,0:0:0:0:
200,56,89118,1,0,0:0:0:0:
336,104,89277,6,0,P|352:136|352:196,1,90,4|0,0:0|0:0,0:0:0:0:
96,336,89597,2,0,P|80:304|80:244,1,90,4|0,0:0|0:0,0:0:0:0:
88,224,89836,5,0,0:0:0:0:
104,194,89915,1,0,0:0:0:0:
131,174,89995,1,0,0:0:0:0:
164,167,90075,1,0,0:0:0:0:
280,280,90235,1,0,0:0:0:0:
131,174,90395,1,0,0:0:0:0:
336,104,90554,1,0,0:0:0:0:
43,162,90714,1,0,0:0:0:0:
392,41,90873,1,0,0:0:0:0:
456,128,91033,5,0,0:0:0:0:
454,150,91112,1,0,0:0:0:0:
452,172,91192,1,0,0:0:0:0:
450,195,91272,1,0,0:0:0:0:
448,217,91352,1,0,0:0:0:0:
254,100,91512,5,0,0:0:0:0:
252,77,91591,1,0,0:0:0:0:
250,55,91671,1,0,0:0:0:0:
248,32,91751,1,0,0:0:0:0:
246,10,91831,1,0,0:0:0:0:
124,248,91990,5,0,0:0:0:0:
125,270,92069,1,0,0:0:0:0:
127,292,92149,1,0,0:0:0:0:
129,315,92229,1,0,0:0:0:0:
131,337,92309,1,0,0:0:0:0:
232,380,92469,5,0,0:0:0:0:
280,248,92629,1,0,0:0:0:0:
104,168,92788,1,0,0:0:0:0:
8,252,92948,1,0,0:0:0:0:
8,252,93027,1,0,0:0:0:0:
8,252,93107,1,0,0:0:0:0:
80,60,93267,1,0,0:0:0:0:
220,156,93426,5,0,0:0:0:0:
220,156,93506,1,0,0:0:0:0:
220,156,93586,2,0,P|268:152|304:128,1,90,4|0,0:0|0:0,0:0:0:0:
316,112,93825,1,0,0:0:0:0:
328,88,93905,2,0,L|324:188,1,90,8|0,0:0|0:0,0:0:0:0:
416,376,94224,2,0,P|424:308|416:280,1,90,0|8,0:0|0:0,0:0:0:0:
224,264,94543,1,0,0:0:0:0:
400,164,94703,2,0,L|492:160,1,90,8|0,0:0|0:0,0:0:0:0:
328,88,95022,5,0,0:0:0:0:
316,112,95102,1,0,0:0:0:0:
304,136,95182,1,8,0:0:0:0:
248,8,95341,1,0,0:0:0:0:
167,74,95501,2,0,P|100:76|76:64,1,90,0|0,0:0|0:0,0:0:0:0:
400,128,95820,2,0,P|467:126|491:138,1,90,0|8,0:0|0:0,0:0:0:0:
168,176,96139,5,0,0:0:0:0:
248,8,96299,1,0,0:0:0:0:
248,8,96379,1,0,0:0:0:0:
248,8,96458,2,0,L|240:104,1,90,8|0,0:0|0:0,0:0:0:0:
460,176,96777,2,0,P|408:196|332:164,1,135
336,169,97097,1,8,0:0:0:0:
440,344,97256,5,0,0:0:0:0:
256,376,97416,1,0,0:0:0:0:
456,252,97575,1,0,0:0:0:0:
272,284,97735,1,0,0:0:0:0:
472,160,97895,1,0,0:0:0:0:
336,168,98054,5,0,0:0:0:0:
440,344,98214,1,0,0:0:0:0:
272,284,98373,1,8,0:0:0:0:
256,96,98533,2,0,L|264:60,3,22.5
248,120,98692,6,0,L|237:30,1,90,0|0,0:0|0:0,0:0:0:0:
165,176,98932,1,0,0:0:0:0:
165,176,99012,2,0,L|76:184,1,90,8|0,0:0|0:0,0:0:0:0:
20,92,99331,1,0,0:0:0:0:
36,312,99490,2,0,P|88:320|160:276,1,135,8|0,0:0|2:0,0:0:0:0:
176,252,99809,6,0,P|195:205|158:121,1,135,8|0,0:0|2:0,0:0:0:0:
112,64,100129,2,0,P|91:49|65:38,1,45
200,56,100288,2,0,L|296:52,1,90,8|0,0:0|0:0,0:0:0:0:
88,144,100607,1,0,0:0:0:0:
289,52,100767,1,8,0:0:0:0:
200,56,100926,2,0,L|296:52,1,90,0|8,0:0|0:0,0:0:0:0:
388,8,101246,5,0,0:0:0:0:
478,164,101405,1,0,0:0:0:0:
296,196,101565,2,0,L|284:148,1,45
236,24,101724,2,0,L|225:67,1,45
160,136,101884,1,0,0:0:0:0:
260,280,102043,1,0,0:0:0:0:
95,200,102203,1,8,0:0:0:0:
32,252,102363,6,0,L|172:232,1,135
183,214,102682,1,0,0:0:0:0:
188,192,102761,1,0,0:0:0:0:
192,169,102841,1,0,0:0:0:0:
176,348,103001,2,0,L|116:356,1,45
300,384,103160,2,0,L|360:376,1,45
404,304,103320,1,0,0:0:0:0:
360,212,103480,1,0,0:0:0:0:
176,348,103639,1,0,0:0:0:0:
452,224,103799,5,0,0:0:0:0:
508,132,103958,2,0,L|500:80,1,45
392,116,104118,1,8,0:0:0:0:
358,113,104197,1,0,0:0:0:0:
329,97,104277,1,0,0:0:0:0:
309,69,104357,1,0,0:0:0:0:
303,37,104437,5,0,0:0:0:0:
508,132,104597,1,0,0:0:0:0:
504,48,104756,1,0,0:0:0:0:
299,143,104916,1,8,0:0:0:0:
220,8,105075,5,0,0:0:0:0:
256,224,105235,1,0,0:0:0:0:
256,224,105315,1,0,0:0:0:0:
256,224,105395,6,0,L|264:292,2,60,8|0|0,0:0|0:0|0:0,0:0:0:0:
76,188,105714,2,0,L|176:180,1,90
252,120,106033,1,0,0:0:0:0:
336,268,106192,1,8,0:0:0:0:
176,168,106352,5,0,0:0:0:0:
340,160,106512,1,0,0:0:0:0:
340,160,106591,1,0,0:0:0:0:
340,160,106671,2,0,P|344:100|328:68,1,90,8|0,0:0|0:0,0:0:0:0:
238,8,106990,2,0,P|269:66|334:73,1,135,0|0,0:0|0:0,0:0:0:0:
334,73,107309,1,8,0:0:0:0:
464,0,107469,1,0,0:0:0:0:
500,96,107629,6,0,P|512:128|504:184,1,90
424,296,107948,2,0,L|428:272,7,22.5
420,320,108267,2,0,L|408:220,1,90
240,20,108586,2,0,L|229:109,1,90,0|8,0:0|0:0,0:0:0:0:
108,224,108905,5,0,0:0:0:0:
332,140,109065,1,0,0:0:0:0:
332,140,109145,1,0,0:0:0:0:
332,140,109224,2,0,P|348:180|344:232,1,90,4|0,0:0|0:0,0:0:0:0:
292,384,109543,1,0,0:0:0:0:
116,348,109703,2,0,P|88:288|116:216,1,135,4|0,0:0|0:0,0:0:0:0:
128,208,110022,1,4,0:0:0:0:
176,24,110182,5,0,0:0:0:0:
196,54,110261,1,0,0:0:0:0:
203,91,110341,1,0,0:0:0:0:
196,127,110421,1,0,0:0:0:0:
16,216,110501,5,0,0:0:0:0:
53,213,110580,1,0,0:0:0:0:
90,211,110660,1,0,0:0:0:0:
128,208,110740,1,0,0:0:0:0:
244,372,110820,6,0,L|247:327,1,45
312,268,110980,2,0,L|308:223,1,45
240,160,111139,2,0,L|243:115,1,45
308,56,111299,2,0,L|304:11,1,45,2|0,0:0|2:0,0:0:0:0:
