osu file format v14

[General]
AudioFilename: Dawn of Asia.mp3
AudioLeadIn: 0
PreviewTime: 72363
Countdown: 0
SampleSet: Normal
StackLeniency: 0.7
Mode: 0
LetterboxInBreaks: 0
WidescreenStoryboard: 0

[Editor]
DistanceSpacing: 1
BeatDivisor: 8
GridSize: 4
TimelineZoom: 2.2

[Metadata]
Title:Dawn of Asia
TitleUnicode:Dawn of Asia
Artist:ginkiha+kamome sano
ArtistUnicode:ginkiha+kamome sano
Creator:Rare
Version:EXHAUST
Source:SOUND VOLTEX II -infinite infection-
Tags:SDVX alacat
BeatmapID:596079
BeatmapSetID:122041

[Difficulty]
HPDrainRate:7
CircleSize:4
OverallDifficulty:7
ApproachRate:9
SliderMultiplier:1.8
SliderTickRate:1

[Events]
//Background and Video events
0,0,"405720.jpg",0,0
//Break Periods
//Storyboard Layer 0 (Background)
//Storyboard Layer 1 (Fail)
//Storyboard Layer 2 (Pass)
//Storyboard Layer 3 (Foreground)
//Storyboard Sound Samples

[TimingPoints]
395,319.148936170213,4,2,1,60,1,0
873,-133.333333333333,4,2,1,60,0,0
11884,-133.333333333333,4,2,2,60,0,0
15714,-181.818181818181,4,2,1,60,0,0
16352,-133.333333333333,4,2,2,60,0,0
19543,-100,4,1,1,40,0,0
23373,-100,4,1,1,40,0,0
24650,-100,4,1,1,40,0,0
26565,-100,4,1,1,40,0,0
27203,-100,4,1,1,40,0,0
28160,-100,4,1,1,40,0,0
29756,-100,4,1,1,40,0,0
34703,-100,4,1,1,40,0,0
60395,-181.818181818182,4,1,0,40,0,0
61671,-181.818181818182,4,2,1,60,0,0
71884,-181.818181818182,4,1,0,5,0,0
72363,-133.333333333333,4,2,1,60,0,0
73160,-100,4,1,2,60,0,1
73320,-100,4,1,1,60,0,1
83373,-100,4,1,2,60,0,1
83533,-100,4,1,1,60,0,1
111299,-100,4,1,1,40,0,0

[Colours]
Combo1 : 255,128,255
Combo2 : 255,128,0
Combo3 : 217,255,0
Combo4 : 242,24,57
Combo5 : 0,128,255

[HitObjects]
338,220,873,5,0,0:0:0:0:
261,195,1033,1,0,0:0:0:0:
260,116,1192,1,0,0:0:0:0:
338,89,1352,1,0,0:0:0:0:
386,155,1512,1,0,0:0:0:0:
280,276,1671,5,2,0:0:0:0:
204,248,1831,1,2,0:0:0:0:
128,220,1990,1,2,0:0:0:0:
52,192,2150,2,0,P|8:148|20:80,1,135.000005149842,2|0,0:0|0:0,0:0:0:0:
84,36,2629,1,0,0:0:0:0:
100,116,2788,1,2,0:0:0:0:
88,196,2948,5,2,0:0:0:0:
168,180,3107,1,2,0:0:0:0:
248,160,3267,1,2,0:0:0:0:
328,144,3426,2,0,L|324:280,1,135.000005149842,2|0,0:0|0:0,0:0:0:0:
268,336,3905,2,0,P|232:352|200:348,1,67.5000025749208,0|2,0:0|0:0,0:0:0:0:
20,272,4224,5,0,0:0:0:0:
115,276,4384,2,0,L|112:344,1,67.5000025749208,2|0,0:0|0:0,0:0:0:0:
16,180,4703,2,0,P|-8:140|16:56,1,135.000005149842,2|0,0:0|0:0,0:0:0:0:
144,20,5182,1,2,0:0:0:0:
216,128,5341,2,0,L|81:113,1,135.000005149842,2|0,0:0|0:0,0:0:0:0:
168,216,5820,2,0,L|236:220,1,67.5000025749208,0|0,0:0|0:0,0:0:0:0:
372,88,6139,2,0,L|304:84,1,67.5000025749208,0|0,0:0|0:0,0:0:0:0:
400,276,6458,2,0,L|468:272,1,67.5000025749208,2|2,0:0|0:0,0:0:0:0:
476,188,6777,5,2,0:0:0:0:
408,112,6937,1,2,0:0:0:0:
308,104,7097,1,2,0:0:0:0:
220,152,7256,2,0,P|196:200|216:280,1,135.000005149842,2|0,0:0|0:0,0:0:0:0:
280,356,7735,2,0,L|348:348,1,67.5000025749208,0|2,0:0|0:0,0:0:0:0:
448,328,8054,5,0,0:0:0:0:
384,256,8214,2,0,P|376:220|380:188,1,67.5000025749208,2|0,0:0|0:0,0:0:0:0:
248,172,8533,2,0,L|344:68,1,135.000005149842,2|2,0:0|0:0,0:0:0:0:
460,188,9012,2,0,L|392:168,1,67.5000025749208,0|2,0:0|0:0,0:0:0:0:
216,80,9331,5,2,0:0:0:0:
160,136,9490,1,2,0:0:0:0:
80,144,9650,1,2,0:0:0:0:
32,80,9809,2,0,L|40:216,1,135.000005149842,0|2,0:0|0:0,0:0:0:0:
64,96,10288,2,0,L|60:172,1,67.5000025749208,0|2,0:0|0:0,0:0:0:0:
56,244,10607,5,2,0:0:0:0:
160,136,10767,1,2,0:0:0:0:
32,84,10926,1,2,0:0:0:0:
152,224,11086,1,2,0:0:0:0:
4,168,11246,1,2,0:0:0:0:
112,56,11405,1,0,0:0:0:0:
88,172,11565,2,0,L|16:156,1,67.5000025749208,0|2,0:0|0:0,0:0:0:0:
184,116,11884,6,0,P|240:128|320:120,1,135.000005149842,4|8,0:0|0:0,0:0:0:0:
388,48,12363,1,0,0:0:0:0:
388,48,12442,1,0,0:0:0:0:
388,48,12522,1,0,0:0:0:0:
184,116,12682,1,0,0:0:0:0:
332,120,12841,2,0,P|300:120|264:108,1,67.5000025749208,8|0,0:0|0:0,0:0:0:0:
212,24,13160,1,0,0:0:0:0:
104,184,13320,5,0,0:0:0:0:
108,172,13400,1,0,0:0:0:0:
112,160,13480,1,8,0:0:0:0:
104,60,13639,2,0,P|70:54|38:60,1,67.5000025749208
148,312,13958,1,0,0:0:0:0:
168,308,14038,1,0,0:0:0:0:
188,304,14118,1,8,0:0:0:0:
208,300,14198,1,0,0:0:0:0:
228,296,14277,1,0,0:0:0:0:
328,228,14437,5,0,0:0:0:0:
348,104,14597,2,0,L|334:38,1,67.5000025749208,0|8,0:0|0:0,0:0:0:0:
236,0,14916,1,0,0:0:0:0:
320,220,15075,1,0,0:0:0:0:
320,220,15155,1,8,0:0:0:0:
320,220,15235,1,0,0:0:0:0:
320,220,15315,1,0,0:0:0:0:
320,220,15395,2,0,L|388:208,1,67.5000025749208,8|0,0:0|0:0,0:0:0:0:
488,196,15714,6,0,L|472:48,1,148.50000453186,2|0,0:0|0:0,0:0:0:0:
464,24,16352,5,0,0:0:0:0:
452,191,16512,2,0,L|456:124,1,67.5000025749208,0|8,0:0|0:0,0:0:0:0:
464,24,16831,1,0,0:0:0:0:
304,112,16990,5,0,0:0:0:0:
452,192,17150,2,0,L|448:125,1,67.5000025749208,0|8,0:0|0:0,0:0:0:0:
436,32,17469,1,0,0:0:0:0:
436,32,17549,1,0,0:0:0:0:
436,32,17629,1,0,0:0:0:0:
276,56,17788,1,0,0:0:0:0:
348,184,17948,2,0,L|352:112,1,67.5000025749208,8|0,0:0|0:0,0:0:0:0:
252,284,18267,2,0,L|260:136,1,135.000005149842,0|8,0:0|0:0,0:0:0:0:
276,56,18746,5,2,0:0:0:0:
167,74,18905,1,2,0:0:0:0:
300,184,19065,1,2,0:0:0:0:
136,252,19224,1,2,0:0:0:0:
176,96,19384,1,2,0:0:0:0:
256,288,19543,6,0,L|436:280,1,180,4|8,0:0|0:0,0:0:0:0:
492,192,20022,1,0,0:0:0:0:
492,192,20102,1,0,0:0:0:0:
492,192,20182,1,0,0:0:0:0:
472,88,20341,2,0,P|456:48|460:0,1,90,8|0,0:0|0:0,0:0:0:0:
380,184,20660,6,0,P|328:128|232:148,1,180,8|0,0:0|0:0,0:0:0:0:
188,232,21139,1,8,0:0:0:0:
164,72,21299,1,0,0:0:0:0:
164,72,21379,1,0,0:0:0:0:
164,72,21458,1,0,0:0:0:0:
104,280,21618,1,0,0:0:0:0:
84,116,21777,1,8,0:0:0:0:
16,320,21937,1,0,0:0:0:0:
279,260,22097,6,0,P|283:216|264:176,1,90
184,128,22416,2,0,P|92:148|32:96,1,180,8|0,0:0|1:0,0:0:0:0:
28,80,22815,1,0,0:0:0:0:
28,64,22895,1,0,0:0:0:0:
32,48,22974,1,0,1:0:0:0:
40,32,23054,1,0,0:0:0:0:
136,0,23214,1,0,1:0:0:0:
200,68,23373,6,0,L|96:64,1,90
320,196,23692,2,0,L|424:200,1,90
312,204,24012,2,0,L|315:234,3,30
260,80,24331,1,0,0:0:0:0:
120,80,24490,2,0,L|123:50,2,30
112,92,24650,6,0,L|8:88,1,90,4|0,0:0|0:0,0:0:0:0:
244,240,24969,2,0,L|348:236,1,90,8|0,0:0|0:0,0:0:0:0:
396,160,25288,1,0,0:0:0:0:
216,332,25448,2,0,P|268:331|304:304,1,90
68,224,25767,1,8,0:0:0:0:
16,308,25926,2,0,P|67:322|109:306,1,90
200,160,26246,1,8,0:0:0:0:
216,332,26405,1,0,0:0:0:0:
368,232,26565,5,0,0:0:0:0:
380,220,26645,1,0,0:0:0:0:
392,208,26724,1,0,0:0:0:0:
404,196,26804,1,0,0:0:0:0:
416,184,26884,2,0,L|420:140,1,45
340,20,27043,2,0,L|336:64,1,45
324,148,27203,6,0,L|232:140,1,90
80,68,27522,1,0,1:0:0:0:
80,68,27682,1,0,1:0:0:0:
224,152,27841,2,0,L|316:144,1,90
412,192,28160,1,0,0:0:0:0:
413,162,28239,1,0,0:0:0:0:
414,132,28319,1,0,0:0:0:0:
415,102,28399,1,0,0:0:0:0:
340,24,28480,6,0,L|344:72,3,45
280,136,28799,2,0,L|276:192,1,45
264,336,28958,2,0,L|260:291,1,45
170,231,29118,1,0,0:0:0:0:
141,247,29197,1,0,0:0:0:0:
107,247,29277,1,0,0:0:0:0:
78,231,29357,1,0,0:0:0:0:
60,204,29437,1,0,0:0:0:0:
60,204,29756,6,0,L|74:292,1,90,4|0,0:0|0:0,0:0:0:0:
128,376,30075,1,8,0:0:0:0:
200,240,30235,2,0,L|204:184,1,45
220,120,30395,2,0,P|260:100|312:104,2,90,0|8|0,0:0|0:0|0:0,0:0:0:0:
216,328,30873,2,0,P|288:276|276:192,1,180,8|0,0:0|0:0,0:0:0:0:
124,72,31352,2,0,L|131:161,1,90,8|0,0:0|0:0,0:0:0:0:
128,260,31671,2,0,L|24:252,1,90,0|0,0:0|0:0,0:0:0:0:
216,328,31990,2,0,L|324:324,1,90,8|0,0:0|0:0,0:0:0:0:
404,328,32309,5,0,0:0:0:0:
408,300,32389,1,0,0:0:0:0:
412,272,32469,1,0,0:0:0:0:
416,244,32549,1,0,0:0:0:0:
304,240,32629,1,0,0:0:0:0:
300,212,32709,1,0,0:0:0:0:
296,184,32789,1,0,0:0:0:0:
292,156,32869,1,0,0:0:0:0:
288,128,32948,5,0,1:0:0:0:
64,252,33187,1,0,1:0:0:0:
128,92,33426,1,0,1:0:0:0:
196,164,33586,6,0,P|244:172|284:156,1,90
336,76,33905,1,8,0:0:0:0:
304,240,34065,1,0,0:0:0:0:
304,240,34145,1,0,0:0:0:0:
304,240,34224,1,0,0:0:0:0:
208,80,34384,1,0,0:0:0:0:
112,176,34543,1,0,0:0:0:0:
22,172,34703,2,0,L|16:136,3,22.5
24,176,34863,5,0,0:0:0:0:
156,256,35022,1,0,0:0:0:0:
101,139,35182,1,0,0:0:0:0:
78,292,35341,1,0,0:0:0:0:
188,168,35501,5,2,0:0:0:0:
156,336,35660,2,0,P|197:328|228:289,1,90,2|0,0:0|0:0,0:0:0:0:
248,96,35980,1,2,0:0:0:0:
316,324,36139,2,0,L|304:228,1,90,2|0,0:0|0:0,0:0:0:0:
336,68,36458,1,2,0:0:0:0:
228,204,36618,1,2,0:0:0:0:
160,132,36777,6,0,L|100:120,1,45,0|0,0:0|0:0,0:0:0:0:
11,171,36937,2,0,L|56:180,1,45,0|0,0:0|0:0,0:0:0:0:
68,260,37097,2,0,L|110:245,1,45,0|0,0:0|0:0,0:0:0:0:
104,48,37256,2,0,L|61:62,1,45,0|0,0:0|0:0,0:0:0:0:
8,148,37416,5,2,0:0:0:0:
148,221,37575,2,0,L|160:132,1,90,2|0,0:0|0:0,0:0:0:0:
20,324,37895,1,2,0:0:0:0:
256,288,38054,2,0,L|244:198,1,90,0|2,0:0|0:0,0:0:0:0:
232,100,38373,1,0,0:0:0:0:
232,100,38453,1,0,0:0:0:0:
232,100,38533,1,0,0:0:0:0:
232,100,38613,1,0,0:0:0:0:
304,120,38692,6,0,L|312:164,1,45,0|0,0:0|0:0,0:0:0:0:
384,192,38852,2,0,L|358:228,1,45,0|0,0:0|0:0,0:0:0:0:
396,300,39012,2,0,L|351:307,1,45,0|0,0:0|0:0,0:0:0:0:
320,384,39171,2,0,L|283:358,1,45,0|0,0:0|0:0,0:0:0:0:
224,308,39331,1,8,0:0:0:0:
224,308,39650,5,2,0:0:0:0:
220,300,39730,1,2,0:0:0:0:
216,292,39809,1,2,0:0:0:0:
212,284,39889,1,2,0:0:0:0:
208,276,39969,6,0,L|196:368,2,90,0|0|8,0:0|0:0|0:0,0:0:0:0:
212,112,40448,1,0,0:0:0:0:
272,192,40607,2,0,L|364:188,1,90
324,40,40926,1,0,0:0:0:0:
404,96,41086,2,0,P|432:100|488:72,1,90,8|0,0:0|0:0,0:0:0:0:
296,56,41405,2,0,L|200:52,1,90,0|8,0:0|0:0,0:0:0:0:
108,48,41724,1,0,0:0:0:0:
80,144,41884,2,0,L|172:132,1,90
340,220,42203,1,8,0:0:0:0:
316,216,42283,1,0,0:0:0:0:
292,212,42363,1,0,0:0:0:0:
268,208,42442,1,0,0:0:0:0:
244,204,42522,6,0,P|224:164|232:116,1,90
304,52,42841,1,8,0:0:0:0:
404,316,43001,1,0,0:0:0:0:
316,356,43160,5,0,0:0:0:0:
244,204,43400,1,0,0:0:0:0:
404,144,43639,1,0,0:0:0:0:
468,220,43799,6,0,L|476:188,8,22.5,0|0|0|0|0|0|0|0|8,0:0|0:0|0:0|0:0|0:0|0:0|0:0|0:0|0:0,0:0:0:0:
380,236,44277,1,0,0:0:0:0:
380,236,44357,1,0,0:0:0:0:
380,236,44437,2,0,L|288:232,1,90
216,164,44756,1,8,0:0:0:0:
184,256,44916,2,0,L|180:304,3,30
292,116,45235,6,0,P|304:72|292:24,1,90,0|8,0:0|0:0,0:0:0:0:
46,184,45554,2,0,L|136:188,1,90
236,188,45873,1,0,0:0:0:0:
40,200,46033,1,0,0:0:0:0:
244,172,46192,2,0,P|324:129|402:171,1,180,8|0,0:0|0:0,0:0:0:0:
424,272,46671,1,8,0:0:0:0:
348,188,46831,1,0,0:0:0:0:
344,160,46910,1,0,0:0:0:0:
340,132,46990,1,0,0:0:0:0:
260,76,47150,1,0,0:0:0:0:
152,216,47309,2,0,L|56:200,1,90,8|0,0:0|0:0,0:0:0:0:
12,116,47629,6,0,L|4:68,1,45,0|0,0:0|0:0,0:0:0:0:
68,35,47788,2,0,L|76:80,1,45,0|0,0:0|0:0,0:0:0:0:
147,84,47948,2,0,L|139:36,1,45,2|0,0:0|0:0,0:0:0:0:
204,4,48107,2,0,L|211:48,1,45,0|0,0:0|0:0,0:0:0:0:
220,124,48267,5,0,0:0:0:0:
72,224,48506,1,0,0:0:0:0:
256,264,48746,1,2,0:0:0:0:
272,288,49065,6,0,L|368:276,1,90,0|8,0:0|0:0,0:0:0:0:
460,272,49384,1,0,0:0:0:0:
360,316,49543,2,0,L|300:308,1,45
248,252,49703,2,0,L|203:257,1,45,0|0,0:0|0:0,0:0:0:0:
136,312,49863,1,0,0:0:0:0:
100,304,49942,1,0,0:0:0:0:
64,296,50022,1,0,0:0:0:0:
28,292,50102,1,0,0:0:0:0:
28,292,50182,6,0,P|4:252|4:208,1,90,4|0,0:0|0:0,0:0:0:0:
44,108,50501,1,8,0:0:0:0:
180,208,50660,2,0,L|93:189,1,90
44,108,50980,2,0,P|28:68|36:20,1,90
260,156,51299,2,0,P|276:196|268:244,1,90,8|0,0:0|0:0,0:0:0:0:
184,328,51618,1,0,0:0:0:0:
292,344,51777,2,0,L|384:336,1,90,8|0,0:0|0:0,0:0:0:0:
404,336,52017,1,0,0:0:0:0:
428,332,52097,2,0,P|444:292|436:240,1,90
364,196,52416,2,0,L|368:152,1,45
280,132,52575,2,0,L|284:88,1,45
296,0,52735,5,0,0:0:0:0:
208,44,52895,2,0,P|164:44|120:20,1,90,0|8,0:0|0:0,0:0:0:0:
16,112,53214,1,0,0:0:0:0:
80,332,53373,2,0,L|76:196,1,135
76,197,53852,2,0,L|256:192,1,180,8|0,0:0|0:0,0:0:0:0:
364,192,54331,1,8,0:0:0:0:
256,48,54490,6,0,L|288:80,1,45
308,112,54650,2,0,L|218:119,1,90
92,252,54969,2,0,L|88:207,1,45
156,68,55208,2,0,L|152:23,2,45
232,92,55448,2,0,L|235:136,1,45,0|0,0:0|0:0,0:0:0:0:
234,211,55607,6,0,L|324:204,1,90,4|0,0:0|0:0,0:0:0:0:
284,296,55926,1,0,0:0:0:0:
416,136,56086,2,0,P|429:155|435:225,1,90
199,191,56405,1,0,0:0:0:0:
232,189,56485,1,0,0:0:0:0:
262,173,56565,1,0,0:0:0:0:
283,147,56645,1,0,0:0:0:0:
292,115,56724,1,0,0:0:0:0:
341,359,56884,2,0,L|252:352,1,90,8|0,0:0|0:0,0:0:0:0:
184,280,57203,5,0,0:0:0:0:
24,344,57363,1,0,0:0:0:0:
44,172,57522,1,0,0:0:0:0:
84,264,57682,1,0,0:0:0:0:
184,280,57841,5,0,0:0:0:0:
208,276,57921,1,0,0:0:0:0:
232,272,58001,1,0,0:0:0:0:
256,268,58081,1,0,0:0:0:0:
276,264,58160,1,0,0:0:0:0:
332,192,58320,5,0,0:0:0:0:
380,361,58480,2,0,L|392:272,1,90
404,124,58799,1,0,0:0:0:0:
492,284,58958,2,0,L|472:196,1,90
316,100,59277,5,0,0:0:0:0:
316,100,59357,1,0,0:0:0:0:
316,100,59437,1,0,0:0:0:0:
217,271,59597,1,8,0:0:0:0:
217,100,59756,1,0,0:0:0:0:
316,271,59916,2,0,L|320:304,3,22.5
316,271,60075,1,8,0:0:0:0:
167,185,60235,1,0,0:0:0:0:
264,188,60395,5,4,0:0:0:0:
284,108,61671,5,0,0:0:0:0:
264,188,61831,1,2,0:0:0:0:
344,168,61990,1,2,0:0:0:0:
284,108,62150,1,2,0:0:0:0:
244,268,62309,1,0,0:0:0:0:
324,248,62469,1,2,0:0:0:0:
204,128,62629,1,2,0:0:0:0:
184,208,62788,1,2,0:0:0:0:
256,192,62948,12,0,64065,0:0:0:0:
191,106,64224,6,0,L|184:176,2,66.0000020141602,2|2|0,0:0|0:0|0:0,0:0:0:0:
152,32,64863,1,2,0:0:0:0:
152,32,65022,1,2,0:0:0:0:
272,144,65182,2,0,P|324:152|368:128,1,99.0000030212403,0|4,0:0|0:0,0:0:0:0:
372,120,65926,6,0,L|416:112,2,33.0000010070801,2|0|0,0:0|0:0|0:0,0:0:0:0:
140,264,66565,2,0,L|96:272,2,33.0000010070801,2|0|0,0:0|0:0|0:0,0:0:0:0:
156,248,67655,5,0,0:0:0:0:
140,164,67841,1,0,0:0:0:0:
220,188,68054,1,4,0:0:0:0:
256,192,69171,5,4,0:0:0:0:
256,192,69251,12,0,71884,0:0:0:0:
164,128,72363,5,2,0:0:0:0:
136,212,72522,2,0,P|168:216|204:208,1,67.5000025749208,0|2,0:0|0:0,0:0:0:0:
76,132,72841,1,0,0:0:0:0:
148,300,73001,1,2,0:0:0:0:
248,144,73160,5,4,0:0:0:0:
336,136,73320,2,0,L|340:180,1,45
400,320,73480,2,0,P|416:276|408:232,1,90,8|0,0:0|0:0,0:0:0:0:
364,148,73799,1,0,0:0:0:0:
208,264,73958,2,0,L|308:268,1,90
388,228,74277,1,8,0:0:0:0:
436,140,74437,5,0,0:0:0:0:
442,107,74516,1,0,0:0:0:0:
439,73,74596,1,0,0:0:0:0:
425,43,74676,1,0,0:0:0:0:
402,18,74756,1,0,0:0:0:0:
308,52,74916,1,8,0:0:0:0:
256,136,75075,1,0,0:0:0:0:
260,236,75235,1,0,0:0:0:0:
308,52,75395,1,0,0:0:0:0:
176,188,75554,1,8,0:0:0:0:
364,176,75714,5,0,0:0:0:0:
452,320,75873,2,0,L|460:268,1,45
496,208,76033,2,0,L|494:155,1,45
468,92,76192,2,0,L|457:40,1,45
448,0,76352,2,0,L|348:16,1,90,0|0,0:0|0:0,0:0:0:0:
164,72,76671,2,0,L|253:75,1,90,0|8,0:0|0:0,0:0:0:0:
396,156,76990,5,0,0:0:0:0:
396,156,77150,1,0,0:0:0:0:
304,216,77309,1,0,0:0:0:0:
267,230,77388,1,0,0:0:0:0:
228,228,77468,1,0,0:0:0:0:
195,208,77548,1,0,0:0:0:0:
173,176,77628,1,0,0:0:0:0:
168,76,77788,1,0,0:0:0:0:
324,24,77948,1,0,0:0:0:0:
228,228,78107,1,0,0:0:0:0:
52,48,78267,5,0,0:0:0:0:
52,48,78347,1,0,0:0:0:0:
52,48,78426,1,0,0:0:0:0:
52,48,78506,1,0,0:0:0:0:
52,48,78586,1,0,0:0:0:0:
96,184,78746,1,0,0:0:0:0:
148,92,78905,2,0,P|160:44|148:0,1,90,0|8,0:0|0:0,0:0:0:0:
28,40,79224,1,0,0:0:0:0:
192,180,79384,1,8,0:0:0:0:
272,96,79543,6,0,L|272:64,8,22.5
289,193,80022,1,0,0:0:0:0:
192,180,80182,1,0,0:0:0:0:
315,290,80341,2,0,L|228:271,1,90,8|0,0:0|0:0,0:0:0:0:
192,152,80660,1,8,0:0:0:0:
328,104,80820,5,0,0:0:0:0:
192,152,80980,1,0,0:0:0:0:
168,140,81059,1,0,0:0:0:0:
144,128,81139,1,8,0:0:0:0:
72,56,81299,1,0,0:0:0:0:
52,152,81458,1,0,0:0:0:0:
192,152,81618,1,0,0:0:0:0:
64,240,81777,1,0,0:0:0:0:
156,16,81937,1,8,0:0:0:0:
236,72,82097,6,0,L|280:68,1,45
348,120,82256,2,0,L|392:116,1,45,0|0,0:0|0:0,0:0:0:0:
464,156,82416,1,8,0:0:0:0:
260,160,82575,6,0,L|216:164,1,45,0|0,0:0|0:0,0:0:0:0:
96,284,82735,2,0,L|140:280,1,45,0|0,0:0|0:0,0:0:0:0:
216,276,82895,1,8,0:0:0:0:
336,148,83054,1,0,0:0:0:0:
276,344,83214,1,8,0:0:0:0:
284,72,83373,5,4,0:0:0:0:
240,160,83533,1,0,0:0:0:0:
240,160,83613,1,0,0:0:0:0:
240,160,83692,1,0,0:0:0:0:
388,72,83852,1,0,0:0:0:0:
408,156,84012,2,0,P|376:160|316:124,1,90,0|8,0:0|0:0,0:0:0:0:
206,43,84331,2,0,L|296:40,1,90,0|8,0:0|0:0,0:0:0:0:
396,44,84650,5,0,0:0:0:0:
400,180,84809,1,0,0:0:0:0:
355,177,84888,1,0,0:0:0:0:
319,151,84968,1,0,0:0:0:0:
300,52,85129,1,8,0:0:0:0:
364,264,85288,2,0,L|460:260,1,90
296,340,85607,2,0,L|206:343,1,90,0|8,0:0|0:0,0:0:0:0:
56,344,85926,5,0,0:0:0:0:
116,264,86086,2,0,L|104:216,1,45
100,192,86246,2,0,L|160:276,1,90,0|0,0:0|0:0,0:0:0:0:
216,348,86565,1,0,0:0:0:0:
32,244,86724,1,8,0:0:0:0:
224,228,86884,2,0,L|164:144,1,90,0|8,0:0|0:0,0:0:0:0:
112,76,87203,5,0,0:0:0:0:
112,76,87283,1,0,0:0:0:0:
112,76,87363,1,0,0:0:0:0:
112,76,87442,1,0,0:0:0:0:
112,76,87522,1,0,0:0:0:0:
188,8,87682,1,0,0:0:0:0:
172,184,87841,1,0,0:0:0:0:
172,184,88001,1,0,0:0:0:0:
236,108,88160,6,0,L|248:72,6,22.5
236,108,88480,1,0,0:0:0:0:
256,152,88559,1,0,0:0:0:0:
300,176,88639,1,0,0:0:0:0:
348,176,88719,1,0,0:0:0:0:
392,156,88799,6,0,L|396:64,1,90,4|0,0:0|0:0,0:0:0:0:
236,108,89118,1,0,0:0:0:0:
424,196,89277,2,0,L|428:104,1,90,4|0,0:0|0:0,0:0:0:0:
240,20,89597,2,0,L|236:112,1,90,4|0,0:0|0:0,0:0:0:0:
228,160,89836,1,0,0:0:0:0:
204,204,89916,1,0,0:0:0:0:
160,224,89996,1,0,0:0:0:0:
112,232,90075,2,0,P|76:232|28:200,1,90
0,100,90395,5,0,0:0:0:0:
140,48,90554,1,8,0:0:0:0:
16,96,90714,1,0,0:0:0:0:
152,44,90873,1,8,0:0:0:0:
260,124,91033,5,8,0:0:0:0:
301,141,91112,1,0,0:0:0:0:
345,136,91192,1,8,0:0:0:0:
382,112,91272,1,0,0:0:0:0:
402,72,91352,1,8,0:0:0:0:
308,44,91512,6,0,L|324:100,1,45,8|0,0:0|0:0,0:0:0:0:
360,208,91671,2,0,L|347:251,1,45,8|0,0:0|0:0,0:0:0:0:
300,348,91831,1,8,0:0:0:0:
216,296,91990,5,8,0:0:0:0:
174,278,92069,1,0,0:0:0:0:
130,283,92149,1,8,0:0:0:0:
93,307,92229,1,0,0:0:0:0:
73,347,92309,1,8,0:0:0:0:
216,296,92469,5,0,0:0:0:0:
16,200,92629,1,0,0:0:0:0:
164,72,92788,1,0,0:0:0:0:
216,156,92948,1,0,0:0:0:0:
216,156,93027,1,0,0:0:0:0:
216,156,93107,1,0,0:0:0:0:
228,4,93267,1,0,0:0:0:0:
288,84,93426,5,0,0:0:0:0:
288,84,93506,1,0,0:0:0:0:
288,84,93586,1,4,0:0:0:0:
440,344,93746,1,0,0:0:0:0:
436,316,93825,1,0,0:0:0:0:
432,288,93905,1,0,0:0:0:0:
456,192,94065,2,0,L|366:188,1,90,0|0,0:0|0:0,0:0:0:0:
276,236,94384,1,0,0:0:0:0:
288,84,94544,2,0,L|378:88,1,90,0|8,0:0|0:0,0:0:0:0:
476,96,94863,5,0,0:0:0:0:
372,264,95022,1,0,0:0:0:0:
372,264,95102,1,0,0:0:0:0:
372,264,95182,1,0,0:0:0:0:
328,92,95341,1,0,0:0:0:0:
400,172,95501,1,0,0:0:0:0:
280,288,95660,1,8,0:0:0:0:
252,40,95820,1,0,0:0:0:0:
132,156,95979,1,8,0:0:0:0:
32,112,96139,5,0,0:0:0:0:
36,212,96299,1,0,0:0:0:0:
36,212,96379,1,0,0:0:0:0:
36,212,96458,2,0,L|40:304,1,90
112,372,96777,1,0,0:0:0:0:
140,104,97017,1,0,0:0:0:0:
240,240,97256,1,0,0:0:0:0:
408,80,97416,5,0,0:0:0:0:
232,140,97575,1,0,0:0:0:0:
416,180,97735,1,0,0:0:0:0:
220,160,97895,1,0,0:0:0:0:
212,60,98054,6,0,P|164:52|124:56,1,90
300,184,98373,2,0,L|396:184,1,90
408,184,98613,1,0,0:0:0:0:
424,184,98692,1,0,0:0:0:0:
472,96,98852,5,0,0:0:0:0:
472,96,98932,1,0,0:0:0:0:
472,96,99012,1,8,0:0:0:0:
390,184,99171,2,0,L|300:184,1,90
132,104,99490,1,0,0:0:0:0:
148,192,99650,2,0,P|196:168|216:128,1,90,0|8,0:0|0:0,0:0:0:0:
200,40,99969,5,0,0:0:0:0:
148,192,100129,1,0,0:0:0:0:
148,192,100208,1,0,0:0:0:0:
148,192,100288,2,0,L|248:184,1,90,8|0,0:0|0:0,0:0:0:0:
428,256,100607,2,0,L|328:248,1,90,0|8,0:0|0:0,0:0:0:0:
156,328,100926,2,0,L|256:320,1,90,0|8,0:0|0:0,0:0:0:0:
304,252,101246,5,0,0:0:0:0:
304,252,101405,1,0,0:0:0:0:
364,332,101565,1,0,0:0:0:0:
407,340,101644,1,0,0:0:0:0:
449,326,101724,1,0,0:0:0:0:
479,293,101804,1,0,0:0:0:0:
488,249,101884,1,0,0:0:0:0:
396,164,102043,5,0,0:0:0:0:
396,164,102203,1,0,0:0:0:0:
248,340,102363,2,0,P|188:325|160:212,1,180
164,200,102762,1,0,0:0:0:0:
176,180,102841,1,0,0:0:0:0:
248,71,103001,6,0,L|252:116,1,45
320,164,103160,2,0,L|316:208,1,45
256,272,103320,1,0,0:0:0:0:
80,316,103480,5,0,0:0:0:0:
44,224,103639,1,0,0:0:0:0:
40,200,103719,1,0,0:0:0:0:
36,176,103799,1,0,0:0:0:0:
20,80,103958,1,0,0:0:0:0:
112,112,104118,5,0,0:0:0:0:
153,127,104197,1,0,0:0:0:0:
197,120,104277,1,0,0:0:0:0:
231,92,104357,1,0,0:0:0:0:
247,50,104437,5,0,0:0:0:0:
324,116,104597,1,8,0:0:0:0:
336,20,104756,1,0,0:0:0:0:
256,184,104916,1,8,0:0:0:0:
164,216,105075,1,0,0:0:0:0:
244,276,105235,5,0,0:0:0:0:
244,276,105315,1,0,0:0:0:0:
244,276,105395,2,0,L|304:260,2,60
160,304,105714,2,0,L|68:292,1,90,0|8,0:0|0:0,0:0:0:0:
284,352,106033,2,0,L|372:324,1,90,0|8,0:0|0:0,0:0:0:0:
464,296,106352,5,0,0:0:0:0:
404,172,106512,1,0,0:0:0:0:
400,200,106591,1,0,0:0:0:0:
396,228,106671,1,8,0:0:0:0:
300,360,106831,2,0,L|308:264,1,90
272,80,107230,1,0,0:0:0:0:
180,200,107469,2,0,P|124:216|52:132,1,180,8|0,0:0|0:0,0:0:0:0:
100,48,107948,6,0,L|112:24,7,22.5
88,148,108426,1,8,0:0:0:0:
16,36,108586,1,0,0:0:0:0:
16,200,108746,1,8,0:0:0:0:
104,244,108905,5,0,0:0:0:0:
185,172,109065,1,0,0:0:0:0:
185,172,109145,1,0,0:0:0:0:
185,172,109224,2,0,L|183:78,1,90,4|0,0:0|0:0,0:0:0:0:
114,10,109543,1,0,0:0:0:0:
280,148,109703,2,0,L|376:140,1,90,4|0,0:0|0:0,0:0:0:0:
464,104,110022,1,4,0:0:0:0:
356,244,110182,5,0,0:0:0:0:
355,278,110262,1,0,0:0:0:0:
335,307,110342,1,0,0:0:0:0:
306,326,110422,1,0,0:0:0:0:
272,335,110502,1,0,0:0:0:0:
237,328,110581,1,0,0:0:0:0:
211,304,110661,1,0,0:0:0:0:
195,275,110741,1,0,0:0:0:0:
171,246,110821,1,0,0:0:0:0:
142,227,110901,1,0,0:0:0:0:
107,226,110980,1,0,0:0:0:0:
75,240,111060,1,0,0:0:0:0:
52,267,111140,1,0,0:0:0:0:
42,301,111220,1,0,0:0:0:0:
46,336,111300,1,0,0:0:0:0:
