osu file format v12

[General]
AudioFilename: Fadingstar.mp3
AudioLeadIn: 0
PreviewTime: -1
Countdown: 0
SampleSet: None
StackLeniency: 0.7
Mode: 3
LetterboxInBreaks: 1

[Editor]
DistanceSpacing: 1
BeatDivisor: 4
GridSize: 8

[Metadata]
Title:Fading Star
TitleUnicode:Fading Star
Artist:ginkiha obj: Akaibito
ArtistUnicode:ginkiha 差分 赤い人
Creator:Doorknob
Version:Lv.02 HARD
Source:BMS
Tags:
BeatmapID:252760
BeatmapSetID:93757

[Difficulty]
HPDrainRate:7
CircleSize:7
OverallDifficulty:7
ApproachRate:5
SliderMultiplier:1
SliderTickRate:1

[Events]
//Background and Video events
0,0,"fs.png",0,0
//Break Periods
//Storyboard Layer 0 (Background)
//Storyboard Layer 1 (Fail)
//Storyboard Layer 2 (Pass)
//Storyboard Layer 3 (Foreground)
//Storyboard Sound Samples
//Background Colour Transformations
3,100,163,162,255

[TimingPoints]
0,428.571428571429,4,2,0,0,1,0

[HitObjects]
36,192,6857,1,0,0:0:0:0:
475,192,7178,1,0,0:0:0:0:
329,192,7500,1,0,0:0:0:0:
182,192,7821,1,0,0:0:0:0:
109,192,8142,1,0,0:0:0:0:
36,192,8357,1,0,0:0:0:0:
329,192,8571,1,0,0:0:0:0:
182,192,8892,1,0,0:0:0:0:
329,192,9214,1,0,0:0:0:0:
402,192,9535,1,0,0:0:0:0:
475,192,9857,1,0,0:0:0:0:
256,192,10071,1,0,0:0:0:0:
36,192,10285,1,0,0:0:0:0:
475,192,10607,1,0,0:0:0:0:
329,192,10928,1,0,0:0:0:0:
182,192,11250,1,0,0:0:0:0:
109,192,11571,1,0,0:0:0:0:
36,192,11785,1,0,0:0:0:0:
329,192,12000,1,0,0:0:0:0:
182,192,12321,1,0,0:0:0:0:
329,192,12642,1,0,0:0:0:0:
475,192,12964,1,0,0:0:0:0:
329,192,13285,1,0,0:0:0:0:
182,192,13500,1,0,0:0:0:0:
36,192,13714,1,0,0:0:0:0:
475,192,14035,1,0,0:0:0:0:
329,192,14357,1,0,0:0:0:0:
182,192,14678,1,0,0:0:0:0:
109,192,15000,1,0,0:0:0:0:
36,192,15214,1,0,0:0:0:0:
329,192,15428,1,0,0:0:0:0:
182,192,15750,1,0,0:0:0:0:
329,192,16071,1,0,0:0:0:0:
402,192,16392,1,0,0:0:0:0:
475,192,16714,1,0,0:0:0:0:
256,192,16928,1,0,0:0:0:0:
36,192,17142,1,0,0:0:0:0:
475,192,17464,1,0,0:0:0:0:
329,192,17785,1,0,0:0:0:0:
182,192,18107,1,0,0:0:0:0:
109,192,18428,1,0,0:0:0:0:
36,192,18642,1,0,0:0:0:0:
329,192,18857,1,0,0:0:0:0:
182,192,19178,1,0,0:0:0:0:
329,192,19500,1,0,0:0:0:0:
475,192,19821,1,0,0:0:0:0:
329,192,20142,1,0,0:0:0:0:
182,192,20357,1,0,0:0:0:0:
36,192,20571,1,0,0:0:0:0:
256,192,20571,1,0,0:0:0:0:
402,192,20571,1,0,0:0:0:0:
109,192,20678,1,0,0:0:0:0:
182,192,20785,1,0,0:0:0:0:
256,192,20892,1,0,0:0:0:0:
475,192,20892,1,0,0:0:0:0:
109,192,21000,1,0,0:0:0:0:
182,192,21107,1,0,0:0:0:0:
256,192,21214,1,0,0:0:0:0:
402,192,21214,1,0,0:0:0:0:
329,192,21321,1,0,0:0:0:0:
109,192,21428,1,0,0:0:0:0:
182,192,21535,1,0,0:0:0:0:
402,192,21535,1,0,0:0:0:0:
256,192,21642,1,0,0:0:0:0:
329,192,21750,1,0,0:0:0:0:
109,192,21857,1,0,0:0:0:0:
182,192,21857,1,0,0:0:0:0:
256,192,21964,1,0,0:0:0:0:
36,192,22071,1,0,0:0:0:0:
329,192,22071,1,0,0:0:0:0:
475,192,22071,1,0,0:0:0:0:
402,192,22178,1,0,0:0:0:0:
36,192,22285,1,0,0:0:0:0:
182,192,22285,1,0,0:0:0:0:
475,192,22285,1,0,0:0:0:0:
256,192,22392,1,0,0:0:0:0:
329,192,22500,1,0,0:0:0:0:
182,192,22607,1,0,0:0:0:0:
402,192,22607,1,0,0:0:0:0:
36,192,22714,1,0,0:0:0:0:
109,192,22821,1,0,0:0:0:0:
182,192,22928,1,0,0:0:0:0:
329,192,22928,1,0,0:0:0:0:
256,192,23035,1,0,0:0:0:0:
329,192,23142,1,0,0:0:0:0:
256,192,23250,1,0,0:0:0:0:
402,192,23250,1,0,0:0:0:0:
182,192,23357,1,0,0:0:0:0:
109,192,23464,1,0,0:0:0:0:
36,192,23571,1,0,0:0:0:0:
475,192,23571,1,0,0:0:0:0:
109,192,23678,1,0,0:0:0:0:
182,192,23785,1,0,0:0:0:0:
402,192,23785,1,0,0:0:0:0:
256,192,23892,1,0,0:0:0:0:
36,192,24000,1,0,0:0:0:0:
329,192,24000,1,0,0:0:0:0:
475,192,24000,1,0,0:0:0:0:
109,192,24107,1,0,0:0:0:0:
182,192,24214,1,0,0:0:0:0:
256,192,24321,1,0,0:0:0:0:
475,192,24321,1,0,0:0:0:0:
329,192,24428,1,0,0:0:0:0:
182,192,24535,1,0,0:0:0:0:
256,192,24642,1,0,0:0:0:0:
402,192,24642,1,0,0:0:0:0:
329,192,24750,1,0,0:0:0:0:
182,192,24857,1,0,0:0:0:0:
36,192,24964,1,0,0:0:0:0:
256,192,24964,1,0,0:0:0:0:
329,192,25071,1,0,0:0:0:0:
402,192,25178,1,0,0:0:0:0:
109,192,25285,1,0,0:0:0:0:
256,192,25285,1,0,0:0:0:0:
329,192,25392,1,0,0:0:0:0:
36,192,25500,1,0,0:0:0:0:
182,192,25500,1,0,0:0:0:0:
402,192,25500,1,0,0:0:0:0:
256,192,25607,1,0,0:0:0:0:
36,192,25714,1,0,0:0:0:0:
182,192,25714,1,0,0:0:0:0:
475,192,25714,1,0,0:0:0:0:
256,192,25821,1,0,0:0:0:0:
329,192,25928,1,0,0:0:0:0:
36,192,26035,1,0,0:0:0:0:
109,192,26035,1,0,0:0:0:0:
402,192,26035,1,0,0:0:0:0:
182,192,26142,1,0,0:0:0:0:
256,192,26250,1,0,0:0:0:0:
36,192,26357,1,0,0:0:0:0:
329,192,26357,1,0,0:0:0:0:
475,192,26357,1,0,0:0:0:0:
402,192,26464,1,0,0:0:0:0:
182,192,26571,1,0,0:0:0:0:
36,192,26678,1,0,0:0:0:0:
256,192,26678,1,0,0:0:0:0:
475,192,26678,1,0,0:0:0:0:
329,192,26785,1,0,0:0:0:0:
402,192,26892,1,0,0:0:0:0:
36,192,27000,1,0,0:0:0:0:
182,192,27000,1,0,0:0:0:0:
475,192,27000,1,0,0:0:0:0:
402,192,27107,1,0,0:0:0:0:
36,192,27214,1,0,0:0:0:0:
109,192,27214,1,0,0:0:0:0:
329,192,27214,1,0,0:0:0:0:
256,192,27321,1,0,0:0:0:0:
36,192,27428,1,0,0:0:0:0:
182,192,27428,1,0,0:0:0:0:
402,192,27428,1,0,0:0:0:0:
256,192,27535,1,0,0:0:0:0:
329,192,27642,1,0,0:0:0:0:
182,192,27750,1,0,0:0:0:0:
402,192,27750,1,0,0:0:0:0:
36,192,27857,1,0,0:0:0:0:
256,192,27857,1,0,0:0:0:0:
182,192,27964,1,0,0:0:0:0:
329,192,28071,1,0,0:0:0:0:
475,192,28071,1,0,0:0:0:0:
256,192,28178,1,0,0:0:0:0:
36,192,28285,1,0,0:0:0:0:
109,192,28285,1,0,0:0:0:0:
182,192,28392,1,0,0:0:0:0:
329,192,28392,1,0,0:0:0:0:
402,192,28500,1,0,0:0:0:0:
475,192,28607,1,0,0:0:0:0:
36,192,28714,1,0,0:0:0:0:
182,192,28714,1,0,0:0:0:0:
402,192,28714,1,0,0:0:0:0:
256,192,28821,1,0,0:0:0:0:
36,192,28928,1,0,0:0:0:0:
109,192,28928,1,0,0:0:0:0:
329,192,28928,1,0,0:0:0:0:
402,192,29035,1,0,0:0:0:0:
36,192,29142,1,0,0:0:0:0:
182,192,29142,1,0,0:0:0:0:
475,192,29142,1,0,0:0:0:0:
256,192,29250,1,0,0:0:0:0:
329,192,29357,1,0,0:0:0:0:
182,192,29464,1,0,0:0:0:0:
402,192,29464,1,0,0:0:0:0:
36,192,29571,1,0,0:0:0:0:
109,192,29571,1,0,0:0:0:0:
182,192,29678,1,0,0:0:0:0:
256,192,29785,1,0,0:0:0:0:
402,192,29785,1,0,0:0:0:0:
329,192,29892,1,0,0:0:0:0:
36,192,30000,1,0,0:0:0:0:
475,192,30000,1,0,0:0:0:0:
182,192,30107,1,0,0:0:0:0:
402,192,30107,1,0,0:0:0:0:
329,192,30214,1,0,0:0:0:0:
256,192,30321,1,0,0:0:0:0:
36,192,30428,1,0,0:0:0:0:
182,192,30428,1,0,0:0:0:0:
475,192,30428,1,0,0:0:0:0:
256,192,30535,1,0,0:0:0:0:
109,192,30642,1,0,0:0:0:0:
329,192,30642,1,0,0:0:0:0:
402,192,30750,1,0,0:0:0:0:
36,192,30857,1,0,0:0:0:0:
182,192,30857,1,0,0:0:0:0:
475,192,30857,1,0,0:0:0:0:
402,192,30964,1,0,0:0:0:0:
329,192,31071,1,0,0:0:0:0:
256,192,31178,1,0,0:0:0:0:
475,192,31178,1,0,0:0:0:0:
36,192,31285,1,0,0:0:0:0:
109,192,31285,1,0,0:0:0:0:
182,192,31392,1,0,0:0:0:0:
256,192,31500,1,0,0:0:0:0:
402,192,31500,1,0,0:0:0:0:
329,192,31607,1,0,0:0:0:0:
36,192,31714,1,0,0:0:0:0:
109,192,31714,1,0,0:0:0:0:
182,192,31821,1,0,0:0:0:0:
402,192,31821,1,0,0:0:0:0:
256,192,31928,1,0,0:0:0:0:
329,192,32035,1,0,0:0:0:0:
36,192,32142,1,0,0:0:0:0:
182,192,32142,1,0,0:0:0:0:
402,192,32142,1,0,0:0:0:0:
256,192,32250,1,0,0:0:0:0:
36,192,32357,1,0,0:0:0:0:
109,192,32357,1,0,0:0:0:0:
329,192,32357,1,0,0:0:0:0:
402,192,32464,1,0,0:0:0:0:
36,192,32571,1,0,0:0:0:0:
182,192,32571,1,0,0:0:0:0:
329,192,32571,1,0,0:0:0:0:
475,192,32571,1,0,0:0:0:0:
256,192,32678,1,0,0:0:0:0:
402,192,32678,1,0,0:0:0:0:
109,192,32785,1,0,0:0:0:0:
329,192,32785,1,0,0:0:0:0:
36,192,32892,1,0,0:0:0:0:
182,192,32892,1,0,0:0:0:0:
256,192,32892,1,0,0:0:0:0:
402,192,32892,1,0,0:0:0:0:
109,192,33000,1,0,0:0:0:0:
475,192,33000,1,0,0:0:0:0:
182,192,33107,1,0,0:0:0:0:
329,192,33107,1,0,0:0:0:0:
36,192,33214,1,0,0:0:0:0:
256,192,33214,1,0,0:0:0:0:
402,192,33214,1,0,0:0:0:0:
475,192,33214,1,0,0:0:0:0:
109,192,33321,1,0,0:0:0:0:
329,192,33321,1,0,0:0:0:0:
182,192,33428,1,0,0:0:0:0:
475,192,33428,1,0,0:0:0:0:
36,192,33535,1,0,0:0:0:0:
256,192,33535,1,0,0:0:0:0:
329,192,33535,1,0,0:0:0:0:
402,192,33535,1,0,0:0:0:0:
109,192,33642,1,0,0:0:0:0:
475,192,33642,1,0,0:0:0:0:
182,192,33750,1,0,0:0:0:0:
329,192,33750,1,0,0:0:0:0:
36,192,33857,1,0,0:0:0:0:
256,192,33857,1,0,0:0:0:0:
402,192,33857,1,0,0:0:0:0:
475,192,33857,1,0,0:0:0:0:
109,192,33964,1,0,0:0:0:0:
329,192,33964,1,0,0:0:0:0:
36,192,34071,1,0,0:0:0:0:
182,192,34071,1,0,0:0:0:0:
402,192,34071,1,0,0:0:0:0:
475,192,34071,1,0,0:0:0:0:
256,192,34178,1,0,0:0:0:0:
329,192,34178,1,0,0:0:0:0:
36,192,34285,1,0,0:0:0:0:
475,192,34285,1,0,0:0:0:0:
182,192,34500,1,0,0:0:0:0:
36,192,34714,1,0,0:0:0:0:
182,192,34714,1,0,0:0:0:0:
475,192,34821,1,0,0:0:0:0:
475,192,35035,1,0,0:0:0:0:
36,192,35142,1,0,0:0:0:0:
402,192,35142,1,0,0:0:0:0:
402,192,35357,1,0,0:0:0:0:
329,192,35464,1,0,0:0:0:0:
36,192,35571,1,0,0:0:0:0:
329,192,35678,1,0,0:0:0:0:
256,192,35785,1,0,0:0:0:0:
36,192,36000,1,0,0:0:0:0:
256,192,36000,1,0,0:0:0:0:
256,192,36214,1,0,0:0:0:0:
36,192,36428,1,0,0:0:0:0:
256,192,36428,1,0,0:0:0:0:
402,192,36535,1,0,0:0:0:0:
256,192,36750,1,0,0:0:0:0:
36,192,36857,1,0,0:0:0:0:
402,192,36857,1,0,0:0:0:0:
256,192,37071,1,0,0:0:0:0:
402,192,37178,1,0,0:0:0:0:
36,192,37285,1,0,0:0:0:0:
256,192,37392,1,0,0:0:0:0:
402,192,37500,1,0,0:0:0:0:
36,192,37714,1,0,0:0:0:0:
256,192,37714,1,0,0:0:0:0:
182,192,37928,1,0,0:0:0:0:
36,192,38142,1,0,0:0:0:0:
182,192,38142,1,0,0:0:0:0:
475,192,38250,1,0,0:0:0:0:
475,192,38464,1,0,0:0:0:0:
36,192,38571,1,0,0:0:0:0:
402,192,38571,1,0,0:0:0:0:
402,192,38785,1,0,0:0:0:0:
329,192,38892,1,0,0:0:0:0:
36,192,39000,1,0,0:0:0:0:
329,192,39107,1,0,0:0:0:0:
256,192,39214,1,0,0:0:0:0:
36,192,39428,1,0,0:0:0:0:
256,192,39428,1,0,0:0:0:0:
402,192,39642,1,0,0:0:0:0:
36,192,39857,1,0,0:0:0:0:
402,192,39857,1,0,0:0:0:0:
256,192,39964,1,0,0:0:0:0:
256,192,40178,1,0,0:0:0:0:
36,192,40285,1,0,0:0:0:0:
475,192,40285,1,0,0:0:0:0:
475,192,40500,1,0,0:0:0:0:
329,192,40607,1,0,0:0:0:0:
36,192,40714,1,0,0:0:0:0:
329,192,40821,1,0,0:0:0:0:
36,192,40928,1,0,0:0:0:0:
182,192,40928,1,0,0:0:0:0:
36,192,41142,1,0,0:0:0:0:
256,192,41142,1,0,0:0:0:0:
402,192,41142,1,0,0:0:0:0:
182,192,41357,1,0,0:0:0:0:
475,192,41357,1,0,0:0:0:0:
36,192,41571,1,0,0:0:0:0:
182,192,41571,1,0,0:0:0:0:
402,192,41571,1,0,0:0:0:0:
329,192,41678,1,0,0:0:0:0:
475,192,41785,1,0,0:0:0:0:
329,192,41892,1,0,0:0:0:0:
36,192,42000,1,0,0:0:0:0:
109,192,42000,1,0,0:0:0:0:
256,192,42000,1,0,0:0:0:0:
402,192,42107,1,0,0:0:0:0:
256,192,42214,1,0,0:0:0:0:
475,192,42214,1,0,0:0:0:0:
182,192,42321,1,0,0:0:0:0:
36,192,42428,1,0,0:0:0:0:
402,192,42428,1,0,0:0:0:0:
182,192,42535,1,0,0:0:0:0:
329,192,42535,1,0,0:0:0:0:
109,192,42642,1,0,0:0:0:0:
475,192,42642,1,0,0:0:0:0:
36,192,42857,1,0,0:0:0:0:
256,192,42857,1,0,0:0:0:0:
402,192,42857,1,0,0:0:0:0:
182,192,43071,1,0,0:0:0:0:
475,192,43071,1,0,0:0:0:0:
36,192,43285,1,0,0:0:0:0:
182,192,43285,1,0,0:0:0:0:
402,192,43285,1,0,0:0:0:0:
329,192,43392,1,0,0:0:0:0:
475,192,43500,1,0,0:0:0:0:
182,192,43607,1,0,0:0:0:0:
36,192,43714,1,0,0:0:0:0:
256,192,43714,1,0,0:0:0:0:
329,192,43714,1,0,0:0:0:0:
402,192,43821,1,0,0:0:0:0:
182,192,43928,1,0,0:0:0:0:
475,192,43928,1,0,0:0:0:0:
329,192,44035,1,0,0:0:0:0:
36,192,44142,1,0,0:0:0:0:
256,192,44142,1,0,0:0:0:0:
182,192,44250,1,0,0:0:0:0:
402,192,44250,1,0,0:0:0:0:
329,192,44357,1,0,0:0:0:0:
475,192,44357,1,0,0:0:0:0:
36,192,44571,1,0,0:0:0:0:
256,192,44571,1,0,0:0:0:0:
402,192,44571,1,0,0:0:0:0:
182,192,44785,1,0,0:0:0:0:
475,192,44785,1,0,0:0:0:0:
36,192,45000,1,0,0:0:0:0:
182,192,45000,1,0,0:0:0:0:
329,192,45000,1,0,0:0:0:0:
402,192,45107,1,0,0:0:0:0:
475,192,45214,1,0,0:0:0:0:
402,192,45321,1,0,0:0:0:0:
36,192,45428,1,0,0:0:0:0:
256,192,45428,1,0,0:0:0:0:
329,192,45428,1,0,0:0:0:0:
182,192,45535,1,0,0:0:0:0:
402,192,45535,1,0,0:0:0:0:
329,192,45642,1,0,0:0:0:0:
475,192,45642,1,0,0:0:0:0:
256,192,45750,1,0,0:0:0:0:
36,192,45857,1,0,0:0:0:0:
402,192,45857,1,0,0:0:0:0:
109,192,45964,1,0,0:0:0:0:
256,192,45964,1,0,0:0:0:0:
182,192,46071,1,0,0:0:0:0:
475,192,46071,1,0,0:0:0:0:
36,192,46285,1,0,0:0:0:0:
256,192,46285,1,0,0:0:0:0:
402,192,46285,1,0,0:0:0:0:
329,192,46500,1,0,0:0:0:0:
475,192,46500,1,0,0:0:0:0:
36,192,46714,1,0,0:0:0:0:
329,192,46714,1,0,0:0:0:0:
402,192,46714,1,0,0:0:0:0:
182,192,46821,1,0,0:0:0:0:
475,192,46928,1,0,0:0:0:0:
182,192,47035,1,0,0:0:0:0:
36,192,47142,1,0,0:0:0:0:
256,192,47142,1,0,0:0:0:0:
329,192,47142,1,0,0:0:0:0:
109,192,47250,1,0,0:0:0:0:
402,192,47250,1,0,0:0:0:0:
329,192,47357,1,0,0:0:0:0:
475,192,47357,1,0,0:0:0:0:
256,192,47464,1,0,0:0:0:0:
36,192,47571,1,0,0:0:0:0:
402,192,47571,1,0,0:0:0:0:
109,192,47678,1,0,0:0:0:0:
256,192,47678,1,0,0:0:0:0:
182,192,47785,1,0,0:0:0:0:
475,192,47785,1,0,0:0:0:0:
36,192,48000,1,0,0:0:0:0:
256,192,48642,1,0,0:0:0:0:
402,192,49285,1,0,0:0:0:0:
36,192,49714,1,0,0:0:0:0:
256,192,49714,1,0,0:0:0:0:
402,192,49714,1,0,0:0:0:0:
475,192,49821,1,0,0:0:0:0:
329,192,49928,1,0,0:0:0:0:
182,192,50035,1,0,0:0:0:0:
36,192,50142,1,0,0:0:0:0:
402,192,50142,1,0,0:0:0:0:
475,192,50142,1,0,0:0:0:0:
256,192,50250,1,0,0:0:0:0:
329,192,50357,1,0,0:0:0:0:
182,192,50464,1,0,0:0:0:0:
475,192,50464,1,0,0:0:0:0:
36,192,50571,1,0,0:0:0:0:
256,192,50571,1,0,0:0:0:0:
109,192,50678,1,0,0:0:0:0:
402,192,50678,1,0,0:0:0:0:
329,192,50785,1,0,0:0:0:0:
182,192,50892,1,0,0:0:0:0:
36,192,51000,1,0,0:0:0:0:
109,192,51000,1,0,0:0:0:0:
256,192,51000,1,0,0:0:0:0:
402,192,51000,1,0,0:0:0:0:
475,192,51000,1,0,0:0:0:0:
329,192,51107,1,0,0:0:0:0:
182,192,51142,1,0,0:0:0:0:
475,192,51214,1,0,0:0:0:0:
256,192,51285,1,0,0:0:0:0:
109,192,51321,1,0,0:0:0:0:
36,192,51428,1,0,0:0:0:0:
329,192,51428,1,0,0:0:0:0:
475,192,51428,1,0,0:0:0:0:
256,192,51535,1,0,0:0:0:0:
182,192,51642,1,0,0:0:0:0:
402,192,51642,1,0,0:0:0:0:
109,192,51750,1,0,0:0:0:0:
36,192,51857,1,0,0:0:0:0:
256,192,51857,1,0,0:0:0:0:
329,192,51857,1,0,0:0:0:0:
475,192,51857,1,0,0:0:0:0:
402,192,51964,1,0,0:0:0:0:
182,192,52071,1,0,0:0:0:0:
475,192,52178,1,0,0:0:0:0:
36,192,52285,1,0,0:0:0:0:
109,192,52285,1,0,0:0:0:0:
256,192,52285,1,0,0:0:0:0:
402,192,52285,1,0,0:0:0:0:
182,192,52392,1,0,0:0:0:0:
475,192,52392,1,0,0:0:0:0:
402,192,52500,1,0,0:0:0:0:
256,192,52607,1,0,0:0:0:0:
36,192,52714,1,0,0:0:0:0:
182,192,52714,1,0,0:0:0:0:
329,192,52714,1,0,0:0:0:0:
475,192,52714,1,0,0:0:0:0:
402,192,52821,1,0,0:0:0:0:
256,192,52928,1,0,0:0:0:0:
109,192,53035,1,0,0:0:0:0:
36,192,53142,1,0,0:0:0:0:
329,192,53142,1,0,0:0:0:0:
475,192,53142,1,0,0:0:0:0:
182,192,53250,1,0,0:0:0:0:
109,192,53357,1,0,0:0:0:0:
402,192,53357,1,0,0:0:0:0:
256,192,53464,1,0,0:0:0:0:
36,192,53571,1,0,0:0:0:0:
182,192,53571,1,0,0:0:0:0:
475,192,53571,1,0,0:0:0:0:
329,192,53678,1,0,0:0:0:0:
109,192,53785,1,0,0:0:0:0:
402,192,53785,1,0,0:0:0:0:
256,192,53892,1,0,0:0:0:0:
36,192,54000,1,0,0:0:0:0:
329,192,54000,1,0,0:0:0:0:
182,192,54107,1,0,0:0:0:0:
402,192,54214,1,0,0:0:0:0:
329,192,54321,1,0,0:0:0:0:
36,192,54428,1,0,0:0:0:0:
109,192,54428,1,0,0:0:0:0:
256,192,54428,1,0,0:0:0:0:
475,192,54428,1,0,0:0:0:0:
329,192,54535,1,0,0:0:0:0:
182,192,54571,1,0,0:0:0:0:
402,192,54642,1,0,0:0:0:0:
256,192,54714,1,0,0:0:0:0:
109,192,54750,1,0,0:0:0:0:
36,192,54857,1,0,0:0:0:0:
182,192,54857,1,0,0:0:0:0:
402,192,54857,1,0,0:0:0:0:
475,192,54857,1,0,0:0:0:0:
329,192,54964,1,0,0:0:0:0:
256,192,55071,1,0,0:0:0:0:
109,192,55178,1,0,0:0:0:0:
402,192,55178,1,0,0:0:0:0:
36,192,55285,1,0,0:0:0:0:
182,192,55285,1,0,0:0:0:0:
329,192,55285,1,0,0:0:0:0:
475,192,55285,1,0,0:0:0:0:
256,192,55392,1,0,0:0:0:0:
329,192,55500,1,0,0:0:0:0:
109,192,55607,1,0,0:0:0:0:
475,192,55607,1,0,0:0:0:0:
36,192,55714,1,0,0:0:0:0:
256,192,55714,1,0,0:0:0:0:
402,192,55714,1,0,0:0:0:0:
182,192,55821,1,0,0:0:0:0:
402,192,55928,1,0,0:0:0:0:
109,192,56035,1,0,0:0:0:0:
36,192,56142,1,0,0:0:0:0:
256,192,56142,1,0,0:0:0:0:
329,192,56142,1,0,0:0:0:0:
475,192,56142,1,0,0:0:0:0:
182,192,56250,1,0,0:0:0:0:
109,192,56357,1,0,0:0:0:0:
256,192,56357,1,0,0:0:0:0:
402,192,56464,1,0,0:0:0:0:
36,192,56571,1,0,0:0:0:0:
329,192,56571,1,0,0:0:0:0:
475,192,56571,1,0,0:0:0:0:
256,192,56678,1,0,0:0:0:0:
109,192,56785,1,0,0:0:0:0:
402,192,56785,1,0,0:0:0:0:
256,192,56892,1,0,0:0:0:0:
36,192,57000,1,0,0:0:0:0:
182,192,57000,1,0,0:0:0:0:
475,192,57000,1,0,0:0:0:0:
329,192,57107,1,0,0:0:0:0:
109,192,57214,1,0,0:0:0:0:
402,192,57214,1,0,0:0:0:0:
182,192,57321,1,0,0:0:0:0:
36,192,57428,1,0,0:0:0:0:
329,192,57428,1,0,0:0:0:0:
182,192,57535,1,0,0:0:0:0:
475,192,57535,1,0,0:0:0:0:
109,192,57642,1,0,0:0:0:0:
256,192,57750,1,0,0:0:0:0:
36,192,57857,1,0,0:0:0:0:
182,192,57857,1,0,0:0:0:0:
402,192,57857,1,0,0:0:0:0:
475,192,57857,1,0,0:0:0:0:
329,192,57964,1,0,0:0:0:0:
256,192,58000,1,0,0:0:0:0:
109,192,58071,1,0,0:0:0:0:
182,192,58142,1,0,0:0:0:0:
402,192,58178,1,0,0:0:0:0:
36,192,58285,1,0,0:0:0:0:
109,192,58285,1,0,0:0:0:0:
256,192,58285,1,0,0:0:0:0:
475,192,58285,1,0,0:0:0:0:
329,192,58392,1,0,0:0:0:0:
402,192,58500,1,0,0:0:0:0:
109,192,58607,1,0,0:0:0:0:
329,192,58607,1,0,0:0:0:0:
36,192,58714,1,0,0:0:0:0:
182,192,58714,1,0,0:0:0:0:
256,192,58714,1,0,0:0:0:0:
475,192,58714,1,0,0:0:0:0:
329,192,58821,1,0,0:0:0:0:
182,192,58928,1,0,0:0:0:0:
402,192,59035,1,0,0:0:0:0:
36,192,59142,1,0,0:0:0:0:
109,192,59142,1,0,0:0:0:0:
256,192,59142,1,0,0:0:0:0:
329,192,59142,1,0,0:0:0:0:
475,192,59250,1,0,0:0:0:0:
329,192,59357,1,0,0:0:0:0:
182,192,59464,1,0,0:0:0:0:
36,192,59571,1,0,0:0:0:0:
256,192,59571,1,0,0:0:0:0:
402,192,59571,1,0,0:0:0:0:
475,192,59571,1,0,0:0:0:0:
109,192,59678,1,0,0:0:0:0:
329,192,59678,1,0,0:0:0:0:
256,192,59785,1,0,0:0:0:0:
182,192,59892,1,0,0:0:0:0:
402,192,59892,1,0,0:0:0:0:
36,192,60000,1,0,0:0:0:0:
329,192,60000,1,0,0:0:0:0:
475,192,60000,1,0,0:0:0:0:
256,192,60107,1,0,0:0:0:0:
402,192,60214,1,0,0:0:0:0:
109,192,60321,1,0,0:0:0:0:
36,192,60428,1,0,0:0:0:0:
329,192,60428,1,0,0:0:0:0:
475,192,60428,1,0,0:0:0:0:
182,192,60535,1,0,0:0:0:0:
109,192,60642,1,0,0:0:0:0:
329,192,60642,1,0,0:0:0:0:
256,192,60750,1,0,0:0:0:0:
475,192,60750,1,0,0:0:0:0:
36,192,60857,1,0,0:0:0:0:
182,192,60857,1,0,0:0:0:0:
475,192,60964,1,0,0:0:0:0:
109,192,61071,1,0,0:0:0:0:
402,192,61071,1,0,0:0:0:0:
256,192,61178,1,0,0:0:0:0:
36,192,61285,1,0,0:0:0:0:
182,192,61285,1,0,0:0:0:0:
402,192,61285,1,0,0:0:0:0:
475,192,61285,1,0,0:0:0:0:
329,192,61392,1,0,0:0:0:0:
256,192,61428,1,0,0:0:0:0:
109,192,61500,1,0,0:0:0:0:
402,192,61571,1,0,0:0:0:0:
182,192,61607,1,0,0:0:0:0:
36,192,61714,1,0,0:0:0:0:
109,192,61714,1,0,0:0:0:0:
329,192,61714,1,0,0:0:0:0:
475,192,61714,1,0,0:0:0:0:
402,192,61821,1,0,0:0:0:0:
256,192,61928,1,0,0:0:0:0:
109,192,62035,1,0,0:0:0:0:
329,192,62035,1,0,0:0:0:0:
36,192,62142,1,0,0:0:0:0:
256,192,62142,1,0,0:0:0:0:
402,192,62142,1,0,0:0:0:0:
475,192,62142,1,0,0:0:0:0:
329,192,62250,1,0,0:0:0:0:
182,192,62357,1,0,0:0:0:0:
256,192,62464,1,0,0:0:0:0:
36,192,62571,1,0,0:0:0:0:
182,192,62571,1,0,0:0:0:0:
475,192,62571,1,0,0:0:0:0:
329,192,62678,1,0,0:0:0:0:
109,192,62785,1,0,0:0:0:0:
402,192,62785,1,0,0:0:0:0:
256,192,62892,1,0,0:0:0:0:
36,192,63000,1,0,0:0:0:0:
182,192,63000,1,0,0:0:0:0:
329,192,63000,1,0,0:0:0:0:
475,192,63000,1,0,0:0:0:0:
402,192,63107,1,0,0:0:0:0:
109,192,63214,1,0,0:0:0:0:
256,192,63214,1,0,0:0:0:0:
329,192,63321,1,0,0:0:0:0:
36,192,63428,1,0,0:0:0:0:
182,192,63428,1,0,0:0:0:0:
475,192,63428,1,0,0:0:0:0:
256,192,63535,1,0,0:0:0:0:
402,192,63642,1,0,0:0:0:0:
109,192,63750,1,0,0:0:0:0:
329,192,63750,1,0,0:0:0:0:
36,192,63857,1,0,0:0:0:0:
182,192,63857,1,0,0:0:0:0:
475,192,63857,1,0,0:0:0:0:
256,192,63964,1,0,0:0:0:0:
402,192,64071,1,0,0:0:0:0:
182,192,64178,1,0,0:0:0:0:
36,192,64285,1,0,0:0:0:0:
256,192,64285,1,0,0:0:0:0:
475,192,64285,1,0,0:0:0:0:
329,192,64392,1,0,0:0:0:0:
182,192,64500,1,0,0:0:0:0:
402,192,64500,1,0,0:0:0:0:
329,192,64607,1,0,0:0:0:0:
36,192,64714,1,0,0:0:0:0:
109,192,64714,1,0,0:0:0:0:
256,192,64714,1,0,0:0:0:0:
475,192,64714,1,0,0:0:0:0:
402,192,64821,1,0,0:0:0:0:
182,192,64857,1,0,0:0:0:0:
329,192,64928,1,0,0:0:0:0:
475,192,64999,1,0,0:0:0:0:
182,192,65035,1,0,0:0:0:0:
36,192,65142,1,0,0:0:0:0:
256,192,65142,1,0,0:0:0:0:
402,192,65142,1,0,0:0:0:0:
182,192,65250,1,0,0:0:0:0:
329,192,65357,1,0,0:0:0:0:
109,192,65464,1,0,0:0:0:0:
256,192,65464,1,0,0:0:0:0:
36,192,65571,1,0,0:0:0:0:
329,192,65571,1,0,0:0:0:0:
402,192,65571,1,0,0:0:0:0:
475,192,65571,1,0,0:0:0:0:
256,192,65678,1,0,0:0:0:0:
182,192,65785,1,0,0:0:0:0:
475,192,65892,1,0,0:0:0:0:
36,192,66000,1,0,0:0:0:0:
182,192,66000,1,0,0:0:0:0:
329,192,66000,1,0,0:0:0:0:
256,192,66107,1,0,0:0:0:0:
475,192,66107,1,0,0:0:0:0:
329,192,66214,1,0,0:0:0:0:
182,192,66321,1,0,0:0:0:0:
36,192,66428,1,0,0:0:0:0:
109,192,66428,1,0,0:0:0:0:
329,192,66428,1,0,0:0:0:0:
475,192,66428,1,0,0:0:0:0:
402,192,66535,1,0,0:0:0:0:
182,192,66642,1,0,0:0:0:0:
256,192,66750,1,0,0:0:0:0:
36,192,66857,1,0,0:0:0:0:
329,192,66857,1,0,0:0:0:0:
475,192,66857,1,0,0:0:0:0:
256,192,66964,1,0,0:0:0:0:
402,192,67071,1,0,0:0:0:0:
109,192,67178,1,0,0:0:0:0:
36,192,67285,1,0,0:0:0:0:
256,192,67285,1,0,0:0:0:0:
475,192,67285,1,0,0:0:0:0:
182,192,67392,1,0,0:0:0:0:
402,192,67392,1,0,0:0:0:0:
109,192,67500,1,0,0:0:0:0:
329,192,67500,1,0,0:0:0:0:
475,192,67607,1,0,0:0:0:0:
36,192,67714,1,0,0:0:0:0:
256,192,67714,1,0,0:0:0:0:
402,192,67821,1,0,0:0:0:0:
182,192,67928,1,0,0:0:0:0:
329,192,67928,1,0,0:0:0:0:
256,192,68035,1,0,0:0:0:0:
36,192,68142,1,0,0:0:0:0:
109,192,68142,1,0,0:0:0:0:
329,192,68142,1,0,0:0:0:0:
475,192,68142,1,0,0:0:0:0:
402,192,68250,1,0,0:0:0:0:
256,192,68285,1,0,0:0:0:0:
109,192,68357,1,0,0:0:0:0:
329,192,68428,1,0,0:0:0:0:
182,192,68464,1,0,0:0:0:0:
36,192,68571,1,0,0:0:0:0:
256,192,68571,1,0,0:0:0:0:
475,192,68571,1,0,0:0:0:0:
182,192,68678,1,0,0:0:0:0:
402,192,68678,1,0,0:0:0:0:
329,192,68785,1,0,0:0:0:0:
109,192,68892,1,0,0:0:0:0:
36,192,69000,1,0,0:0:0:0:
182,192,69000,1,0,0:0:0:0:
329,192,69000,1,0,0:0:0:0:
402,192,69000,1,0,0:0:0:0:
475,192,69000,1,0,0:0:0:0:
256,192,69107,1,0,0:0:0:0:
182,192,69214,1,0,0:0:0:0:
109,192,69321,1,0,0:0:0:0:
329,192,69321,1,0,0:0:0:0:
36,192,69428,1,0,0:0:0:0:
256,192,69428,1,0,0:0:0:0:
402,192,69428,1,0,0:0:0:0:
475,192,69535,1,0,0:0:0:0:
329,192,69642,1,0,0:0:0:0:
182,192,69750,1,0,0:0:0:0:
402,192,69750,1,0,0:0:0:0:
36,192,69857,1,0,0:0:0:0:
256,192,69857,1,0,0:0:0:0:
329,192,69857,1,0,0:0:0:0:
475,192,69857,1,0,0:0:0:0:
402,192,69964,1,0,0:0:0:0:
109,192,70071,1,0,0:0:0:0:
182,192,70071,1,0,0:0:0:0:
329,192,70178,1,0,0:0:0:0:
36,192,70285,1,0,0:0:0:0:
256,192,70285,1,0,0:0:0:0:
475,192,70285,1,0,0:0:0:0:
182,192,70392,1,0,0:0:0:0:
402,192,70500,1,0,0:0:0:0:
256,192,70607,1,0,0:0:0:0:
36,192,70714,1,0,0:0:0:0:
109,192,70714,1,0,0:0:0:0:
329,192,70714,1,0,0:0:0:0:
475,192,70714,1,0,0:0:0:0:
182,192,70821,1,0,0:0:0:0:
402,192,70928,1,0,0:0:0:0:
256,192,71035,1,0,0:0:0:0:
36,192,71142,1,0,0:0:0:0:
109,192,71142,1,0,0:0:0:0:
329,192,71142,1,0,0:0:0:0:
182,192,71250,1,0,0:0:0:0:
256,192,71357,1,0,0:0:0:0:
402,192,71357,1,0,0:0:0:0:
329,192,71464,1,0,0:0:0:0:
36,192,71571,1,0,0:0:0:0:
109,192,71571,1,0,0:0:0:0:
182,192,71571,1,0,0:0:0:0:
475,192,71571,1,0,0:0:0:0:
402,192,71678,1,0,0:0:0:0:
256,192,71714,1,0,0:0:0:0:
329,192,71785,1,0,0:0:0:0:
402,192,71857,1,0,0:0:0:0:
182,192,71892,1,0,0:0:0:0:
36,192,72000,1,0,0:0:0:0:
109,192,72000,1,0,0:0:0:0:
475,192,72000,1,0,0:0:0:0:
256,192,72107,1,0,0:0:0:0:
182,192,72214,1,0,0:0:0:0:
402,192,72214,1,0,0:0:0:0:
109,192,72321,1,0,0:0:0:0:
36,192,72428,1,0,0:0:0:0:
182,192,72428,1,0,0:0:0:0:
329,192,72428,1,0,0:0:0:0:
475,192,72428,1,0,0:0:0:0:
256,192,72535,1,0,0:0:0:0:
182,192,72642,1,0,0:0:0:0:
402,192,72750,1,0,0:0:0:0:
36,192,72857,1,0,0:0:0:0:
109,192,72857,1,0,0:0:0:0:
256,192,72857,1,0,0:0:0:0:
329,192,72857,1,0,0:0:0:0:
475,192,72964,1,0,0:0:0:0:
402,192,73071,1,0,0:0:0:0:
182,192,73178,1,0,0:0:0:0:
36,192,73285,1,0,0:0:0:0:
109,192,73285,1,0,0:0:0:0:
256,192,73285,1,0,0:0:0:0:
475,192,73285,1,0,0:0:0:0:
402,192,73392,1,0,0:0:0:0:
182,192,73500,1,0,0:0:0:0:
329,192,73500,1,0,0:0:0:0:
402,192,73607,1,0,0:0:0:0:
36,192,73714,1,0,0:0:0:0:
256,192,73714,1,0,0:0:0:0:
475,192,73714,1,0,0:0:0:0:
182,192,73821,1,0,0:0:0:0:
402,192,73928,1,0,0:0:0:0:
109,192,74035,1,0,0:0:0:0:
329,192,74035,1,0,0:0:0:0:
36,192,74142,1,0,0:0:0:0:
256,192,74142,1,0,0:0:0:0:
475,192,74142,1,0,0:0:0:0:
109,192,74250,1,0,0:0:0:0:
402,192,74250,1,0,0:0:0:0:
329,192,74357,1,0,0:0:0:0:
182,192,74464,1,0,0:0:0:0:
36,192,74571,1,0,0:0:0:0:
256,192,74571,1,0,0:0:0:0:
109,192,74678,1,0,0:0:0:0:
182,192,74785,1,0,0:0:0:0:
402,192,74785,1,0,0:0:0:0:
329,192,74892,1,0,0:0:0:0:
36,192,75000,1,0,0:0:0:0:
109,192,75000,1,0,0:0:0:0:
256,192,75000,1,0,0:0:0:0:
475,192,75000,1,0,0:0:0:0:
182,192,75107,1,0,0:0:0:0:
329,192,75142,1,0,0:0:0:0:
256,192,75214,1,0,0:0:0:0:
475,192,75285,1,0,0:0:0:0:
182,192,75321,1,0,0:0:0:0:
36,192,75428,1,0,0:0:0:0:
109,192,75428,1,0,0:0:0:0:
329,192,75428,1,0,0:0:0:0:
256,192,75535,1,0,0:0:0:0:
402,192,75571,1,0,0:0:0:0:
182,192,75642,1,0,0:0:0:0:
475,192,75642,1,0,0:0:0:0:
329,192,75714,1,0,0:0:0:0:
109,192,75750,1,0,0:0:0:0:
36,192,75857,1,0,0:0:0:0:
256,192,75857,1,0,0:0:0:0:
402,192,75857,1,0,0:0:0:0:
475,192,75857,1,0,0:0:0:0:
329,192,75964,1,0,0:0:0:0:
109,192,76000,1,0,0:0:0:0:
182,192,76071,1,0,0:0:0:0:
402,192,76142,1,0,0:0:0:0:
256,192,76178,1,0,0:0:0:0:
36,192,76285,1,0,0:0:0:0:
329,192,76285,1,0,0:0:0:0:
475,192,76285,1,0,0:0:0:0:
182,192,76392,1,0,0:0:0:0:
402,192,76428,1,0,0:0:0:0:
256,192,76500,1,0,0:0:0:0:
109,192,76571,1,0,0:0:0:0:
329,192,76607,1,0,0:0:0:0:
36,192,76714,1,0,0:0:0:0:
256,192,76714,1,0,0:0:0:0:
402,192,76714,1,0,0:0:0:0:
475,192,76714,1,0,0:0:0:0:
182,192,76821,1,0,0:0:0:0:
109,192,76928,1,0,0:0:0:0:
329,192,76928,1,0,0:0:0:0:
256,192,77035,1,0,0:0:0:0:
36,192,77142,1,0,0:0:0:0:
109,192,77142,1,0,0:0:0:0:
182,192,77142,1,0,0:0:0:0:
402,192,77142,1,0,0:0:0:0:
475,192,77142,1,0,0:0:0:0:
182,192,77357,1,0,0:0:0:0:
36,192,77571,1,0,0:0:0:0:
329,192,77571,1,0,0:0:0:0:
475,192,77571,1,0,0:0:0:0:
329,192,77678,1,0,0:0:0:0:
182,192,77892,1,0,0:0:0:0:
36,192,78000,1,0,0:0:0:0:
402,192,78000,1,0,0:0:0:0:
402,192,78142,1,0,0:0:0:0:
182,192,78214,1,0,0:0:0:0:
402,192,78285,1,0,0:0:0:0:
36,192,78428,1,0,0:0:0:0:
402,192,78428,1,0,0:0:0:0:
475,192,78428,1,0,0:0:0:0:
329,192,78571,1,0,0:0:0:0:
402,192,78571,1,0,0:0:0:0:
109,192,78714,1,0,0:0:0:0:
402,192,78714,1,0,0:0:0:0:
36,192,78857,1,0,0:0:0:0:
182,192,78857,1,0,0:0:0:0:
329,192,78857,1,0,0:0:0:0:
182,192,79000,1,0,0:0:0:0:
329,192,79000,1,0,0:0:0:0:
182,192,79142,1,0,0:0:0:0:
329,192,79142,1,0,0:0:0:0:
36,192,79285,1,0,0:0:0:0:
182,192,79285,1,0,0:0:0:0:
329,192,79285,1,0,0:0:0:0:
475,192,79500,1,0,0:0:0:0:
402,192,79607,1,0,0:0:0:0:
36,192,79714,1,0,0:0:0:0:
109,192,79714,1,0,0:0:0:0:
256,192,79714,1,0,0:0:0:0:
109,192,79857,1,0,0:0:0:0:
256,192,79857,1,0,0:0:0:0:
109,192,80000,1,0,0:0:0:0:
256,192,80000,1,0,0:0:0:0:
36,192,80142,1,0,0:0:0:0:
109,192,80142,1,0,0:0:0:0:
329,192,80142,1,0,0:0:0:0:
36,192,80571,1,0,0:0:0:0:
182,192,80571,1,0,0:0:0:0:
329,192,80571,1,0,0:0:0:0:
182,192,80785,1,0,0:0:0:0:
36,192,81000,1,0,0:0:0:0:
329,192,81000,1,0,0:0:0:0:
475,192,81000,1,0,0:0:0:0:
329,192,81107,1,0,0:0:0:0:
256,192,81321,1,0,0:0:0:0:
36,192,81428,1,0,0:0:0:0:
402,192,81428,1,0,0:0:0:0:
402,192,81571,1,0,0:0:0:0:
256,192,81642,1,0,0:0:0:0:
402,192,81714,1,0,0:0:0:0:
36,192,81857,1,0,0:0:0:0:
402,192,81857,1,0,0:0:0:0:
475,192,81857,1,0,0:0:0:0:
329,192,82000,1,0,0:0:0:0:
402,192,82000,1,0,0:0:0:0:
182,192,82142,1,0,0:0:0:0:
402,192,82142,1,0,0:0:0:0:
36,192,82285,1,0,0:0:0:0:
256,192,82285,1,0,0:0:0:0:
402,192,82285,1,0,0:0:0:0:
256,192,82428,1,0,0:0:0:0:
402,192,82428,1,0,0:0:0:0:
256,192,82571,1,0,0:0:0:0:
402,192,82571,1,0,0:0:0:0:
36,192,82714,1,0,0:0:0:0:
256,192,82714,1,0,0:0:0:0:
402,192,82714,1,0,0:0:0:0:
402,192,82928,1,0,0:0:0:0:
256,192,83035,1,0,0:0:0:0:
36,192,83142,1,0,0:0:0:0:
182,192,83142,1,0,0:0:0:0:
329,192,83142,1,0,0:0:0:0:
182,192,83285,1,0,0:0:0:0:
329,192,83285,1,0,0:0:0:0:
182,192,83428,1,0,0:0:0:0:
329,192,83428,1,0,0:0:0:0:
36,192,83571,1,0,0:0:0:0:
109,192,83571,1,0,0:0:0:0:
329,192,83571,1,0,0:0:0:0:
256,192,83785,1,0,0:0:0:0:
36,192,84000,1,0,0:0:0:0:
182,192,84000,1,0,0:0:0:0:
329,192,84000,1,0,0:0:0:0:
182,192,84214,1,0,0:0:0:0:
36,192,84428,1,0,0:0:0:0:
329,192,84428,1,0,0:0:0:0:
475,192,84428,1,0,0:0:0:0:
329,192,84535,1,0,0:0:0:0:
182,192,84750,1,0,0:0:0:0:
36,192,84857,1,0,0:0:0:0:
109,192,84857,1,0,0:0:0:0:
109,192,85000,1,0,0:0:0:0:
182,192,85071,1,0,0:0:0:0:
109,192,85142,1,0,0:0:0:0:
36,192,85285,1,0,0:0:0:0:
109,192,85285,1,0,0:0:0:0:
475,192,85285,1,0,0:0:0:0:
36,192,85428,1,0,0:0:0:0:
109,192,85428,1,0,0:0:0:0:
402,192,85428,1,0,0:0:0:0:
36,192,85571,1,0,0:0:0:0:
109,192,85571,1,0,0:0:0:0:
329,192,85571,1,0,0:0:0:0:
36,192,85714,1,0,0:0:0:0:
109,192,85714,1,0,0:0:0:0:
256,192,85714,1,0,0:0:0:0:
36,192,85857,1,0,0:0:0:0:
109,192,85857,1,0,0:0:0:0:
256,192,85857,1,0,0:0:0:0:
36,192,85999,1,0,0:0:0:0:
109,192,85999,1,0,0:0:0:0:
256,192,85999,1,0,0:0:0:0:
36,192,86142,1,0,0:0:0:0:
109,192,86142,1,0,0:0:0:0:
475,192,86142,1,0,0:0:0:0:
36,192,86357,1,0,0:0:0:0:
402,192,86357,1,0,0:0:0:0:
182,192,86464,1,0,0:0:0:0:
329,192,86464,1,0,0:0:0:0:
36,192,86571,1,0,0:0:0:0:
109,192,86571,1,0,0:0:0:0:
256,192,86571,1,0,0:0:0:0:
109,192,86714,1,0,0:0:0:0:
256,192,86714,1,0,0:0:0:0:
109,192,86857,1,0,0:0:0:0:
256,192,86857,1,0,0:0:0:0:
36,192,87000,1,0,0:0:0:0:
182,192,87000,1,0,0:0:0:0:
402,192,87000,1,0,0:0:0:0:
36,192,87428,1,0,0:0:0:0:
182,192,87428,1,0,0:0:0:0:
329,192,87428,1,0,0:0:0:0:
182,192,87642,1,0,0:0:0:0:
36,192,87857,1,0,0:0:0:0:
329,192,87857,1,0,0:0:0:0:
475,192,87857,1,0,0:0:0:0:
329,192,87964,1,0,0:0:0:0:
256,192,88178,1,0,0:0:0:0:
36,192,88285,1,0,0:0:0:0:
109,192,88285,1,0,0:0:0:0:
109,192,88428,1,0,0:0:0:0:
256,192,88500,1,0,0:0:0:0:
109,192,88571,1,0,0:0:0:0:
36,192,88714,1,0,0:0:0:0:
109,192,88714,1,0,0:0:0:0:
475,192,88714,1,0,0:0:0:0:
36,192,88857,1,0,0:0:0:0:
109,192,88857,1,0,0:0:0:0:
402,192,88857,1,0,0:0:0:0:
36,192,88999,1,0,0:0:0:0:
109,192,88999,1,0,0:0:0:0:
329,192,88999,1,0,0:0:0:0:
36,192,89142,1,0,0:0:0:0:
109,192,89142,1,0,0:0:0:0:
256,192,89142,1,0,0:0:0:0:
36,192,89285,1,0,0:0:0:0:
109,192,89285,1,0,0:0:0:0:
256,192,89285,1,0,0:0:0:0:
36,192,89428,1,0,0:0:0:0:
109,192,89428,1,0,0:0:0:0:
256,192,89428,1,0,0:0:0:0:
36,192,89571,1,0,0:0:0:0:
109,192,89571,1,0,0:0:0:0:
475,192,89571,1,0,0:0:0:0:
36,192,89785,1,0,0:0:0:0:
402,192,89785,1,0,0:0:0:0:
182,192,89892,1,0,0:0:0:0:
329,192,89892,1,0,0:0:0:0:
36,192,90000,1,0,0:0:0:0:
109,192,90000,1,0,0:0:0:0:
256,192,90000,1,0,0:0:0:0:
109,192,90142,1,0,0:0:0:0:
256,192,90142,1,0,0:0:0:0:
109,192,90285,1,0,0:0:0:0:
256,192,90285,1,0,0:0:0:0:
36,192,90428,1,0,0:0:0:0:
182,192,90428,1,0,0:0:0:0:
402,192,90428,1,0,0:0:0:0:
109,192,90642,1,0,0:0:0:0:
329,192,90642,1,0,0:0:0:0:
475,192,90857,1,0,0:0:0:0:
256,192,91500,1,0,0:0:0:0:
36,192,92142,1,0,0:0:0:0:
36,192,92571,1,0,0:0:0:0:
109,192,92571,1,0,0:0:0:0:
256,192,92571,1,0,0:0:0:0:
475,192,92571,1,0,0:0:0:0:
402,192,92678,1,0,0:0:0:0:
329,192,92785,1,0,0:0:0:0:
182,192,92892,1,0,0:0:0:0:
256,192,92892,1,0,0:0:0:0:
36,192,93000,1,0,0:0:0:0:
109,192,93000,1,0,0:0:0:0:
475,192,93000,1,0,0:0:0:0:
182,192,93107,1,0,0:0:0:0:
256,192,93214,1,0,0:0:0:0:
402,192,93214,1,0,0:0:0:0:
329,192,93321,1,0,0:0:0:0:
36,192,93428,1,0,0:0:0:0:
109,192,93428,1,0,0:0:0:0:
182,192,93535,1,0,0:0:0:0:
402,192,93535,1,0,0:0:0:0:
256,192,93642,1,0,0:0:0:0:
329,192,93750,1,0,0:0:0:0:
36,192,93857,1,0,0:0:0:0:
109,192,93857,1,0,0:0:0:0:
256,192,93857,1,0,0:0:0:0:
475,192,93857,1,0,0:0:0:0:
182,192,93964,1,0,0:0:0:0:
109,192,94071,1,0,0:0:0:0:
329,192,94071,1,0,0:0:0:0:
402,192,94178,1,0,0:0:0:0:
36,192,94285,1,0,0:0:0:0:
182,192,94285,1,0,0:0:0:0:
475,192,94285,1,0,0:0:0:0:
256,192,94392,1,0,0:0:0:0:
329,192,94500,1,0,0:0:0:0:
182,192,94607,1,0,0:0:0:0:
402,192,94607,1,0,0:0:0:0:
36,192,94714,1,0,0:0:0:0:
109,192,94714,1,0,0:0:0:0:
475,192,94714,1,0,0:0:0:0:
182,192,94821,1,0,0:0:0:0:
256,192,94928,1,0,0:0:0:0:
402,192,94928,1,0,0:0:0:0:
329,192,95035,1,0,0:0:0:0:
36,192,95142,1,0,0:0:0:0:
475,192,95142,1,0,0:0:0:0:
182,192,95250,1,0,0:0:0:0:
402,192,95250,1,0,0:0:0:0:
329,192,95357,1,0,0:0:0:0:
256,192,95464,1,0,0:0:0:0:
36,192,95571,1,0,0:0:0:0:
182,192,95571,1,0,0:0:0:0:
402,192,95571,1,0,0:0:0:0:
475,192,95571,1,0,0:0:0:0:
256,192,95678,1,0,0:0:0:0:
109,192,95785,1,0,0:0:0:0:
329,192,95785,1,0,0:0:0:0:
402,192,95892,1,0,0:0:0:0:
36,192,96000,1,0,0:0:0:0:
182,192,96000,1,0,0:0:0:0:
329,192,96000,1,0,0:0:0:0:
256,192,96107,1,0,0:0:0:0:
329,192,96214,1,0,0:0:0:0:
402,192,96321,1,0,0:0:0:0:
475,192,96321,1,0,0:0:0:0:
36,192,96428,1,0,0:0:0:0:
109,192,96428,1,0,0:0:0:0:
182,192,96535,1,0,0:0:0:0:
256,192,96642,1,0,0:0:0:0:
402,192,96642,1,0,0:0:0:0:
329,192,96750,1,0,0:0:0:0:
36,192,96857,1,0,0:0:0:0:
109,192,96857,1,0,0:0:0:0:
182,192,96964,1,0,0:0:0:0:
475,192,96964,1,0,0:0:0:0:
256,192,97071,1,0,0:0:0:0:
329,192,97178,1,0,0:0:0:0:
36,192,97285,1,0,0:0:0:0:
109,192,97285,1,0,0:0:0:0:
402,192,97285,1,0,0:0:0:0:
475,192,97285,1,0,0:0:0:0:
256,192,97392,1,0,0:0:0:0:
182,192,97500,1,0,0:0:0:0:
329,192,97500,1,0,0:0:0:0:
402,192,97607,1,0,0:0:0:0:
36,192,97714,1,0,0:0:0:0:
256,192,97714,1,0,0:0:0:0:
475,192,97714,1,0,0:0:0:0:
402,192,97821,1,0,0:0:0:0:
329,192,97928,1,0,0:0:0:0:
182,192,98035,1,0,0:0:0:0:
256,192,98035,1,0,0:0:0:0:
36,192,98142,1,0,0:0:0:0:
109,192,98142,1,0,0:0:0:0:
475,192,98142,1,0,0:0:0:0:
182,192,98250,1,0,0:0:0:0:
256,192,98357,1,0,0:0:0:0:
402,192,98357,1,0,0:0:0:0:
329,192,98464,1,0,0:0:0:0:
36,192,98571,1,0,0:0:0:0:
182,192,98571,1,0,0:0:0:0:
256,192,98678,1,0,0:0:0:0:
475,192,98678,1,0,0:0:0:0:
329,192,98785,1,0,0:0:0:0:
402,192,98892,1,0,0:0:0:0:
36,192,99000,1,0,0:0:0:0:
109,192,99000,1,0,0:0:0:0:
182,192,99000,1,0,0:0:0:0:
475,192,99000,1,0,0:0:0:0:
402,192,99107,1,0,0:0:0:0:
182,192,99214,1,0,0:0:0:0:
329,192,99214,1,0,0:0:0:0:
256,192,99321,1,0,0:0:0:0:
36,192,99428,1,0,0:0:0:0:
182,192,99428,1,0,0:0:0:0:
475,192,99428,1,0,0:0:0:0:
402,192,99535,1,0,0:0:0:0:
329,192,99642,1,0,0:0:0:0:
256,192,99750,1,0,0:0:0:0:
402,192,99750,1,0,0:0:0:0:
36,192,99857,1,0,0:0:0:0:
182,192,99857,1,0,0:0:0:0:
475,192,99857,1,0,0:0:0:0:
109,192,99964,1,0,0:0:0:0:
182,192,100071,1,0,0:0:0:0:
329,192,100071,1,0,0:0:0:0:
256,192,100178,1,0,0:0:0:0:
36,192,100285,1,0,0:0:0:0:
329,192,100285,1,0,0:0:0:0:
182,192,100392,1,0,0:0:0:0:
402,192,100392,1,0,0:0:0:0:
475,192,100500,1,0,0:0:0:0:
256,192,100607,1,0,0:0:0:0:
36,192,100714,1,0,0:0:0:0:
109,192,100714,1,0,0:0:0:0:
329,192,100714,1,0,0:0:0:0:
475,192,100714,1,0,0:0:0:0:
182,192,100821,1,0,0:0:0:0:
109,192,100928,1,0,0:0:0:0:
256,192,100928,1,0,0:0:0:0:
329,192,101035,1,0,0:0:0:0:
36,192,101142,1,0,0:0:0:0:
182,192,101142,1,0,0:0:0:0:
475,192,101142,1,0,0:0:0:0:
402,192,101250,1,0,0:0:0:0:
329,192,101357,1,0,0:0:0:0:
109,192,101464,1,0,0:0:0:0:
256,192,101464,1,0,0:0:0:0:
36,192,101571,1,0,0:0:0:0:
182,192,101571,1,0,0:0:0:0:
475,192,101571,1,0,0:0:0:0:
256,192,101678,1,0,0:0:0:0:
109,192,101785,1,0,0:0:0:0:
329,192,101785,1,0,0:0:0:0:
402,192,101892,1,0,0:0:0:0:
36,192,102000,1,0,0:0:0:0:
182,192,102000,1,0,0:0:0:0:
256,192,102107,1,0,0:0:0:0:
475,192,102107,1,0,0:0:0:0:
329,192,102214,1,0,0:0:0:0:
402,192,102321,1,0,0:0:0:0:
36,192,102428,1,0,0:0:0:0:
109,192,102428,1,0,0:0:0:0:
256,192,102428,1,0,0:0:0:0:
475,192,102428,1,0,0:0:0:0:
402,192,102535,1,0,0:0:0:0:
182,192,102642,1,0,0:0:0:0:
329,192,102642,1,0,0:0:0:0:
256,192,102750,1,0,0:0:0:0:
36,192,102857,1,0,0:0:0:0:
182,192,102857,1,0,0:0:0:0:
402,192,102857,1,0,0:0:0:0:
256,192,102964,1,0,0:0:0:0:
329,192,103071,1,0,0:0:0:0:
109,192,103178,1,0,0:0:0:0:
402,192,103178,1,0,0:0:0:0:
36,192,103285,1,0,0:0:0:0:
182,192,103285,1,0,0:0:0:0:
475,192,103285,1,0,0:0:0:0:
256,192,103392,1,0,0:0:0:0:
329,192,103500,1,0,0:0:0:0:
402,192,103500,1,0,0:0:0:0:
182,192,103607,1,0,0:0:0:0:
36,192,103714,1,0,0:0:0:0:
256,192,103714,1,0,0:0:0:0:
109,192,103821,1,0,0:0:0:0:
329,192,103821,1,0,0:0:0:0:
182,192,103928,1,0,0:0:0:0:
256,192,104035,1,0,0:0:0:0:
36,192,104142,1,0,0:0:0:0:
182,192,104142,1,0,0:0:0:0:
329,192,104142,1,0,0:0:0:0:
475,192,104142,1,0,0:0:0:0:
109,192,104250,1,0,0:0:0:0:
182,192,104357,1,0,0:0:0:0:
402,192,104357,1,0,0:0:0:0:
256,192,104464,1,0,0:0:0:0:
36,192,104571,1,0,0:0:0:0:
109,192,104571,1,0,0:0:0:0:
329,192,104571,1,0,0:0:0:0:
402,192,104571,1,0,0:0:0:0:
182,192,104678,1,0,0:0:0:0:
475,192,104678,1,0,0:0:0:0:
256,192,104785,1,0,0:0:0:0:
329,192,104785,1,0,0:0:0:0:
109,192,104892,1,0,0:0:0:0:
402,192,104892,1,0,0:0:0:0:
475,192,104892,1,0,0:0:0:0:
36,192,105000,1,0,0:0:0:0:
182,192,105000,1,0,0:0:0:0:
329,192,105000,1,0,0:0:0:0:
256,192,105107,1,0,0:0:0:0:
475,192,105107,1,0,0:0:0:0:
109,192,105214,1,0,0:0:0:0:
329,192,105214,1,0,0:0:0:0:
402,192,105214,1,0,0:0:0:0:
182,192,105321,1,0,0:0:0:0:
475,192,105321,1,0,0:0:0:0:
36,192,105428,1,0,0:0:0:0:
256,192,105428,1,0,0:0:0:0:
329,192,105428,1,0,0:0:0:0:
109,192,105535,1,0,0:0:0:0:
402,192,105535,1,0,0:0:0:0:
475,192,105535,1,0,0:0:0:0:
182,192,105642,1,0,0:0:0:0:
329,192,105642,1,0,0:0:0:0:
256,192,105750,1,0,0:0:0:0:
475,192,105750,1,0,0:0:0:0:
36,192,105857,1,0,0:0:0:0:
109,192,105857,1,0,0:0:0:0:
329,192,105857,1,0,0:0:0:0:
402,192,105857,1,0,0:0:0:0:
182,192,105964,1,0,0:0:0:0:
475,192,105964,1,0,0:0:0:0:
256,192,106071,1,0,0:0:0:0:
329,192,106071,1,0,0:0:0:0:
402,192,106071,1,0,0:0:0:0:
109,192,106178,1,0,0:0:0:0:
475,192,106178,1,0,0:0:0:0:
36,192,106285,1,0,0:0:0:0:
182,192,106285,1,0,0:0:0:0:
329,192,106285,1,0,0:0:0:0:
402,192,106285,1,0,0:0:0:0:
256,192,106392,1,0,0:0:0:0:
329,192,106500,1,0,0:0:0:0:
109,192,106607,1,0,0:0:0:0:
256,192,106607,1,0,0:0:0:0:
475,192,106607,1,0,0:0:0:0:
36,192,106714,1,0,0:0:0:0:
182,192,106714,1,0,0:0:0:0:
402,192,106714,1,0,0:0:0:0:
329,192,106821,1,0,0:0:0:0:
109,192,106928,1,0,0:0:0:0:
402,192,106928,1,0,0:0:0:0:
475,192,106928,1,0,0:0:0:0:
256,192,107035,1,0,0:0:0:0:
36,192,107142,1,0,0:0:0:0:
182,192,107142,1,0,0:0:0:0:
109,192,107250,1,0,0:0:0:0:
329,192,107250,1,0,0:0:0:0:
402,192,107250,1,0,0:0:0:0:
182,192,107357,1,0,0:0:0:0:
256,192,107464,1,0,0:0:0:0:
36,192,107571,1,0,0:0:0:0:
109,192,107571,1,0,0:0:0:0:
329,192,107571,1,0,0:0:0:0:
402,192,107571,1,0,0:0:0:0:
475,192,107571,1,0,0:0:0:0:
182,192,107678,1,0,0:0:0:0:
109,192,107785,1,0,0:0:0:0:
256,192,107785,1,0,0:0:0:0:
475,192,107785,1,0,0:0:0:0:
329,192,107892,1,0,0:0:0:0:
36,192,108000,1,0,0:0:0:0:
182,192,108000,1,0,0:0:0:0:
256,192,108000,1,0,0:0:0:0:
402,192,108000,1,0,0:0:0:0:
109,192,108107,1,0,0:0:0:0:
182,192,108214,1,0,0:0:0:0:
109,192,108321,1,0,0:0:0:0:
256,192,108321,1,0,0:0:0:0:
402,192,108321,1,0,0:0:0:0:
36,192,108428,1,0,0:0:0:0:
329,192,108428,1,0,0:0:0:0:
475,192,108428,1,0,0:0:0:0:
182,192,108535,1,0,0:0:0:0:
109,192,108642,1,0,0:0:0:0:
256,192,108642,1,0,0:0:0:0:
402,192,108642,1,0,0:0:0:0:
329,192,108750,1,0,0:0:0:0:
36,192,108857,1,0,0:0:0:0:
256,192,108857,1,0,0:0:0:0:
475,192,108857,1,0,0:0:0:0:
109,192,108964,1,0,0:0:0:0:
182,192,108964,1,0,0:0:0:0:
402,192,108964,1,0,0:0:0:0:
329,192,109071,1,0,0:0:0:0:
256,192,109178,1,0,0:0:0:0:
36,192,109285,1,0,0:0:0:0:
182,192,109285,1,0,0:0:0:0:
329,192,109285,1,0,0:0:0:0:
402,192,109285,1,0,0:0:0:0:
475,192,109285,1,0,0:0:0:0:
256,192,109392,1,0,0:0:0:0:
109,192,109500,1,0,0:0:0:0:
182,192,109500,1,0,0:0:0:0:
402,192,109500,1,0,0:0:0:0:
329,192,109607,1,0,0:0:0:0:
36,192,109714,1,0,0:0:0:0:
109,192,109714,1,0,0:0:0:0:
256,192,109714,1,0,0:0:0:0:
475,192,109714,1,0,0:0:0:0:
182,192,109821,1,0,0:0:0:0:
256,192,109928,1,0,0:0:0:0:
109,192,110035,1,0,0:0:0:0:
402,192,110035,1,0,0:0:0:0:
475,192,110035,1,0,0:0:0:0:
36,192,110142,1,0,0:0:0:0:
182,192,110142,1,0,0:0:0:0:
329,192,110142,1,0,0:0:0:0:
256,192,110250,1,0,0:0:0:0:
182,192,110357,1,0,0:0:0:0:
402,192,110357,1,0,0:0:0:0:
475,192,110357,1,0,0:0:0:0:
329,192,110464,1,0,0:0:0:0:
36,192,110571,1,0,0:0:0:0:
256,192,110571,1,0,0:0:0:0:
182,192,110678,1,0,0:0:0:0:
329,192,110678,1,0,0:0:0:0:
402,192,110678,1,0,0:0:0:0:
256,192,110785,1,0,0:0:0:0:
329,192,110892,1,0,0:0:0:0:
36,192,111000,1,0,0:0:0:0:
109,192,111000,1,0,0:0:0:0:
182,192,111000,1,0,0:0:0:0:
402,192,111000,1,0,0:0:0:0:
475,192,111000,1,0,0:0:0:0:
256,192,111107,1,0,0:0:0:0:
182,192,111214,1,0,0:0:0:0:
329,192,111214,1,0,0:0:0:0:
475,192,111214,1,0,0:0:0:0:
402,192,111321,1,0,0:0:0:0:
36,192,111428,1,0,0:0:0:0:
109,192,111428,1,0,0:0:0:0:
256,192,111428,1,0,0:0:0:0:
329,192,111428,1,0,0:0:0:0:
182,192,111535,1,0,0:0:0:0:
256,192,111642,1,0,0:0:0:0:
109,192,111750,1,0,0:0:0:0:
329,192,111750,1,0,0:0:0:0:
402,192,111750,1,0,0:0:0:0:
36,192,111857,1,0,0:0:0:0:
182,192,111857,1,0,0:0:0:0:
475,192,111857,1,0,0:0:0:0:
256,192,111964,1,0,0:0:0:0:
182,192,112071,1,0,0:0:0:0:
329,192,112071,1,0,0:0:0:0:
475,192,112071,1,0,0:0:0:0:
402,192,112178,1,0,0:0:0:0:
36,192,112285,1,0,0:0:0:0:
256,192,112285,1,0,0:0:0:0:
182,192,112392,1,0,0:0:0:0:
329,192,112392,1,0,0:0:0:0:
402,192,112392,1,0,0:0:0:0:
256,192,112500,1,0,0:0:0:0:
329,192,112607,1,0,0:0:0:0:
36,192,112714,1,0,0:0:0:0:
109,192,112714,1,0,0:0:0:0:
182,192,112714,1,0,0:0:0:0:
402,192,112714,1,0,0:0:0:0:
475,192,112714,1,0,0:0:0:0:
256,192,112821,1,0,0:0:0:0:
182,192,112928,1,0,0:0:0:0:
329,192,112928,1,0,0:0:0:0:
402,192,112928,1,0,0:0:0:0:
256,192,113035,1,0,0:0:0:0:
36,192,113142,1,0,0:0:0:0:
109,192,113142,1,0,0:0:0:0:
329,192,113142,1,0,0:0:0:0:
402,192,113142,1,0,0:0:0:0:
475,192,113142,1,0,0:0:0:0:
182,192,113250,1,0,0:0:0:0:
256,192,113357,1,0,0:0:0:0:
109,192,113464,1,0,0:0:0:0:
182,192,113464,1,0,0:0:0:0:
329,192,113464,1,0,0:0:0:0:
36,192,113571,1,0,0:0:0:0:
256,192,113571,1,0,0:0:0:0:
475,192,113571,1,0,0:0:0:0:
109,192,113678,1,0,0:0:0:0:
182,192,113785,1,0,0:0:0:0:
329,192,113785,1,0,0:0:0:0:
402,192,113785,1,0,0:0:0:0:
256,192,113892,1,0,0:0:0:0:
36,192,114000,1,0,0:0:0:0:
329,192,114000,1,0,0:0:0:0:
475,192,114000,1,0,0:0:0:0:
109,192,114107,1,0,0:0:0:0:
182,192,114107,1,0,0:0:0:0:
402,192,114107,1,0,0:0:0:0:
256,192,114214,1,0,0:0:0:0:
329,192,114321,1,0,0:0:0:0:
36,192,114428,1,0,0:0:0:0:
109,192,114428,1,0,0:0:0:0:
256,192,114428,1,0,0:0:0:0:
402,192,114428,1,0,0:0:0:0:
475,192,114428,1,0,0:0:0:0:
182,192,114535,1,0,0:0:0:0:
256,192,114642,1,0,0:0:0:0:
402,192,114642,1,0,0:0:0:0:
475,192,114642,1,0,0:0:0:0:
109,192,114750,1,0,0:0:0:0:
329,192,114750,1,0,0:0:0:0:
36,192,114857,1,0,0:0:0:0:
182,192,114857,1,0,0:0:0:0:
402,192,114857,1,0,0:0:0:0:
475,192,114857,1,0,0:0:0:0:
256,192,114964,1,0,0:0:0:0:
329,192,115071,1,0,0:0:0:0:
109,192,115178,1,0,0:0:0:0:
182,192,115178,1,0,0:0:0:0:
402,192,115178,1,0,0:0:0:0:
36,192,115285,1,0,0:0:0:0:
256,192,115285,1,0,0:0:0:0:
475,192,115285,1,0,0:0:0:0:
329,192,115392,1,0,0:0:0:0:
109,192,115500,1,0,0:0:0:0:
182,192,115500,1,0,0:0:0:0:
402,192,115500,1,0,0:0:0:0:
256,192,115607,1,0,0:0:0:0:
36,192,115714,1,0,0:0:0:0:
329,192,115714,1,0,0:0:0:0:
475,192,115714,1,0,0:0:0:0:
109,192,115821,1,0,0:0:0:0:
256,192,115821,1,0,0:0:0:0:
402,192,115821,1,0,0:0:0:0:
182,192,115928,1,0,0:0:0:0:
109,192,116035,1,0,0:0:0:0:
36,192,116142,1,0,0:0:0:0:
182,192,116142,1,0,0:0:0:0:
329,192,116142,1,0,0:0:0:0:
402,192,116142,1,0,0:0:0:0:
475,192,116142,1,0,0:0:0:0:
256,192,116250,1,0,0:0:0:0:
109,192,116357,1,0,0:0:0:0:
402,192,116357,1,0,0:0:0:0:
475,192,116357,1,0,0:0:0:0:
182,192,116464,1,0,0:0:0:0:
329,192,116464,1,0,0:0:0:0:
36,192,116571,1,0,0:0:0:0:
109,192,116571,1,0,0:0:0:0:
256,192,116571,1,0,0:0:0:0:
402,192,116571,1,0,0:0:0:0:
475,192,116571,1,0,0:0:0:0:
182,192,116678,1,0,0:0:0:0:
256,192,116785,1,0,0:0:0:0:
475,192,116785,1,0,0:0:0:0:
109,192,116892,1,0,0:0:0:0:
329,192,116892,1,0,0:0:0:0:
402,192,116892,1,0,0:0:0:0:
36,192,117000,1,0,0:0:0:0:
182,192,117000,1,0,0:0:0:0:
475,192,117000,1,0,0:0:0:0:
256,192,117107,1,0,0:0:0:0:
109,192,117214,1,0,0:0:0:0:
329,192,117214,1,0,0:0:0:0:
402,192,117214,1,0,0:0:0:0:
475,192,117214,1,0,0:0:0:0:
182,192,117321,1,0,0:0:0:0:
36,192,117428,1,0,0:0:0:0:
256,192,117428,1,0,0:0:0:0:
475,192,117428,1,0,0:0:0:0:
109,192,117535,1,0,0:0:0:0:
329,192,117535,1,0,0:0:0:0:
402,192,117535,1,0,0:0:0:0:
182,192,117642,1,0,0:0:0:0:
475,192,117642,1,0,0:0:0:0:
256,192,117750,1,0,0:0:0:0:
36,192,117857,1,0,0:0:0:0:
109,192,117857,1,0,0:0:0:0:
402,192,117857,1,0,0:0:0:0:
475,192,117857,1,0,0:0:0:0:
182,192,117964,1,0,0:0:0:0:
329,192,117964,1,0,0:0:0:0:
109,192,118071,1,0,0:0:0:0:
256,192,118071,1,0,0:0:0:0:
475,192,118071,1,0,0:0:0:0:
182,192,118178,1,0,0:0:0:0:
329,192,118178,1,0,0:0:0:0:
36,192,118285,1,0,0:0:0:0:
256,192,118285,1,0,0:0:0:0:
402,192,118285,1,0,0:0:0:0:
475,192,118285,1,0,0:0:0:0:
109,192,118392,1,0,0:0:0:0:
329,192,118392,1,0,0:0:0:0:
182,192,118500,1,0,0:0:0:0:
475,192,118500,1,0,0:0:0:0:
36,192,118607,1,0,0:0:0:0:
256,192,118607,1,0,0:0:0:0:
329,192,118607,1,0,0:0:0:0:
402,192,118607,1,0,0:0:0:0:
109,192,118714,1,0,0:0:0:0:
475,192,118714,1,0,0:0:0:0:
182,192,118821,1,0,0:0:0:0:
329,192,118821,1,0,0:0:0:0:
109,192,118928,1,0,0:0:0:0:
256,192,118928,1,0,0:0:0:0:
402,192,118928,1,0,0:0:0:0:
475,192,118928,1,0,0:0:0:0:
182,192,119035,1,0,0:0:0:0:
329,192,119035,1,0,0:0:0:0:
36,192,119142,1,0,0:0:0:0:
256,192,119142,1,0,0:0:0:0:
475,192,119142,1,0,0:0:0:0:
109,192,119250,1,0,0:0:0:0:
329,192,119250,1,0,0:0:0:0:
402,192,119250,1,0,0:0:0:0:
182,192,119357,1,0,0:0:0:0:
475,192,119357,1,0,0:0:0:0:
256,192,119464,1,0,0:0:0:0:
329,192,119464,1,0,0:0:0:0:
36,192,119571,1,0,0:0:0:0:
182,192,119571,1,0,0:0:0:0:
402,192,119571,1,0,0:0:0:0:
475,192,119571,1,0,0:0:0:0:
109,192,119678,1,0,0:0:0:0:
329,192,119678,1,0,0:0:0:0:
36,192,119785,1,0,0:0:0:0:
256,192,119785,1,0,0:0:0:0:
402,192,119785,1,0,0:0:0:0:
475,192,119785,1,0,0:0:0:0:
182,192,119892,1,0,0:0:0:0:
329,192,119892,1,0,0:0:0:0:
36,192,120000,1,0,0:0:0:0:
109,192,120000,1,0,0:0:0:0:
256,192,120000,1,0,0:0:0:0:
402,192,120000,1,0,0:0:0:0:
475,192,120000,1,0,0:0:0:0:
