osu file format v14

[General]
AudioFilename: ginkiha - nightfall.mp3
AudioLeadIn: 0
PreviewTime: 61846
Countdown: 0
SampleSet: Soft
StackLeniency: 0.7
Mode: 2
LetterboxInBreaks: 0
WidescreenStoryboard: 0

[Editor]
Bookmarks: 42281
DistanceSpacing: 2.5
BeatDivisor: 4
GridSize: 8
TimelineZoom: 1

[Metadata]
Title:nightfall
TitleUnicode:nightfall
Artist:ginkiha
ArtistUnicode:ginkiha
Creator:Paranoid Grapes
Version:collab platter
Source:BMS
Tags:g2r2014 NIZI-RINGO ne/nuit piano alchemists deemo rayark Magic Girl RoseusJaeger
BeatmapID:1207885
BeatmapSetID:532805

[Difficulty]
HPDrainRate:5.5
CircleSize:3.5
OverallDifficulty:7.5
ApproachRate:7.5
SliderMultiplier:1.9
SliderTickRate:1

[Events]
//Background and Video events
0,0,"hq720.jpg",0,0
//Break Periods
//Storyboard Layer 0 (Background)
//Storyboard Layer 1 (Fail)
//Storyboard Layer 2 (Pass)
//Storyboard Layer 3 (Foreground)
//Storyboard Sound Samples

[TimingPoints]
542.644634559577,652.173913043478,4,2,2,30,1,0
21412,-100,4,2,2,50,0,0
40814,-100,4,2,2,60,0,0
42281,-100,4,2,2,60,0,1
63151,-100,4,2,2,60,0,1
84020,-100,4,2,2,30,0,0
115325,-100,4,2,2,5,0,0

[Colours]
Combo1 : 255,146,94
Combo2 : 128,128,255
Combo3 : 94,94,174
Combo4 : 0,170,170

[HitObjects]
200,200,542,6,0,L|328:200,1,95,4|0,0:0|0:0,0:0:0:0:
144,208,1194,2,0,L|48:168,1,95
304,208,1846,2,0,P|360:160|272:168,1,190
24,192,3151,6,0,L|168:192,1,95,2|0,0:0|0:0,0:0:0:0:
272,200,3803,2,0,L|168:200,1,95
424,200,4455,2,0,P|352:120|264:112,1,190
136,184,5433,1,0,0:0:0:0:
368,200,5760,6,0,L|240:200,1,95,2|0,0:0|0:0,0:0:0:0:
136,208,6412,2,0,L|8:184,1,95
432,200,7064,2,0,P|504:152|448:40,1,190,4|0,0:0|0:0,0:0:0:0:
392,32,8042,1,0,0:0:0:0:
152,200,8368,6,0,L|40:200,1,95,2|0,0:0|0:0,0:0:0:0:
448,192,9020,2,0,L|472:80,1,95,4|0,0:0|0:0,0:0:0:0:
224,232,9673,1,6,0:0:0:0:
120,192,9999,1,0,0:0:0:0:
120,97,10325,1,0,0:0:0:0:
232,56,10651,1,0,0:0:0:0:
456,200,10977,6,0,L|434:107,1,95,4|0,0:0|0:0,0:0:0:0:
304,104,11629,1,0,0:0:0:0:
176,104,11955,1,0,0:0:0:0:
416,216,12281,2,0,P|456:120|376:64,1,190
152,200,13586,6,0,L|32:200,1,95,4|0,0:0|0:0,0:0:0:0:
208,216,14238,2,0,L|328:216,1,95
64,224,14890,2,0,P|16:184|88:80,1,190
184,72,15868,1,0,0:0:0:0:
416,200,16194,6,0,L|496:112,1,95,2|0,0:0|0:0,0:0:0:0:
368,128,16846,2,0,L|440:48,1,95
40,208,17499,2,0,P|16:128|104:32,1,190,4|0,0:0|0:0,0:0:0:0:
160,24,18477,1,0,0:0:0:0:
392,200,18803,6,0,L|480:112,1,95,4|0,0:0|0:0,0:0:0:0:
72,208,19455,2,0,L|24:104,1,95
424,240,20107,1,0,0:0:0:0:
487,169,20433,1,0,0:0:0:0:
241,204,20760,1,0,0:0:0:0:
200,208,20868,1,0,0:0:0:0:
168,192,20977,1,0,0:0:0:0:
153,157,21086,1,0,0:0:0:0:
153,157,21194,1,0,0:0:0:0:
440,176,21412,6,0,P|464:120|360:64,1,190,6|0,0:0|0:0,0:0:0:0:
288,64,22227,2,0,L|208:64,1,47.5
48,272,22716,2,0,P|16:200|112:136,1,190,8|0,0:0|0:0,0:0:0:0:
392,192,24020,6,0,P|456:136|360:112,1,190,2|0,0:0|0:0,0:0:0:0:
160,192,24999,1,0,0:0:0:0:
392,192,25325,1,10,0:0:0:0:
456,184,25488,1,0,0:0:0:0:
392,192,25651,1,0,0:0:0:0:
328,208,25814,1,0,0:0:0:0:
160,192,25977,1,0,0:0:0:0:
96,160,26140,1,0,0:0:0:0:
96,160,26303,1,0,0:0:0:0:
160,192,26466,1,0,0:0:0:0:
400,224,26629,6,0,L|424:120,1,95,2|0,0:0|0:0,0:0:0:0:
288,128,27281,2,0,L|296:32,1,95
88,216,27933,2,0,P|32:184|120:136,1,190,8|0,0:0|0:0,0:0:0:0:
448,208,29238,6,0,L|464:96,1,95,6|0,0:0|0:0,0:0:0:0:
232,208,29890,1,0,0:0:0:0:
104,208,30216,1,0,0:0:0:0:
336,200,30542,2,0,L|432:128,1,95,8|0,0:0|0:0,0:0:0:0:
184,176,31194,2,0,L|224:48,1,95
448,208,31846,6,0,P|456:128|344:72,1,190,2|0,0:0|0:0,0:0:0:0:
288,80,32662,1,0,0:0:0:0:
200,80,32825,1,0,0:0:0:0:
440,200,33151,2,0,P|456:118|351:57,1,190,8|0,0:0|0:0,0:0:0:0:
96,208,34455,6,0,L|312:208,1,190,2|0,0:0|0:0,0:0:0:0:
152,208,35433,1,0,0:0:0:0:
416,192,35760,1,8,0:0:0:0:
472,192,35923,1,0,0:0:0:0:
416,192,36086,1,0,0:0:0:0:
360,192,36249,1,0,0:0:0:0:
176,208,36412,1,0,0:0:0:0:
120,184,36575,1,0,0:0:0:0:
64,152,36738,1,0,0:0:0:0:
120,184,36901,1,0,0:0:0:0:
360,208,37064,6,0,L|416:128,1,95,6|0,0:0|0:0,0:0:0:0:
233,97,37716,2,0,L|288:176,1,95
464,200,38368,2,0,P|480:128|376:64,1,190,8|0,0:0|0:0,0:0:0:0:
160,192,39673,6,0,L|96:304,1,95,6|0,0:0|0:0,0:0:0:0:
352,264,40325,1,0,0:0:0:0:
224,272,40651,1,0,0:0:0:0:
32,208,40977,2,0,L|127:208,1,95,12|0,0:0|0:0,0:0:0:0:
400,200,41629,2,0,L|504:200,1,95,14|0,0:0|0:0,0:0:0:0:
104,176,42281,6,0,P|32:208|24:296,2,142.5,4|0|4,0:0|0:0|0:0,0:0:0:0:
288,176,43586,1,8,0:0:0:0:
488,128,44075,2,0,L|448:152,2,47.5
400,152,44564,1,0,0:0:0:0:
72,168,44890,6,0,L|192:72,2,142.5,2|0|2,0:0|0:0|0:0,0:0:0:0:
167,168,46031,1,0,0:0:0:0:
328,168,46194,1,8,0:0:0:0:
104,176,46683,2,0,L|152:176,2,47.5
24,176,47173,1,0,0:0:0:0:
424,288,47499,6,0,P|504:248|480:176,2,142.5,2|0|0,0:0|0:0|0:0,0:0:0:0:
192,272,48803,1,8,0:0:0:0:
48,272,49292,2,0,L|64:216,1,47.5
184,224,49618,2,0,L|208:272,1,47.5
440,272,50107,6,0,L|336:176,2,142.5,2|0|0,0:0|0:0|0:0,0:0:0:0:
280,240,51412,5,2,0:0:0:0:
216,216,51575,1,0,0:0:0:0:
168,168,51738,1,0,0:0:0:0:
192,104,51901,1,0,0:0:0:0:
384,104,52064,5,2,0:0:0:0:
408,168,52227,1,0,0:0:0:0:
392,224,52390,1,0,0:0:0:0:
336,256,52553,1,0,0:0:0:0:
48,240,52716,6,0,B|-24:184|48:104,2,142.5
224,256,54020,1,8,0:0:0:0:
472,216,54510,2,0,L|504:272,1,47.5
424,232,54836,2,0,L|376:296,1,47.5
128,280,55325,6,0,L|1:167,2,142.5,2|0|0,0:0|0:0|0:0,0:0:0:0:
216,216,56466,1,0,0:0:0:0:
360,208,56629,1,8,0:0:0:0:
88,224,57118,2,0,L|176:224,2,47.5
24,224,57607,1,0,0:0:0:0:
416,224,57933,6,0,P|472:200|488:104,2,142.5,2|0|0,0:0|0:0|0:0,0:0:0:0:
240,216,59238,1,8,0:0:0:0:
24,216,59727,2,0,L|80:216,2,47.5
112,216,60216,1,0,0:0:0:0:
400,208,60542,6,0,L|280:96,2,142.5,2|0|0,0:0|0:0|0:0,0:0:0:0:
232,96,61846,5,2,0:0:0:0:
176,104,62010,1,0,0:0:0:0:
192,160,62173,1,0,0:0:0:0:
248,160,62336,1,0,0:0:0:0:
416,216,62499,5,2,0:0:0:0:
464,216,62662,1,0,0:0:0:0:
496,216,62825,1,0,0:0:0:0:
456,216,62988,1,0,0:0:0:0:
184,104,63151,6,0,P|64:216|144:296,1,285,4|0,0:0|0:0,0:0:0:0:
403,165,64455,2,0,B|544:200|544:288|369:302,1,285,4|0,0:0|0:0,0:0:0:0:
168,176,65760,2,0,L|120:128,1,47.5,2|0,0:0|0:0,0:0:0:0:
384,176,66249,2,0,L|416:136,1,47.5,2|0,0:0|0:0,0:0:0:0:
152,168,66738,2,2,L|216:176,1,47.5,2|0,0:0|0:0,0:0:0:0:
400,128,67227,5,2,0:0:0:0:
456,128,67390,1,0,0:0:0:0:
416,128,67553,1,0,0:0:0:0:
168,152,67716,1,2,0:0:0:0:
120,152,67879,1,0,0:0:0:0:
168,152,68042,1,0,0:0:0:0:
224,152,68205,1,0,0:0:0:0:
464,240,68368,6,0,P|480:112|344:104,1,285,6|0,0:0|0:0,0:0:0:0:
95,240,69673,2,0,B|-32:192|-8:80|136:80,1,285,4|0,0:0|0:0,0:0:0:0:
360,120,70977,5,2,0:0:0:0:
416,120,71140,1,0,0:0:0:0:
456,160,71303,1,0,0:0:0:0:
416,200,71466,1,0,0:0:0:0:
160,184,71629,1,2,0:0:0:0:
96,184,71792,1,0,0:0:0:0:
32,184,71955,1,0,0:0:0:0:
64,232,72118,1,0,0:0:0:0:
112,232,72281,5,0,0:0:0:0:
376,280,72444,1,2,0:0:0:0:
432,280,72607,1,0,0:0:0:0:
464,328,72770,1,0,0:0:0:0:
304,280,72933,1,2,0:0:0:0:
240,280,73096,1,0,0:0:0:0:
296,272,73260,1,0,0:0:0:0:
344,216,73423,1,0,0:0:0:0:
88,272,73586,6,0,P|32:184|176:144,1,285,4|0,0:0|0:0,0:0:0:0:
400,192,74890,2,0,P|472:128|344:64,1,285,4|0,0:0|0:0,0:0:0:0:
128,104,76194,2,0,L|64:104,1,47.5,2|0,0:0|0:0,0:0:0:0:
296,104,76683,2,0,L|368:104,1,47.5,2|0,0:0|0:0,0:0:0:0:
96,104,77173,2,0,L|48:104,1,47.5,2|0,0:0|0:0,0:0:0:0:
312,104,77662,5,2,0:0:0:0:
376,104,77825,1,0,0:0:0:0:
416,152,77988,1,0,0:0:0:0:
256,104,78151,1,2,0:0:0:0:
200,112,78314,1,0,0:0:0:0:
152,152,78477,1,0,0:0:0:0:
184,200,78640,1,0,0:0:0:0:
472,192,78803,6,0,P|504:240|344:272,1,285,2|0,0:0|0:0,0:0:0:0:
112,280,80107,2,0,P|96:216|264:168,1,285,2|0,0:0|0:0,0:0:0:0:
376,192,81412,1,2,0:0:0:0:
432,192,81575,1,0,0:0:0:0:
496,192,81738,1,0,0:0:0:0:
448,192,81901,1,0,0:0:0:0:
296,192,82064,5,2,0:0:0:0:
240,192,82227,1,0,0:0:0:0:
296,192,82390,1,0,0:0:0:0:
360,192,82553,1,0,0:0:0:0:
296,192,82716,1,0,0:0:0:0:
72,192,82879,5,2,0:0:0:0:
24,208,83042,1,0,0:0:0:0:
24,264,83205,1,0,0:0:0:0:
176,264,83368,1,0,0:0:0:0:
240,264,83531,1,0,0:0:0:0:
176,264,83694,1,0,0:0:0:0:
240,264,83857,1,2,0:0:0:0:
480,192,84020,5,2,0:0:0:0:
248,192,86629,5,0,0:0:0:0:
32,192,89238,5,0,0:0:0:0:
320,192,91846,5,0,0:0:0:0:
256,192,92173,12,0,94129,0:0:0:0:
360,224,94455,6,0,L|448:152,1,95,4|0,0:0|0:0,0:0:0:0:
280,168,95107,2,0,L|200:104,1,95
32,112,95760,2,0,P|8:160|120:224,1,190
360,264,97064,6,0,L|416:184,1,95,2|0,0:0|0:0,0:0:0:0:
272,240,97716,2,0,L|344:136,1,95
88,184,98368,2,0,P|88:112|200:128,1,190,2|0,0:0|0:0,0:0:0:0:
336,104,99346,1,0,0:0:0:0:
184,152,99673,6,0,L|280:224,1,95,2|0,0:0|0:0,0:0:0:0:
128,160,100325,2,0,L|16:88,1,95
464,240,100977,2,0,P|480:184|360:120,1,190,2|0,0:0|0:0,0:0:0:0:
256,120,101955,1,0,0:0:0:0:
64,128,102281,6,0,L|16:240,1,95,2|0,0:0|0:0,0:0:0:0:
464,248,102933,2,0,P|488:184|488:144,1,95,2|0,0:0|0:0,0:0:0:0:
64,128,103586,1,2,0:0:0:0:
24,128,103912,1,0,0:0:0:0:
208,128,104238,1,0,0:0:0:0:
392,128,104564,1,0,0:0:0:0:
208,128,104890,6,0,L|312:128,1,95,4|0,0:0|0:0,0:0:0:0:
464,128,105542,1,0,0:0:0:0:
320,128,105868,1,0,0:0:0:0:
144,136,106194,2,0,P|128:176|232:240,1,190,4|0,0:0|0:0,0:0:0:0:
480,240,107499,6,0,L|384:144,1,95,2|0,0:0|0:0,0:0:0:0:
200,104,108151,2,0,L|304:104,1,95,2|0,0:0|0:0,0:0:0:0:
32,72,108803,2,0,P|56:160|152:200,1,190,2|0,0:0|0:0,0:0:0:0:
248,208,109781,1,0,0:0:0:0:
488,208,110107,6,0,L|392:208,1,95,2|0,0:0|0:0,0:0:0:0:
256,272,110760,2,0,L|368:208,1,95
88,256,111412,2,0,P|48:208|144:136,1,190,2|0,0:0|0:0,0:0:0:0:
256,128,112390,1,0,0:0:0:0:
480,128,112716,6,0,L|448:232,1,95,2|0,0:0|0:0,0:0:0:0:
63,246,113368,2,0,L|33:157,1,95,2|0,0:0|0:0,0:0:0:0:
424,248,114020,2,0,L|448:128,2,95,4|0|4,0:0|0:0|0:0,0:0:0:0:
248,112,114999,5,2,0:0:0:0:
256,192,115325,12,0,117933,0:0:0:0:
