osu file format v14

[General]
AudioFilename: ginkiha - nightfall.mp3
AudioLeadIn: 0
PreviewTime: 61846
Countdown: 0
SampleSet: Soft
StackLeniency: 0.7
Mode: 2
LetterboxInBreaks: 0
WidescreenStoryboard: 0

[Editor]
Bookmarks: 110127
DistanceSpacing: 2.5
BeatDivisor: 4
GridSize: 16
TimelineZoom: 1

[Metadata]
Title:nightfall
TitleUnicode:nightfall
Artist:ginkiha
ArtistUnicode:ginkiha
Creator:Paranoid Grapes
Version:the dead of night
Source:BMS
Tags:g2r2014 NIZI-RINGO ne/nuit piano alchemists deemo rayark Magic Girl RoseusJaeger
BeatmapID:1128866
BeatmapSetID:532805

[Difficulty]
HPDrainRate:6.5
CircleSize:4
OverallDifficulty:8.5
ApproachRate:8.5
SliderMultiplier:2.4
SliderTickRate:2

[Events]
//Background and Video events
0,0,"hq720.jpg",0,0
//Break Periods
//Storyboard Layer 0 (Background)
//Storyboard Layer 1 (Fail)
//Storyboard Layer 2 (Pass)
//Storyboard Layer 3 (Foreground)
//Storyboard Sound Samples

[TimingPoints]
542.644634559577,652.173913043478,4,2,2,20,1,0
21412,-100,4,2,2,40,0,0
40814,-100,4,2,2,60,0,0
42281,-100,4,2,2,60,0,1
63151,-100,4,2,2,60,0,1
84020,-100,4,2,2,30,0,0
115325,-100,4,2,2,5,0,0

[Colours]
Combo1 : 255,146,94
Combo2 : 128,128,255
Combo3 : 94,94,174
Combo4 : 0,170,170

[HitObjects]
200,248,542,5,6,0:0:0:0:
384,248,868,1,0,0:0:0:0:
160,248,1194,2,0,L|296:248,1,120
128,248,1846,1,0,0:0:0:0:
384,248,2499,2,0,L|496:296,1,120
288,256,3151,6,0,L|160:256,1,120,2|0,0:0|0:0,0:0:0:0:
24,256,3803,1,0,0:0:0:0:
312,254,4129,2,0,P|361:232|307:161,1,120
160,256,5107,2,0,L|40:256,1,120
296,256,5760,6,0,L|416:184,1,120,2|0,0:0|0:0,0:0:0:0:
160,256,6412,2,0,L|24:256,1,120
496,200,7064,2,0,P|408:144|496:96,1,240
304,192,8042,1,0,0:0:0:0:
64,192,8368,6,2,L|8:320,1,120,2|0,0:0|0:0,0:0:0:0:
464,184,9020,2,0,P|488:224|448:304,1,120,4|0,0:0|0:0,0:0:0:0:
56,224,9673,1,2,0:0:0:0:
192,224,9999,1,0,0:0:0:0:
344,224,10325,1,0,0:0:0:0:
56,224,10651,1,0,0:0:0:0:
480,232,10977,6,0,L|400:112,1,120,4|0,0:0|0:0,0:0:0:0:
232,152,11629,2,0,L|328:40,1,120
64,112,12281,1,0,0:0:0:0:
352,112,12933,1,0,0:0:0:0:
64,112,13586,6,0,L|216:112,2,120,4|0|0,0:0|0:0|0:0,0:0:0:0:
488,128,14564,2,0,L|328:128,1,120
160,248,15542,2,0,L|8:248,1,120
496,240,16194,6,0,L|368:240,1,120,4|0,0:0|0:0,0:0:0:0:
176,232,16846,2,0,L|32:224,1,120
472,216,17499,1,0,0:0:0:0:
240,200,18151,1,0,0:0:0:0:
56,200,18477,1,0,0:0:0:0:
448,216,18803,6,0,B|488:256|488:256|448:312,1,120,6|0,0:0|0:0,0:0:0:0:
64,200,19455,2,0,B|32:144|32:144|88:96,1,120,6|0,0:0|0:0,0:0:0:0:
464,96,20107,1,2,0:0:0:0:
232,96,20433,1,0,0:0:0:0:
424,96,20760,5,0,0:0:0:0:
480,136,20868,1,0,0:0:0:0:
424,176,20977,1,0,0:0:0:0:
480,216,21086,1,0,0:0:0:0:
480,280,21194,1,0,0:0:0:0:
424,312,21303,1,0,0:0:0:0:
112,96,21412,6,0,B|56:120|56:120|96:176,1,120,6|0,0:0|0:0,0:0:0:0:
288,184,22064,2,0,L|368:192,1,60
488,248,22390,2,0,L|488:344,1,60
192,312,22716,2,0,P|64:296|64:208,1,240,8|0,0:0|0:0,0:0:0:0:
368,208,24020,6,0,P|304:144|200:224,1,240,2|0,0:0|0:0,0:0:0:0:
48,152,24999,1,0,0:0:0:0:
432,144,25325,2,0,B|504:144|504:144|416:144,1,120,8|0,0:0|0:0,0:0:0:0:
368,144,25814,1,0,0:0:0:0:
56,168,25977,2,0,L|115:162,1,60
248,160,26303,2,0,L|312:192,1,60
63,154,26629,5,6,0:0:0:0:
275,150,26955,1,0,0:0:0:0:
488,168,27281,1,0,0:0:0:0:
280,160,27607,1,0,0:0:0:0:
480,176,27933,2,0,B|360:176,1,120,8|0,0:0|0:0,0:0:0:0:
128,248,28586,2,0,P|56:232|16:176,1,120
456,224,29238,6,0,B|504:192|504:192|416:192,1,120,6|0,0:0|0:0,0:0:0:0:
56,184,29890,1,0,0:0:0:0:
448,176,30216,1,0,0:0:0:0:
208,176,30542,2,8,B|128:272,1,120,8|0,0:0|0:0,0:0:0:0:
360,240,31194,2,0,L|479:234,1,120
40,232,31846,6,0,B|166:234,1,120,6|0,0:0|0:0,0:0:0:0:
360,240,32499,2,0,L|300:240,1,60
128,240,32825,2,0,L|192:336,1,60
464,224,33151,2,0,P|432:112|304:144,1,240,8|0,0:0|0:0,0:0:0:0:
128,152,34455,5,2,0:0:0:0:
368,152,34781,1,0,0:0:0:0:
208,152,35107,1,0,0:0:0:0:
448,152,35433,1,0,0:0:0:0:
56,152,35760,2,0,P|16:192|88:224,1,120,8|0,0:0|0:0,0:0:0:0:
136,224,36249,1,0,0:0:0:0:
384,240,36412,2,2,L|336:320,1,60,0|0,0:0|0:0,0:0:0:0:
208,272,36738,2,0,L|240:344,1,60
456,224,37064,5,6,0:0:0:0:
264,224,37390,2,0,L|128:224,2,120
472,240,38368,2,0,P|360:232|320:104,1,240,8|0,0:0|0:0,0:0:0:0:
64,240,39673,6,0,L|184:240,2,120,4|0|0,0:0|0:0|0:0,0:0:0:0:
480,240,40651,1,0,0:0:0:0:
49,179,40977,6,0,L|179:178,1,120,8|0,0:0|0:0,0:0:0:0:
361,186,41629,2,0,L|433:186,1,60,8|0,0:0|0:0,0:0:0:0:
382,143,41955,2,0,L|304:146,1,60
48,232,42281,6,0,L|160:176,1,120,6|0,0:0|0:0,0:0:0:0:
288,232,42770,2,0,L|160:160,1,120
336,224,43260,2,0,L|480:224,1,120,0|8,0:0|0:0,0:0:0:0:
208,200,44075,2,0,L|256:248,1,60
424,200,44564,1,0,0:0:0:0:
488,200,44727,1,0,0:0:0:0:
268,200,44890,6,0,L|140:200,1,120,6|0,0:0|0:0,0:0:0:0:
288,200,45379,2,0,L|408:200,1,120
256,208,45868,2,0,P|200:232|112:296,1,120,0|8,0:0|0:0,0:0:0:0:
384,264,46357,1,0,0:0:0:0:
488,216,46520,1,0,0:0:0:0:
384,168,46683,1,0,0:0:0:0:
256,160,46846,1,0,0:0:0:0:
488,160,47173,1,0,0:0:0:0:
16,272,47499,6,0,L|152:272,1,120,6|0,0:0|0:0,0:0:0:0:
280,272,47988,2,0,B|152:272,1,120
304,248,48477,2,0,L|160:248,1,120,0|8,0:0|0:0,0:0:0:0:
39,162,49292,2,0,L|88:128,1,60
232,128,49781,1,0,0:0:0:0:
400,136,50107,6,0,L|488:240,1,120,6|0,0:0|0:0,0:0:0:0:
328,184,50596,2,0,L|192:192,1,120
80,184,51086,2,0,B|32:192|32:192|120:232,1,120,0|8,0:0|0:0,0:0:0:0:
192,216,51575,1,0,0:0:0:0:
464,136,51738,1,0,0:0:0:0:
368,136,51901,1,0,0:0:0:0:
144,128,52064,1,0,0:0:0:0:
40,128,52227,1,0,0:0:0:0:
128,128,52390,1,0,0:0:0:0:
40,128,52553,1,0,0:0:0:0:
296,128,52716,6,0,L|448:184,1,120,6|0,0:0|0:0,0:0:0:0:
272,128,53205,2,0,P|240:208|272:232,1,120
408,232,53694,1,0,0:0:0:0:
184,224,54020,1,8,0:0:0:0:
416,232,54510,6,0,L|480:232,1,60
254,232,54999,1,0,0:0:0:0:
312,232,55162,1,0,0:0:0:0:
72,256,55325,6,0,P|24:224|64:152,1,120,6|0,0:0|0:0,0:0:0:0:
168,184,55814,2,0,L|288:120,1,120
96,152,56303,1,0,0:0:0:0:
320,160,56629,1,8,0:0:0:0:
88,168,56792,1,0,0:0:0:0:
24,168,56955,1,0,0:0:0:0:
128,168,57118,2,0,L|200:168,2,60
24,224,57607,1,0,0:0:0:0:
464,232,57933,6,0,L|320:200,1,120,6|0,0:0|0:0,0:0:0:0:
208,176,58423,2,0,L|352:144,1,120
168,64,58912,1,0,0:0:0:0:
376,64,59238,1,8,0:0:0:0:
176,112,59727,2,0,L|104:112,1,60
280,112,60216,1,0,0:0:0:0:
40,128,60542,6,0,L|160:144,1,120,6|0,0:0|0:0,0:0:0:0:
288,136,61031,2,0,L|136:152,1,120
48,288,61520,1,0,0:0:0:0:
456,312,61846,5,8,0:0:0:0:
488,256,62010,1,0,0:0:0:0:
448,224,62173,1,0,0:0:0:0:
392,224,62336,1,0,0:0:0:0:
80,152,62499,1,0,0:0:0:0:
168,152,62662,1,0,0:0:0:0:
168,96,62825,1,0,0:0:0:0:
80,96,62988,1,0,0:0:0:0:
328,104,63151,6,0,L|464:152,1,120,6|0,0:0|0:0,0:0:0:0:
312,144,63640,2,0,P|328:216|440:200,1,180
264,264,64292,1,0,0:0:0:0:
168,256,64455,2,0,L|48:208,1,120,6|0,0:0|0:0,0:0:0:0:
192,200,64944,2,0,P|176:128|112:120,1,120
48,128,65433,1,0,0:0:0:0:
448,136,65760,6,0,L|480:192,1,60
248,184,66249,2,0,L|280:120,1,60
48,192,66738,2,0,L|80:248,1,60
352,184,67227,2,0,L|416:184,2,60
88,184,67716,2,0,L|16:184,3,60
312,184,68368,6,0,L|432:192,1,120,6|0,0:0|0:0,0:0:0:0:
272,144,68857,2,0,P|272:96|384:104,1,180
472,88,69510,1,0,0:0:0:0:
224,160,69673,2,0,L|96:160,1,120,6|0,0:0|0:0,0:0:0:0:
232,200,70162,2,0,L|360:200,1,120
224,248,70651,1,0,0:0:0:0:
416,160,70977,6,0,L|504:160,3,60,2|0|0|2,0:0|0:0|0:0|0:0,0:0:0:0:
224,160,71629,2,0,L|144:160,3,60,0|2|0|0,0:0|0:0|0:0|0:0,0:0:0:0:
104,160,72281,1,2,0:0:0:0:
408,184,72444,5,0,0:0:0:0:
448,240,72607,1,0,0:0:0:0:
424,304,72770,1,0,0:0:0:0:
160,304,72933,1,2,0:0:0:0:
88,304,73096,1,0,0:0:0:0:
40,248,73260,1,2,0:0:0:0:
88,208,73423,1,0,0:0:0:0:
368,176,73586,6,0,L|488:176,1,120,6|0,0:0|0:0,0:0:0:0:
328,168,74075,2,0,P|256:248|320:280,1,180
384,272,74727,1,0,0:0:0:0:
144,240,74890,2,0,L|24:280,1,120,6|0,0:0|0:0,0:0:0:0:
192,240,75379,2,0,L|328:240,1,120
448,240,75868,1,0,0:0:0:0:
56,200,76194,6,0,L|48:120,1,60
280,168,76683,2,0,L|216:240,1,60
472,176,77173,2,0,L|440:96,1,60
200,192,77662,2,0,L|136:192,2,60
440,192,78151,2,0,L|504:192,3,60
192,192,78803,6,0,L|72:192,1,120,6|0,0:0|0:0,0:0:0:0:
216,192,79292,2,0,P|288:232|208:280,1,180
147,287,79944,1,0,0:0:0:0:
376,280,80107,2,0,L|496:280,1,120,6|0,0:0|0:0,0:0:0:0:
328,280,80596,2,0,P|352:224|416:208,1,120
296,200,81086,1,0,0:0:0:0:
76,187,81412,6,0,L|17:187,1,60
76,187,81738,2,0,L|16:191,1,60
240,128,82064,2,0,L|312:128,1,60,2|0,0:0|0:0,0:0:0:0:
369,95,82390,2,0,L|295:98,1,60
369,95,82716,1,0,0:0:0:0:
128,128,82879,5,2,0:0:0:0:
72,152,83042,1,0,0:0:0:0:
120,192,83205,1,0,0:0:0:0:
384,256,83368,1,2,0:0:0:0:
448,256,83531,1,0,0:0:0:0:
488,208,83694,1,2,0:0:0:0:
448,160,83857,1,0,0:0:0:0:
120,208,84020,5,4,0:0:0:0:
408,200,86629,5,4,0:0:0:0:
64,200,89238,5,4,0:0:0:0:
256,192,91846,5,2,0:0:0:0:
256,192,92010,12,0,94129,0:0:0:0:
224,192,94455,5,4,0:0:0:0:
408,192,94781,1,0,0:0:0:0:
168,192,95107,2,0,L|24:192,1,120
280,192,95760,5,0,0:0:0:0:
448,192,96412,1,0,0:0:0:0:
160,192,97064,2,0,L|16:192,1,120,2|0,0:0|0:0,0:0:0:0:
248,192,97716,2,0,L|368:192,1,120
152,192,98368,1,0,0:0:0:0:
464,192,99020,2,0,L|336:192,1,120
144,192,99673,6,0,L|216:296,1,120,2|0,0:0|0:0,0:0:0:0:
400,208,100325,2,0,L|480:320,1,120
64,296,100977,2,0,P|16:200|144:184,1,240
272,296,101955,1,0,0:0:0:0:
456,200,102281,6,0,L|472:336,1,120,2|0,0:0|0:0,0:0:0:0:
64,192,102933,2,0,L|24:336,1,120,2|0,0:0|0:0,0:0:0:0:
472,200,103586,1,4,0:0:0:0:
320,200,103912,1,0,0:0:0:0:
472,200,104238,1,0,0:0:0:0:
320,200,104564,1,0,0:0:0:0:
88,200,104890,6,0,L|208:200,1,120,6|0,0:0|0:0,0:0:0:0:
352,200,105542,2,0,L|200:200,1,120
64,208,106194,2,0,P|16:256|128:280,1,240
288,280,107499,6,0,L|408:280,1,120,6|0,0:0|0:0,0:0:0:0:
160,256,108151,2,0,L|40:256,2,120
408,120,109455,1,0,0:0:0:0:
264,120,109781,1,0,0:0:0:0:
32,120,110107,6,0,L|160:120,1,120,6|0,0:0|0:0,0:0:0:0:
248,208,110760,2,0,L|128:208,1,120
424,176,111412,2,0,L|176:88,1,240
472,144,112390,1,0,0:0:0:0:
64,144,112716,6,0,L|32:272,1,120,2|0,0:0|0:0,0:0:0:0:
464,216,113368,2,0,L|488:56,1,120,6|0,0:0|0:0,0:0:0:0:
24,144,114020,2,0,L|168:144,1,120
368,152,114673,2,0,L|192:144,1,120
256,192,115325,12,0,117933,0:0:0:0:
