osu file format v14

[General]
AudioFilename: ginkiha - nightfall.mp3
AudioLeadIn: 0
PreviewTime: 61846
Countdown: 0
SampleSet: Soft
StackLeniency: 0.7
Mode: 2
LetterboxInBreaks: 0
WidescreenStoryboard: 0

[Editor]
DistanceSpacing: 2.5
BeatDivisor: 4
GridSize: 4
TimelineZoom: 1

[Metadata]
Title:nightfall
TitleUnicode:nightfall
Artist:ginkiha
ArtistUnicode:ginkiha
Creator:Paranoid Grapes
Version:magic girl's salad
Source:BMS
Tags:g2r2014 NIZI-RINGO ne/nuit piano alchemists deemo rayark Magic Girl RoseusJaeger
BeatmapID:1207886
BeatmapSetID:532805

[Difficulty]
HPDrainRate:4.5
CircleSize:3
OverallDifficulty:6
ApproachRate:6
SliderMultiplier:1.4
SliderTickRate:1

[Events]
//Background and Video events
0,0,"hq720.jpg",0,0
//Break Periods
//Storyboard Layer 0 (Background)
//Storyboard Layer 1 (Fail)
//Storyboard Layer 2 (Pass)
//Storyboard Layer 3 (Foreground)
//Storyboard Sound Samples

[TimingPoints]
542.644634559577,652.173913043478,4,2,0,20,1,0
1846,-100,4,2,0,15,0,0
8368,-100,4,2,0,20,0,0
18803,-100,4,2,0,30,0,0
21412,-83.3333333333333,4,2,0,50,0,0
40814,-83.3333333333333,4,2,0,60,0,0
42281,-76.9230769230769,4,2,0,60,0,1
63151,-71.4285714285714,4,2,0,60,0,1
84020,-100,4,2,0,30,0,0
115325,-100,4,2,0,5,0,0

[Colours]
Combo1 : 255,146,94
Combo2 : 128,128,255
Combo3 : 94,94,174
Combo4 : 0,170,170

[HitObjects]
216,288,542,6,0,P|192:240|200:208,1,70,2|0,0:0|0:0,0:0:0:0:
336,208,1194,2,0,L|416:208,1,70
256,208,1846,1,0,0:0:0:0:
440,208,2499,1,0,0:0:0:0:
184,208,3151,6,0,L|96:208,2,70,2|0|0,0:0|0:0|0:0,0:0:0:0:
336,208,4129,2,0,L|432:208,1,70
136,208,5107,2,0,L|212:208,1,70
380,208,5760,6,0,L|468:184,2,70,2|0|2,0:0|0:0|0:0,0:0:0:0:
292,208,6738,1,0,0:0:0:0:
28,208,7064,2,0,L|172:208,1,140
424,208,8368,6,0,L|496:208,1,70,2|0,0:0|0:0,0:0:0:0:
228,144,9020,1,8,0:0:0:0:
384,144,9673,2,0,L|464:144,1,70,2|0,0:0|0:0,0:0:0:0:
432,152,10325,2,0,L|528:152,1,70,2|0,0:0|0:0,0:0:0:0:
212,160,10977,6,0,P|232:240|284:276,1,140,2|0,0:0|0:0,0:0:0:0:
232,288,11955,1,0,0:0:0:0:
88,240,12281,2,0,P|56:176|104:104,1,140
240,112,13586,6,0,L|320:112,2,70,2|0|0,0:0|0:0|0:0,0:0:0:0:
104,112,14564,1,0,0:0:0:0:
352,112,14890,2,0,L|512:112,1,140
160,112,16194,6,0,L|80:64,2,70,2|0|0,0:0|0:0|0:0,0:0:0:0:
256,112,17173,1,0,0:0:0:0:
500,124,17499,2,0,P|480:200|428:240,1,140
104,184,18803,6,0,L|32:184,1,70,2|0,0:0|0:0,0:0:0:0:
300,128,19455,2,0,L|384:92,1,70,8|0,0:0|0:0,0:0:0:0:
180,112,20107,2,0,L|92:112,1,70,2|0,0:0|0:0,0:0:0:0:
232,128,20760,2,0,L|136:132,1,70,2|0,0:0|0:0,0:0:0:0:
480,200,21412,6,0,L|296:200,1,167.999994873047,2|0,0:0|0:0,0:0:0:0:
224,200,22390,1,0,0:0:0:0:
496,208,22716,2,0,P|492:152|412:76,1,167.999994873047,8|0,0:0|0:0,0:0:0:0:
140,92,24020,6,0,P|100:156|156:228,1,167.999994873047,2|0,0:0|0:0,0:0:0:0:
236,244,24999,1,0,0:0:0:0:
488,192,25325,2,0,L|488:280,1,83.9999974365235,8|0,0:0|0:0,0:0:0:0:
312,256,25977,2,0,L|228:256,1,83.9999974365235
44,232,26629,6,0,L|212:160,1,167.999994873047,2|0,0:0|0:0,0:0:0:0:
248,152,27607,1,0,0:0:0:0:
496,144,27933,2,0,P|448:80|344:56,1,167.999994873047,8|0,0:0|0:0,0:0:0:0:
80,88,29238,6,0,P|40:152|88:224,1,167.999994873047,2|0,0:0|0:0,0:0:0:0:
172,232,30216,1,0,0:0:0:0:
432,192,30542,2,0,P|448:276|360:284,1,167.999994873047,8|0,0:0|0:0,0:0:0:0:
72,128,31846,6,0,L|244:128,1,167.999994873047,2|0,0:0|0:0,0:0:0:0:
160,196,32825,1,0,0:0:0:0:
436,164,33151,2,0,L|284:68,1,167.999994873047,8|0,0:0|0:0,0:0:0:0:
80,88,34455,6,0,P|40:152|88:224,1,167.999994873047,2|0,0:0|0:0,0:0:0:0:
176,228,35433,1,0,0:0:0:0:
436,192,35759,2,0,P|476:272|428:325,1,167.999994873047,8|0,0:0|0:0,0:0:0:0:
240,232,37064,6,0,L|136:232,1,83.9999974365235,2|0,0:0|0:0,0:0:0:0:
24,232,37716,2,0,L|120:232,1,83.9999974365235
408,124,38368,2,0,P|472:184|492:280,1,167.999994873047,8|0,0:0|0:0,0:0:0:0:
232,264,39673,6,0,L|128:264,1,83.9999974365235
432,144,40325,1,0,0:0:0:0:
480,144,40651,1,0,0:0:0:0:
180,144,40977,2,0,L|124:80,1,83.9999974365235,2|0,0:0|0:0,0:0:0:0:
16,124,41629,2,0,L|108:80,1,83.9999974365235,2|0,0:0|0:0,0:0:0:0:
380,172,42281,6,0,L|273:88,2,136.499993751526,4|0|0,0:0|0:0|0:0,0:0:0:0:
468,176,43586,1,8,0:0:0:0:
272,100,44075,1,0,0:0:0:0:
344,100,44238,2,0,L|440:100,1,90.9999958343508
148,176,44890,6,0,L|36:264,2,136.499993751526,4|0|0,0:0|0:0|0:0,0:0:0:0:
328,188,46194,2,0,L|400:164,1,45.4999979171754,8|0,0:0|0:0,0:0:0:0:
380,152,46520,2,0,L|324:112,1,45.4999979171754,8|0,0:0|0:0,0:0:0:0:
284,112,46846,1,0,0:0:0:0:
112,112,47173,1,0,0:0:0:0:
400,176,47499,6,0,L|504:288,2,136.499993751526,4|0|0,0:0|0:0|0:0,0:0:0:0:
228,176,48803,1,8,0:0:0:0:
382,146,49292,2,0,L|356:184,1,45.4999979171754
216,180,49781,1,0,0:0:0:0:
472,184,50107,6,0,L|360:64,2,136.499993751526,4|0|0,0:0|0:0|0:0,0:0:0:0:
268,200,51412,1,8,0:0:0:0:
225,148,51575,1,0,0:0:0:0:
226,81,51738,1,0,0:0:0:0:
272,32,51901,1,0,0:0:0:0:
392,32,52064,6,0,L|472:32,2,45.4999979171754,8|0|0,0:0|0:0|0:0,0:0:0:0:
328,32,52553,1,0,0:0:0:0:
148,32,52716,6,0,L|4:32,2,136.499993751526,4|0|0,0:0|0:0|0:0,0:0:0:0:
208,32,54020,1,8,0:0:0:0:
336,32,54510,1,0,0:0:0:0:
408,32,54673,2,0,L|504:32,1,90.9999958343508
228,32,55325,5,4,0:0:0:0:
464,32,55814,1,0,0:0:0:0:
248,32,56303,1,0,0:0:0:0:
136,132,56629,6,0,L|64:108,1,45.4999979171754,8|0,0:0|0:0,0:0:0:0:
84,96,56955,2,0,L|140:56,1,45.4999979171754,8|0,0:0|0:0,0:0:0:0:
180,56,57281,1,0,0:0:0:0:
332,56,57608,1,0,0:0:0:0:
40,208,57933,6,0,L|151:128,2,136.499993751526,4|0|0,0:0|0:0|0:0,0:0:0:0:
224,128,59238,1,8,0:0:0:0:
100,128,59727,2,0,L|52:80,1,45.4999979171754
208,128,60216,1,0,0:0:0:0:
336,128,60542,6,0,L|240:248,2,136.499993751526,4|0|0,0:0|0:0|0:0,0:0:0:0:
448,232,61846,1,8,0:0:0:0:
492,180,62010,1,0,0:0:0:0:
490,113,62173,1,0,0:0:0:0:
444,64,62336,1,0,0:0:0:0:
344,64,62499,6,0,L|264:64,2,45.4999979171754,8|0|0,0:0|0:0|0:0,0:0:0:0:
408,64,62988,1,0,0:0:0:0:
228,64,63151,6,0,P|140:96|202:256,1,293.999991027832,4|0,0:0|0:0,0:0:0:0:
448,180,64455,2,0,P|504:276|368:340,1,293.999991027832,2|0,0:0|0:0,0:0:0:0:
128,328,65760,6,0,L|72:272,1,48.9999985046387,8|0,0:0|0:0,0:0:0:0:
272,224,66249,2,0,L|320:176,1,48.9999985046387,8|0,0:0|0:0,0:0:0:0:
128,152,66738,2,0,L|184:104,1,48.9999985046387,8|0,0:0|0:0,0:0:0:0:
296,104,67227,6,0,L|368:136,2,48.9999985046387,2|0|0,0:0|0:0|0:0,0:0:0:0:
224,104,67716,2,0,L|96:104,1,97.9999970092774
400,280,68368,6,0,P|464:208|384:48,1,293.999991027832,4|0,0:0|0:0,0:0:0:0:
96,280,69673,2,0,P|32:208|112:48,1,293.999991027832,4|0,0:0|0:0,0:0:0:0:
364,64,70977,6,0,L|410:48,2,48.9999985046387,2|0|0,0:0|0:0|0:0,0:0:0:0:
301,48,71466,1,0,0:0:0:0:
224,56,71629,6,0,L|140:112,1,97.9999970092774
304,212,72281,2,0,L|340:252,2,48.9999985046387,2|0|0,0:0|0:0|0:0,0:0:0:0:
240,216,72770,1,0,0:0:0:0:
156,208,72933,2,0,L|108:232,1,48.9999985046387
144,152,73260,2,0,L|216:152,1,48.9999985046387
384,264,73586,6,0,P|416:220|304:48,1,293.999991027832,4|0,0:0|0:0,0:0:0:0:
136,248,74890,2,0,P|35:150|76:16,1,293.999991027832,2|0,0:0|0:0,0:0:0:0:
328,320,76194,6,0,L|384:264,1,48.9999985046387,8|0,0:0|0:0,0:0:0:0:
176,216,76683,2,0,L|128:168,1,48.9999985046387,8|0,0:0|0:0,0:0:0:0:
352,184,77173,2,0,L|296:136,1,48.9999985046387,8|0,0:0|0:0,0:0:0:0:
152,96,77662,6,0,L|80:128,2,48.9999985046387,2|0|0,0:0|0:0|0:0,0:0:0:0:
252,96,78151,2,0,L|380:96,1,97.9999970092774,2|0,0:0|0:0,0:0:0:0:
104,280,78803,6,0,P|40:208|120:48,1,293.999991027832,4|0,0:0|0:0,0:0:0:0:
412,272,80107,2,0,P|476:200|396:40,1,293.999991027832,4|0,0:0|0:0,0:0:0:0:
152,56,81412,6,0,P|120:120|136:160,1,97.9999970092774,2|0,0:0|0:0,0:0:0:0:
328,128,82064,2,0,P|330:175|301:214,1,97.9999970092774,2|0,0:0|0:0,0:0:0:0:
88,216,82716,6,0,L|32:216,2,48.9999985046387,8|0|0,0:0|0:0|0:0,0:0:0:0:
151,216,83205,1,0,0:0:0:0:
237,214,83368,5,8,0:0:0:0:
280,162,83531,1,0,0:0:0:0:
279,95,83694,1,0,0:0:0:0:
233,46,83857,1,0,0:0:0:0:
72,44,84020,5,4,0:0:0:0:
376,56,86629,5,0,0:0:0:0:
144,64,89238,5,0,0:0:0:0:
256,192,91846,12,0,94129,0:0:0:0:
304,288,94455,6,0,P|328:240|320:208,1,70,2|0,0:0|0:0,0:0:0:0:
160,208,95107,2,0,L|80:208,1,70
280,208,95760,1,0,0:0:0:0:
80,208,96412,1,0,0:0:0:0:
336,208,97064,6,0,L|424:208,2,70
184,208,98042,2,0,L|88:208,1,70
384,208,99020,1,0,0:0:0:0:
152,208,99673,6,0,L|64:184,2,70,2|0|0,0:0|0:0|0:0,0:0:0:0:
240,208,100651,1,0,0:0:0:0:
484,208,100977,2,0,L|340:208,1,140
96,208,102281,6,0,L|24:208,1,70,2|0,0:0|0:0,0:0:0:0:
280,144,102933,1,4,0:0:0:0:
92,144,103586,2,0,L|172:144,1,70,2|0,0:0|0:0,0:0:0:0:
336,144,104238,2,0,L|432:144,1,70,2|0,0:0|0:0,0:0:0:0:
172,156,104890,6,0,P|188:208|240:280,1,140,4|0,0:0|0:0,0:0:0:0:
288,288,105868,1,0,0:0:0:0:
456,240,106194,2,0,P|488:176|440:104,1,140
280,112,107499,6,0,L|200:112,2,70,2|0|0,0:0|0:0|0:0,0:0:0:0:
460,112,108477,1,0,0:0:0:0:
300,112,108803,2,0,L|140:112,1,140
328,112,110107,6,0,L|376:40,2,70,2|0|0,0:0|0:0|0:0,0:0:0:0:
400,112,111086,1,0,0:0:0:0:
160,52,111412,2,0,P|128:124|160:172,1,140
416,184,112716,6,0,L|488:184,1,70,2|0,0:0|0:0,0:0:0:0:
220,128,113368,2,0,L|156:64,1,70,4|0,0:0|0:0,0:0:0:0:
348,128,114020,2,0,L|436:128,1,70,2|0,0:0|0:0,0:0:0:0:
256,124,114673,1,2,0:0:0:0:
256,192,114999,12,0,117933,0:0:0:0:
