osu file format v14

[General]
AudioFilename: ginkiha - nightfall.mp3
AudioLeadIn: 0
PreviewTime: 61846
Countdown: 0
SampleSet: Soft
StackLeniency: 0.7
Mode: 2
LetterboxInBreaks: 0
WidescreenStoryboard: 0

[Editor]
DistanceSpacing: 2.5
BeatDivisor: 4
GridSize: 8
TimelineZoom: 1

[Metadata]
Title:nightfall
TitleUnicode:nightfall
Artist:ginkiha
ArtistUnicode:ginkiha
Creator:Paranoid Grapes
Version:cup
Source:BMS
Tags:g2r2014 NIZI-RINGO ne/nuit piano alchemists deemo rayark Magic Girl RoseusJaeger
BeatmapID:1128865
BeatmapSetID:532805

[Difficulty]
HPDrainRate:3.5
CircleSize:2.5
OverallDifficulty:5
ApproachRate:5
SliderMultiplier:1.2
SliderTickRate:1

[Events]
//Background and Video events
0,0,"hq720.jpg",0,0
//Break Periods
//Storyboard Layer 0 (Background)
//Storyboard Layer 1 (Fail)
//Storyboard Layer 2 (Pass)
//Storyboard Layer 3 (Foreground)
//Storyboard Sound Samples

[TimingPoints]
542.644634559577,652.173913043478,4,2,2,20,1,0
21412,-100,4,2,2,50,0,0
40977,-100,4,2,2,60,0,0
42281,-100,4,2,2,60,0,1
63151,-100,4,2,2,60,0,1
84020,-100,4,2,2,30,0,0
115325,-100,4,2,2,5,0,0

[Colours]
Combo1 : 255,146,94
Combo2 : 128,128,255
Combo3 : 94,94,174
Combo4 : 0,170,170

[HitObjects]
168,192,542,5,4,0:0:0:0:
320,192,1194,2,0,L|380:192,2,60
120,192,2499,1,0,0:0:0:0:
320,192,3151,6,0,L|232:192,1,60,2|0,0:0|0:0,0:0:0:0:
128,192,3803,1,0,0:0:0:0:
16,192,4129,1,0,0:0:0:0:
112,192,4455,1,0,0:0:0:0:
304,192,5107,2,0,L|392:192,1,60
240,192,5760,6,0,L|160:192,1,60,2|0,0:0|0:0,0:0:0:0:
48,192,6412,1,0,0:0:0:0:
256,192,7064,1,4,0:0:0:0:
400,192,8368,5,2,0:0:0:0:
152,192,9020,1,2,0:0:0:0:
424,192,9673,2,0,L|484:192,2,60,2|0|0,0:0|0:0|0:0,0:0:0:0:
236,192,10977,6,0,L|148:192,1,60,6|0,0:0|0:0,0:0:0:0:
328,192,11629,2,0,L|408:192,2,60
128,192,12933,1,0,0:0:0:0:
344,192,13586,6,0,L|416:192,1,60,2|0,0:0|0:0,0:0:0:0:
288,192,14238,2,0,L|228:192,2,60
432,192,15542,1,0,0:0:0:0:
336,192,15868,1,0,0:0:0:0:
204,192,16194,6,0,L|144:192,1,60,2|0,0:0|0:0,0:0:0:0:
244,192,16846,2,0,L|304:192,1,60
432,192,17499,2,0,B|496:192|496:192|416:192,1,120,2|0,0:0|0:0,0:0:0:0:
304,192,18477,1,0,0:0:0:0:
136,192,18803,5,6,0:0:0:0:
400,192,19455,1,2,0:0:0:0:
120,192,20107,2,0,L|32:192,2,60,2|0|2,0:0|0:0|0:0,0:0:0:0:
360,192,21412,5,4,0:0:0:0:
216,192,22064,1,0,0:0:0:0:
296,192,22390,1,0,0:0:0:0:
192,192,22716,1,8,0:0:0:0:
40,192,23368,1,0,0:0:0:0:
256,192,24020,5,4,0:0:0:0:
440,192,24673,1,0,0:0:0:0:
360,192,24999,1,0,0:0:0:0:
456,192,25325,1,8,0:0:0:0:
208,192,25977,1,0,0:0:0:0:
400,160,26629,6,0,P|303:183|296:224,1,120,2|0,0:0|0:0,0:0:0:0:
208,184,27607,1,0,0:0:0:0:
104,184,27933,2,0,L|232:184,1,120,8|0,0:0|0:0,0:0:0:0:
32,112,29238,5,4,0:0:0:0:
252,112,29890,2,0,L|312:112,2,60,0|0|8,0:0|0:0|0:0,0:0:0:0:
72,112,31194,1,0,0:0:0:0:
312,112,31846,6,0,L|224:216,1,120,2|0,0:0|0:0,0:0:0:0:
112,208,32825,1,0,0:0:0:0:
240,200,33151,2,0,P|304:232|272:280,1,120,8|0,0:0|0:0,0:0:0:0:
480,256,34455,6,0,L|360:256,1,120,2|0,0:0|0:0,0:0:0:0:
280,152,35433,1,0,0:0:0:0:
136,152,35760,2,0,L|64:152,2,60,8|0|0,0:0|0:0|0:0,0:0:0:0:
264,152,36738,1,0,0:0:0:0:
432,152,37064,5,4,0:0:0:0:
224,152,37716,2,0,L|152:152,1,60
288,152,38368,2,0,L|424:152,1,120,8|0,0:0|0:0,0:0:0:0:
192,160,39673,5,2,0:0:0:0:
408,160,40325,1,6,0:0:0:0:
232,160,40977,2,0,L|144:160,1,60,10|0,0:0|0:0,0:0:0:0:
72,160,41629,2,4,L|176:160,1,60,12|4,0:0|0:0,0:0:0:0:
304,160,42281,6,0,L|408:160,2,90
192,160,43586,1,8,0:0:0:0:
80,160,44238,1,0,0:0:0:0:
208,160,44564,1,0,0:0:0:0:
336,160,44890,6,0,L|232:160,2,90,4|0|0,0:0|0:0|0:0,0:0:0:0:
432,160,46194,1,8,0:0:0:0:
160,160,46846,1,0,0:0:0:0:
64,160,47173,1,0,0:0:0:0:
190,160,47499,6,0,L|280:160,2,90,6|0|0,0:0|0:0|0:0,0:0:0:0:
80,160,48803,1,8,0:0:0:0:
344,160,49455,1,0,0:0:0:0:
440,160,49781,1,0,0:0:0:0:
280,160,50107,6,0,L|184:208,2,90,4|0|0,0:0|0:0|0:0,0:0:0:0:
192,152,51412,1,8,0:0:0:0:
104,120,51738,1,0,0:0:0:0:
104,64,52064,1,0,0:0:0:0:
192,40,52390,1,0,0:0:0:0:
344,64,52716,6,0,L|432:120,2,90,4|0|4,0:0|0:0|0:0,0:0:0:0:
240,56,54020,1,8,0:0:0:0:
88,80,54673,1,0,0:0:0:0:
208,80,54999,1,0,0:0:0:0:
376,88,55325,6,0,L|272:88,2,90,4|0|0,0:0|0:0|0:0,0:0:0:0:
272,88,56629,1,8,0:0:0:0:
104,96,57281,1,0,0:0:0:0:
208,96,57607,1,0,0:0:0:0:
376,96,57933,6,0,L|280:144,2,90,4|0|0,0:0|0:0|0:0,0:0:0:0:
264,88,59238,1,8,0:0:0:0:
48,168,59890,1,0,0:0:0:0:
144,168,60216,1,0,0:0:0:0:
280,152,60542,6,0,L|384:152,2,90,4|0|0,0:0|0:0|0:0,0:0:0:0:
168,160,61846,1,8,0:0:0:0:
296,160,62173,1,0,0:0:0:0:
168,160,62499,1,0,0:0:0:0:
296,160,62825,1,0,0:0:0:0:
448,208,63151,6,0,P|408:280|296:280,1,180,4|0,0:0|0:0,0:0:0:0:
168,200,64455,2,0,P|216:136|320:128,1,180
448,112,65760,5,2,0:0:0:0:
416,112,65923,1,0,0:0:0:0:
288,176,66249,1,2,0:0:0:0:
288,176,66412,1,0,0:0:0:0:
416,320,66738,1,2,0:0:0:0:
448,320,66901,1,0,0:0:0:0:
144,320,67716,5,0,0:0:0:0:
264,320,68042,1,0,0:0:0:0:
120,312,68368,6,0,L|304:264,1,180,6|0,0:0|0:0,0:0:0:0:
400,256,69673,2,0,L|200:240,1,180,6|0,0:0|0:0,0:0:0:0:
56,208,70977,1,6,0:0:0:0:
288,208,71629,1,4,0:0:0:0:
144,208,72281,5,4,0:0:0:0:
48,208,72607,1,0,0:0:0:0:
48,208,72933,1,0,0:0:0:0:
144,208,73260,1,0,0:0:0:0:
304,208,73586,6,0,B|416:208|416:208|344:208,1,180,6|0,0:0|0:0,0:0:0:0:
224,208,74890,2,0,B|120:264|120:264|184:264,1,180,4|0,0:0|0:0,0:0:0:0:
312,272,76194,5,2,0:0:0:0:
344,272,76357,1,0,0:0:0:0:
480,272,76683,1,2,0:0:0:0:
480,272,76846,1,0,0:0:0:0:
352,224,77173,1,2,0:0:0:0:
312,224,77336,1,0,0:0:0:0:
160,224,78151,5,0,0:0:0:0:
56,224,78477,1,0,0:0:0:0:
200,224,78803,6,0,P|248:296|352:312,1,180,6|0,0:0|0:0,0:0:0:0:
464,224,80107,2,4,L|264:224,1,180
152,176,81412,6,2,L|72:176,1,60
192,176,82064,2,2,L|264:176,1,60
368,176,82716,1,0,0:0:0:0:
472,176,83042,1,0,0:0:0:0:
472,248,83368,1,0,0:0:0:0:
368,248,83694,1,0,0:0:0:0:
184,240,84020,5,4,0:0:0:0:
448,240,86629,5,0,0:0:0:0:
144,248,89238,5,0,0:0:0:0:
256,192,91846,12,0,94129,0:0:0:0:
160,192,94455,5,4,0:0:0:0:
352,192,95107,2,0,L|432:192,2,60
176,192,96412,1,0,0:0:0:0:
352,200,97064,6,0,L|408:224,1,60,2|0,0:0|0:0,0:0:0:0:
488,272,97716,2,0,L|416:312,1,60
312,328,98368,1,0,0:0:0:0:
152,320,99020,2,0,L|72:320,1,60
224,320,99673,6,0,L|304:320,1,60,2|0,0:0|0:0,0:0:0:0:
408,328,100325,2,0,L|336:328,1,60
200,320,100977,1,0,0:0:0:0:
64,248,101955,1,0,0:0:0:0:
176,248,102281,5,6,0:0:0:0:
384,248,102933,1,4,0:0:0:0:
144,248,103586,2,0,L|64:248,2,60,4|0|0,0:0|0:0|0:0,0:0:0:0:
280,216,104890,6,0,L|256:152,1,60,4|0,0:0|0:0,0:0:0:0:
136,192,105542,2,0,L|128:128,1,60
32,104,106194,2,0,L|160:104,1,120
352,128,107499,6,0,L|392:192,1,60,4|0,0:0|0:0,0:0:0:0:
256,192,108151,2,0,L|224:248,1,60
376,192,108803,2,0,L|256:192,1,120
96,328,110107,6,0,L|160:328,1,60,4|0,0:0|0:0,0:0:0:0:
288,328,110760,2,0,L|368:328,1,60
184,328,111412,2,0,L|320:328,1,120
472,328,112716,5,6,0:0:0:0:
184,328,113368,1,4,0:0:0:0:
432,320,114020,2,0,L|496:320,1,60
384,320,114673,2,0,L|296:320,1,60
256,192,115325,12,0,117933,0:0:0:0:
