osu file format v13

[General]
AudioFilename: ginkiha - dawn(ginkiha hardcore remix).mp3
AudioLeadIn: 0
PreviewTime: 105735
Countdown: 0
SampleSet: Soft
StackLeniency: 0.7
Mode: 0
LetterboxInBreaks: 0
WidescreenStoryboard: 0

[Editor]
Bookmarks: 22282,64712,85928,96536,107144,149906,170790
DistanceSpacing: 1
BeatDivisor: 4
GridSize: 4
TimelineZoom: 1.8

[Metadata]
Title:dawn(ginkiha hardcore remix)
TitleUnicode:dawn(ginkiha hardcore remix)
Artist:ginkiha
ArtistUnicode:ginkiha
Creator:Aka
Version:Normal
Source:
Tags:OnosakiHito Kyubey -Bakari- EvilElvis Irreversible minimal new age oriens kamome sano
BeatmapID:492942
BeatmapSetID:180721

[Difficulty]
HPDrainRate:4
CircleSize:3.5
OverallDifficulty:4
ApproachRate:5
SliderMultiplier:0.999999999999999
SliderTickRate:1

[Events]
//Background and Video events
0,0,"nanana.jpg",0,0
//Break Periods
2,64912,66165
2,70216,71469
2,75520,76773
2,86128,95336
//Storyboard Layer 0 (Background)
//Storyboard Layer 1 (Fail)
//Storyboard Layer 2 (Pass)
//Storyboard Layer 3 (Foreground)
//Storyboard Sound Samples

[TimingPoints]
1067,331.491712707182,4,1,1,50,1,0
22282,-100,4,1,1,50,0,0
67033,-100,4,2,1,40,0,0
82613,-100,4,2,1,10,0,0
82945,-100,4,2,1,40,0,0
106149,-100,4,1,1,50,0,0
107144,-100,4,1,1,60,0,1
128194,-100,4,1,1,60,0,0
128359,-100,4,1,1,60,0,1
146923,-100,4,1,1,50,0,0
147088,-100,4,1,1,40,0,0
148249,-100,4,1,1,50,0,1
148332,-100,4,1,1,50,0,0
149575,-100,4,1,1,50,0,1
149658,-100,4,2,1,50,0,0
170790,-100,4,2,2,40,0,0

[Colours]
Combo1 : 254,122,95
Combo2 : 239,165,172
Combo3 : 215,157,253
Combo4 : 255,190,166
Combo5 : 237,58,95
Combo6 : 170,70,236

[HitObjects]
232,29,22282,6,0,L|222:135,1,99.9999999999999,4|8,1:2|0:2,0:0:0:0:
248,224,22944,1,0,0:0:0:0:
340,184,23276,2,0,P|395:174|454:190,2,99.9999999999999,8|0|8,0:2|0:0|0:2,0:0:0:0:
258,242,24270,2,0,P|203:252|144:236,1,99.9999999999999,2|8,0:2|0:2,0:0:0:0:
127,219,24768,1,2,0:2:0:0:
106,185,24933,6,0,L|95:34,2,150,4|0|8,0:2|0:0|0:2,0:0:0:0:
93,223,26094,1,4,2:0:0:0:
85,262,26259,2,0,L|95:363,1,99.9999999999999,8|8,0:0|0:2,0:0:0:0:
189,328,26922,1,4,2:0:0:0:
285,354,27254,2,0,L|342:345,1,50,8|8,0:2|0:2,0:0:0:0:
369,326,27585,6,0,P|389:271|384:214,1,99.9999999999999,4|8,0:2|0:2,0:0:0:0:
345,139,28248,1,0,0:0:0:0:
248,167,28580,2,0,L|129:173,2,99.9999999999999,8|0|8,0:2|0:0|0:2,0:0:0:0:
328,107,29574,2,0,L|438:116,1,99.9999999999999,4|12,2:0|0:2,0:0:0:0:
492,191,30237,54,0,P|508:247|495:299,1,99.9999999999999,4|8,0:2|0:0,0:0:0:0:
471,314,30735,2,0,L|351:310,1,99.9999999999999,10|10,2:0|2:0,0:0:0:0:
338,333,31232,2,0,L|268:338,1,50,8|10,0:0|2:0,0:0:0:0:
255,313,31563,2,0,P|234:271|236:214,1,99.9999999999999,4|10,0:2|1:2,0:0:0:0:
295,139,32226,2,0,P|309:100|301:22,1,99.9999999999999,8|4,0:0|0:2,0:0:0:0:
344,57,32723,1,8,0:0:0:0:
380,73,32889,6,0,L|491:69,1,99.9999999999999,4|8,0:2|0:2,0:0:0:0:
474,169,33552,2,0,L|363:173,1,99.9999999999999,0|8,0:0|0:2,0:0:0:0:
340,266,34215,2,0,L|451:262,1,99.9999999999999,0|8,1:2|0:2,0:0:0:0:
478,354,34878,2,0,L|367:358,1,99.9999999999999,4|8,2:0|0:2,0:0:0:0:
283,323,35541,6,0,P|260:276|271:221,1,99.9999999999999,4|8,0:2|0:2,0:0:0:0:
292,200,36038,2,0,P|313:167|306:48,1,150,8|8,0:0|0:2,0:0:0:0:
283,32,36701,1,0,0:0:0:0:
243,25,36867,2,0,L|130:37,1,99.9999999999999,4|8,0:2|0:2,0:0:0:0:
181,128,37530,2,0,L|68:140,1,99.9999999999999,0|8,0:0|0:2,0:0:0:0:
41,230,38193,54,0,L|20:382,2,150,4|0|8,0:2|0:0|0:2,0:0:0:0:
136,258,39519,2,0,L|246:242,1,99.9999999999999,0|8,0:0|0:2,0:0:0:0:
313,181,40182,2,0,P|331:124|311:65,1,99.9999999999999,4|8,2:0|0:2,0:0:0:0:
223,66,40845,2,0,P|196:119|206:180,1,99.9999999999999,4|8,0:2|0:2,0:0:0:0:
213,196,41342,2,0,P|228:251|221:298,1,99.9999999999999,8|8,0:0|0:2,0:0:0:0:
217,332,41840,2,0,L|281:349,1,50,0|0,0:2|0:0,0:0:0:0:
303,333,42171,38,0,P|368:317|410:328,1,99.9999999999999,8|8,0:0|2:0,0:0:0:0:
478,261,42834,2,0,P|484:211|468:164,1,99.9999999999999,8|8,2:0|0:0,0:0:0:0:
391,100,43497,54,0,L|284:97,1,99.9999999999999,4|8,1:2|0:2,0:0:0:0:
190,92,44160,1,0,0:0:0:0:
130,172,44492,2,0,P|101:135|94:69,2,99.9999999999999,8|0|8,0:2|0:0|2:0,0:0:0:0:
225,204,45486,2,0,P|269:234|293:295,1,99.9999999999999,0|8,0:0|0:2,0:0:0:0:
369,213,46149,2,0,P|372:128|411:63,2,150,4|0|8,0:2|0:0|0:2,0:0:0:0:
384,250,47309,1,8,0:2:0:0:
393,288,47475,6,0,P|364:332|315:354,1,99.9999999999999,4|8,1:2|0:2,0:0:0:0:
227,321,48138,2,0,P|176:312|116:323,1,99.9999999999999,8|8,0:0|2:0,0:0:0:0:
35,282,48801,2,0,L|30:177,1,99.9999999999999,4|8,0:2|0:2,0:0:0:0:
67,89,49464,1,0,0:0:0:0:
153,138,49796,2,0,P|203:151|260:137,2,99.9999999999999,8|0|8,0:2|0:0|0:2,0:0:0:0:
203,51,50790,2,0,P|251:42|299:55,1,99.9999999999999,4|8,0:2|0:2,0:0:0:0:
345,144,51453,54,0,L|331:259,1,99.9999999999999,8|8,0:0|0:0,0:0:0:0:
300,266,51950,2,0,P|259:259|166:308,1,150,10|8,0:2|0:0,0:0:0:0:
145,341,52613,1,10,0:2:0:0:
118,370,52779,2,0,P|61:369|14:345,1,99.9999999999999,4|8,0:2|0:0,0:0:0:0:
87,275,53442,2,0,P|45:235|27:185,1,99.9999999999999,10|4,0:2|0:2,0:0:0:0:
25,156,53939,1,10,0:2:0:0:
40,118,54105,6,0,L|150:106,1,99.9999999999999,4|8,1:2|0:2,0:0:0:0:
211,176,54768,2,0,L|313:181,1,99.9999999999999,0|8,0:0|0:2,0:0:0:0:
394,236,55431,1,4,0:2:0:0:
470,172,55762,1,8,0:2:0:0:
388,113,56094,2,0,P|358:67|350:4,1,99.9999999999999,4|8,0:2|0:2,0:0:0:0:
257,64,56757,2,0,P|197:84|96:71,2,150,4|0|8,0:2|0:0|0:2,0:0:0:0:
281,95,57917,1,0,0:0:0:0:
303,128,58083,6,0,P|288:176|289:239,1,99.9999999999999,4|8,0:2|0:2,0:0:0:0:
192,258,58746,2,0,P|206:305|208:355,1,99.9999999999999,0|8,0:0|0:2,0:0:0:0:
304,327,59409,2,0,P|333:305|452:307,2,150,4|0|8,0:2|0:0|0:2,0:0:0:0:
211,365,60735,2,0,P|174:371|113:359,1,99.9999999999999,0|8,0:0|0:2,0:0:0:0:
65,270,61398,2,0,L|57:149,1,99.9999999999999,8|8,0:0|0:2,0:0:0:0:
137,109,62061,2,0,L|149:264,2,150,4|0|0,2:0|0:0|2:0,0:0:0:0:
153,72,63221,1,8,0:0:0:0:
181,43,63386,38,0,P|228:61|285:54,1,99.9999999999999,4|8,0:2|0:2,0:0:0:0:
373,30,64049,2,0,P|422:26|468:43,1,99.9999999999999,8|8,2:0|0:0,0:0:0:0:
507,136,64712,21,6,2:0:0:0:
212,212,67365,70,0,P|200:176|199:142,2,66.6666666666666,2|0|2,2:0|2:0|2:0,0:0:0:0:
264,222,68028,2,0,P|292:196|323:182,2,66.6666666666666,2|0|0,2:0|0:0|0:0,0:0:0:0:
270,275,68691,2,0,P|298:299|317:328,2,66.6666666666666,0|2|0,0:0|0:0|0:0,0:0:0:0:
224,303,69354,2,0,P|205:336|180:359,2,66.6666666666666,2|2|0,2:0|2:0|0:0,0:0:0:0:
220,249,70016,37,6,2:0:0:0:
176,135,72669,54,0,L|94:138,2,66.6666666666666,2|2|0,2:0|2:0|2:0,0:0:0:0:
227,119,73332,2,0,L|309:122,2,66.6666666666666,2|2|2,2:0|2:0|2:0,0:0:0:0:
183,88,73995,2,0,L|166:18,2,66.6666666666666,0|2|0,2:0|2:0|2:0,0:0:0:0:
182,141,74658,2,0,L|166:205,2,66.6666666666666,2|2|0,2:0|2:0|2:0,0:0:0:0:
227,112,75320,37,6,2:0:0:0:
394,266,77973,54,0,P|436:275|470:275,2,66.6666666666666,2|2|0,2:0|2:0|2:0,0:0:0:0:
342,249,78636,2,0,P|300:240|266:240,2,66.6666666666666,2|2|0,2:0|2:0|2:0,0:0:0:0:
365,296,79299,2,0,P|385:333|414:362,2,66.6666666666666,2|2|0,2:0|2:0|2:0,0:0:0:0:
375,243,79962,2,0,P|395:205|424:177,2,66.6666666666666,2|2|0,2:0|2:0|2:0,0:0:0:0:
348,289,80624,38,0,B|287:330|211:331|197:253|117:246|43:302,2,300,4|0|0,2:0|0:0|0:0,0:0:0:0:
277,145,83276,6,0,P|256:112|255:60,2,66.6666666666666,6|0|0,2:0|2:0|2:0,0:0:0:0:
327,162,83939,2,0,L|412:146,2,66.6666666666666,2|0|0,2:0|2:0|2:0,0:0:0:0:
334,215,84602,2,0,P|347:256|340:309,2,66.6666666666666,2|2|2,2:0|2:0|2:0,0:0:0:0:
281,206,85265,2,0,L|196:222,2,66.6666666666666,2|2|8,2:0|2:0|1:0,0:0:0:0:
315,164,85928,37,4,1:0:0:0:
199,250,96536,38,0,P|156:181|164:54,1,200,4|0,1:0|0:0,0:0:0:0:
343,144,97862,2,0,P|350:242|303:328,1,200,4|0,1:0|0:0,0:0:0:0:
246,136,99188,6,0,L|466:113,1,200,4|0,1:0|0:0,0:0:0:0:
469,314,100514,2,0,L|270:334,1,200,4|0,1:0|0:0,0:0:0:0:
344,147,101840,6,0,P|369:101|363:40,1,99.9999999999999,4|0,1:0|0:0,0:0:0:0:
271,79,102503,2,0,P|239:36|182:16,1,99.9999999999999,4|0,1:0|0:0,0:0:0:0:
149,106,103166,2,0,P|97:98|41:124,1,99.9999999999999,4|0,1:0|0:0,0:0:0:0:
49,215,103829,2,0,P|14:254|8:315,1,99.9999999999999,4|0,1:0|0:0,0:0:0:0:
74,373,104491,1,0,1:0:0:0:
185,164,105818,54,0,L|386:147,2,200,6|0|6,1:0|1:0|1:0,0:0:0:0:
108,98,107475,37,8,0:2:0:0:
186,36,107806,2,0,P|241:23|294:27,1,99.9999999999999,8|8,0:0|0:2,0:0:0:0:
375,65,108469,2,0,P|424:110|436:152,1,99.9999999999999,4|8,0:2|0:2,0:0:0:0:
415,238,109132,1,8,0:0:0:0:
317,215,109464,1,8,0:2:0:0:
269,302,109796,2,0,P|192:324|91:249,2,200,4|8|4,0:2|0:0|0:2,0:2:0:0:
317,215,111453,5,8,0:2:0:0:
324,115,111784,2,0,P|311:67|264:25,1,99.9999999999999,8|8,0:0|0:2,0:0:0:0:
177,41,112447,2,0,P|135:54|66:39,1,99.9999999999999,4|8,0:2|0:2,0:0:0:0:
23,128,113110,2,0,P|14:189|22:240,1,99.9999999999999,8|8,0:0|0:2,0:0:0:0:
90,297,113773,1,8,0:0:0:0:
185,266,114105,6,0,L|291:253,2,99.9999999999999,8|8|8,0:2|0:0|0:2,0:0:0:0:
220,172,115099,2,0,L|381:151,1,150,4|8,0:2|0:2,0:0:0:0:
394,122,115762,2,0,P|378:84|383:16,1,99.9999999999999,8|8,0:0|0:2,0:0:0:0:
473,62,116425,2,0,P|490:108|487:157,1,99.9999999999999,4|8,0:2|0:2,0:0:0:0:
432,241,117088,2,0,P|375:266|319:264,1,99.9999999999999,8|6,0:0|1:0,0:0:0:0:
299,256,117585,1,2,0:1:0:0:
265,233,117751,54,0,P|243:196|242:123,1,99.9999999999999,6|8,1:0|0:2,0:0:0:0:
264,43,118414,1,0,0:0:0:0:
339,108,118746,1,8,2:2:0:0:
237,140,119077,2,0,L|125:133,1,99.9999999999999,8|8,0:0|0:2,0:0:0:0:
90,258,119740,2,0,L|202:265,1,99.9999999999999,8|8,0:0|0:2,0:0:0:0:
277,313,120403,2,0,P|339:337|462:298,2,200,4|8|8,0:2|0:0|0:0,0:0:0:0:
222,228,122061,5,8,0:2:0:0:
209,128,122392,2,0,L|227:22,1,99.9999999999999,0|8,0:2|0:2,0:0:0:0:
320,64,123055,2,0,P|389:86|425:76,1,99.9999999999999,4|8,0:2|2:0,0:0:0:0:
433,178,123718,2,0,P|386:193|352:230,1,99.9999999999999,8|8,0:0|0:2,0:0:0:0:
277,295,124381,2,0,L|259:189,1,99.9999999999999,0|8,0:2|0:2,0:0:0:0:
242,97,125044,5,8,0:0:0:0:
154,145,125375,1,8,0:2:0:0:
57,116,125707,2,0,P|84:72|181:49,1,150,4|8,0:2|0:0,0:0:0:0:
207,70,126370,2,0,L|203:171,1,99.9999999999999,0|8,0:0|0:0,0:0:0:0:
298,200,127033,2,0,L|294:99,1,99.9999999999999,8|4,0:0|0:2,0:0:0:0:
392,79,127696,2,0,L|388:178,1,99.9999999999999,8|6,0:0|1:0,0:0:0:0:
383,218,128193,1,2,1:0:0:0:
376,257,128359,54,0,P|344:294|288:305,1,99.9999999999999,6|8,1:0|0:2,0:0:0:0:
211,251,129022,2,0,P|159:248|96:267,1,99.9999999999999,8|8,0:0|0:2,0:0:0:0:
111,359,129685,2,0,P|163:362|226:343,1,99.9999999999999,4|8,0:0|0:2,0:0:0:0:
299,307,130348,2,0,P|357:296|413:306,1,99.9999999999999,8|8,0:0|0:2,0:0:0:0:
482,248,131011,2,0,P|503:190|463:56,2,200,4|8|8,0:2|0:0|0:0,0:0:0:0:
399,304,132668,5,4,0:2:0:0:
309,259,133000,1,8,0:0:0:0:
309,159,133331,1,8,0:2:0:0:
220,206,133663,2,0,P|175:220|100:210,1,99.9999999999999,4|8,0:2|0:2,0:0:0:0:
50,147,134326,2,0,P|47:97|61:49,1,99.9999999999999,8|8,0:0|0:2,0:0:0:0:
159,39,134989,1,8,0:0:0:0:
240,96,135321,70,0,P|305:100|342:91,2,99.9999999999999,8|8|8,0:2|0:0|0:2,0:0:0:0:
216,193,136315,2,0,P|271:248|290:322,1,150,4|0,0:2|0:0,0:0:0:0:
287,356,136978,2,0,P|337:320|381:312,1,99.9999999999999,8|8,0:2|0:0,0:0:0:0:
466,275,137641,1,4,0:2:0:0:
493,178,137972,2,0,P|479:131|438:91,1,99.9999999999999,8|0,0:0|0:0,0:0:0:0:
346,73,138635,1,6,0:0:0:0:
307,83,138801,1,2,0:0:0:0:
266,81,138967,6,0,P|216:76|156:86,1,99.9999999999999,6|8,1:0|0:2,0:0:0:0:
100,157,139630,2,0,L|113:268,1,99.9999999999999,8|8,0:0|0:2,0:0:0:0:
187,322,140293,1,8,0:0:0:0:
262,256,140624,2,0,P|319:229|367:228,2,99.9999999999999,8|8|8,0:2|0:0|0:2,0:0:0:0:
336,323,141619,2,0,P|394:314|446:181,2,200,4|8|8,0:2|0:0|0:0,0:0:0:0:
252,267,143276,1,8,0:2:0:0:
209,174,143607,6,0,L|224:74,1,99.9999999999999,4|8,0:2|0:2,0:0:0:0:
323,61,144270,2,0,L|432:49,1,99.9999999999999,4|8,0:2|0:2,0:0:0:0:
408,149,144933,2,0,L|299:161,1,99.9999999999999,8|8,0:0|0:2,0:0:0:0:
209,174,145596,1,8,0:0:0:0:
109,188,145928,22,0,P|124:239|160:272,1,99.9999999999999,8|8,0:2|0:0,0:0:0:0:
257,267,146591,1,8,0:2:0:0:
328,192,146923,2,0,B|283:147|208:173|208:173|206:103|127:56|55:79|22:116,1,350,4|2,0:2|1:0,0:0:0:0:
16,145,148249,38,0,P|4:208|14:250,1,99.9999999999999,6|8,1:0|0:0,0:0:0:0:
84,306,148911,2,0,P|128:319|191:315,1,99.9999999999999,8|8,1:0|0:0,0:0:0:0:
277,287,149574,1,4,1:2:0:0:
318,195,149906,54,0,L|307:83,2,99.9999999999999,8|0|8,2:0|0:0|2:0,0:0:0:0:
407,240,150900,1,0,0:0:0:0:
496,194,151232,1,8,2:0:0:0:
493,94,151563,1,8,2:0:0:0:
399,57,151895,1,12,2:0:0:0:
316,113,152227,2,0,P|218:129|126:83,2,200,8|4|0,0:0|0:2|0:0,0:0:0:0:
409,150,153884,53,8,2:0:0:0:
479,220,154215,2,0,P|495:268|489:327,1,99.9999999999999,4|8,2:0|2:0,0:0:0:0:
392,329,154878,2,0,P|344:313|285:319,1,99.9999999999999,8|8,0:0|2:0,0:0:0:0:
199,344,155541,2,0,P|149:346|102:330,1,99.9999999999999,0|8,0:0|2:0,0:0:0:0:
54,242,156204,1,8,0:0:0:0:
104,155,156536,6,0,L|90:45,2,99.9999999999999,8|0|8,2:0|0:0|2:0,0:0:0:0:
194,198,157530,2,0,P|259:208|341:184,1,150,8|0,0:0|0:0,0:0:0:0:
376,198,158194,2,0,L|390:308,2,99.9999999999999,8|8|4,0:0|2:0|0:0,0:0:0:0:
400,165,159022,1,0,0:0:0:0:
421,131,159188,2,0,P|424:81|411:33,1,99.9999999999999,8|4,2:0|0:0,0:0:0:0:
316,65,159851,1,4,0:0:0:0:
218,42,160182,1,4,1:2:0:0:
154,119,160514,5,8,2:0:0:0:
208,202,160845,2,0,P|224:248|221:312,1,99.9999999999999,0|8,0:0|2:0,0:0:0:0:
305,357,161508,2,0,P|363:357|416:331,1,99.9999999999999,4|8,1:2|2:0,0:0:0:0:
463,263,162171,1,4,2:0:0:0:
392,192,162502,1,8,2:0:0:0:
436,102,162834,2,0,P|381:68|246:95,2,200,4|12|4,0:0|0:0|1:2,0:0:0:0:
456,200,164491,53,0,2:0:0:0:
404,285,164823,2,0,L|297:283,1,99.9999999999999,4|8,1:2|2:0,0:0:0:0:
217,232,165486,2,0,L|231:132,1,99.9999999999999,4|8,0:0|2:0,0:0:0:0:
319,86,166149,2,0,L|418:87,2,99.9999999999999,4|8|0,0:2|2:0|0:0,0:0:0:0:
220,101,167143,5,8,2:0:0:0:
139,160,167475,1,0,0:0:0:0:
119,258,167806,1,8,2:0:0:0:
158,350,168138,2,0,P|230:375|323:360,1,150,4|0,0:0|0:0,0:0:0:0:
331,340,168801,2,0,B|362:244|282:248|320:145,1,200,4|0,2:0|0:0,0:0:0:0:
339,112,169630,2,0,P|383:66|430:55,2,99.9999999999999,10|10|10,2:0|2:0|2:0,0:0:0:0:
251,63,170624,22,0,P|229:38|212:25,1,50,8|6,1:0|0:2,0:0:0:0:
