osu file format v13

[General]
AudioFilename: 08 Anemoi.mp3
AudioLeadIn: 0
PreviewTime: 108387
Countdown: 1
SampleSet: Soft
StackLeniency: 0.7
Mode: 0
LetterboxInBreaks: 1
WidescreenStoryboard: 0

[Editor]
Bookmarks: 103709
DistanceSpacing: 0.9
BeatDivisor: 4
GridSize: 4
TimelineZoom: 2

[Metadata]
Title:anemol
TitleUnicode:anemol
Artist:ginkiha
ArtistUnicode:ginkiha
Creator:HanzeR
Version:aminal
Source:
Tags:
BeatmapID:519318
BeatmapSetID:222076

[Difficulty]
HPDrainRate:7
CircleSize:4
OverallDifficulty:9
ApproachRate:9
SliderMultiplier:1.92
SliderTickRate:2

[Events]
//Background and Video events
0,0,"34187696.jpg",0,0
//Break Periods
2,82903,89722
2,103425,104193
//Storyboard Layer 0 (Background)
//Storyboard Layer 1 (Fail)
//Storyboard Layer 2 (Pass)
//Storyboard Layer 3 (Foreground)
//Storyboard Sound Samples
//Background Colour Transformations
3,100,163,162,255

[TimingPoints]
0,322.58064516129,4,2,0,100,1,0
0,-133.333333333333,4,2,0,100,0,0
20639,-100,4,2,0,100,0,0
20645,-100,4,2,0,100,0,1
20887,-100,4,2,0,100,0,0
51612,-100,4,2,0,100,0,1
51854,-100,4,2,0,100,0,0
61935,-133.333333333333,4,2,0,100,0,0
62258,-100,4,2,0,100,0,1
62499,-100,4,2,0,100,0,0
77419,-100,4,2,0,100,0,1
77580,-100,4,2,0,100,0,0
77903,-100,4,2,0,100,0,1
78064,-100,4,2,0,100,0,0
78387,-100,4,2,0,100,0,1
78709,-100,4,2,0,100,0,0
79032,-100,4,2,0,100,0,0
79999,-100,4,2,0,100,0,1
80241,-100,4,2,0,100,0,0
80483,-100,4,2,0,100,0,1
80725,-100,4,2,0,100,0,0
80967,-375,4,2,0,100,0,1
81935,-133.333333333333,4,2,0,100,0,0
101935,-100,4,2,0,100,0,0
103225,-133.333333333333,4,2,0,100,0,0
104838,-200,4,2,0,100,0,0
105806,-100,4,2,0,100,0,0
108064,-200,4,2,0,100,0,0
108387,-100,4,2,0,100,0,0
108709,-80,4,2,0,100,0,1
109032,-100,4,2,0,100,0,1
118548,-100,4,2,0,100,0,0
118709,-80,4,2,0,100,0,1
119193,-100,4,2,0,100,0,1
128709,-100,4,2,0,100,0,0
129032,-80,4,2,0,100,0,1
129516,-100,4,2,0,100,0,1
138064,-80,4,2,0,100,0,1
138387,-100,4,2,0,100,0,1
139193,-100,4,2,0,100,0,0
139354,-80,4,2,0,100,0,1
139677,-100,4,2,0,100,0,1
149354,-133.333333333333,4,2,0,100,0,0
149596,-133.333333333333,4,2,0,100,0,1
149677,-133.333333333333,4,2,0,100,0,0

[Colours]
Combo1 : 201,201,201
Combo2 : 128,128,255
Combo3 : 255,157,255
Combo4 : 128,128,192

[HitObjects]
44,295,0,5,0,0:0:0:0:
89,230,161,1,0,0:0:0:0:
168,216,322,1,0,0:0:0:0:
233,261,483,1,0,0:0:0:0:
216,280,806,5,0,0:0:0:0:
281,325,967,1,0,0:0:0:0:
360,311,1129,1,0,0:0:0:0:
405,246,1451,5,0,0:0:0:0:
328,68,1612,1,0,0:0:0:0:
328,204,1774,1,0,0:0:0:0:
408,100,1935,1,0,0:0:0:0:
276,136,2096,5,0,0:0:0:0:
448,176,2258,1,0,0:0:0:0:
396,20,2419,1,0,0:0:0:0:
252,168,2580,5,0,0:0:0:0:
174,182,2741,1,0,0:0:0:0:
109,137,2903,1,0,0:0:0:0:
94,59,3064,1,0,0:0:0:0:
92,88,3387,5,0,0:0:0:0:
84,168,3548,1,0,0:0:0:0:
72,352,3709,1,0,0:0:0:0:
79,326,4032,5,0,0:0:0:0:
104,184,4193,1,0,0:0:0:0:
3,285,4354,1,0,0:0:0:0:
142,266,4516,1,0,0:0:0:0:
16,196,4677,5,0,0:0:0:0:
160,352,4838,1,0,0:0:0:0:
200,144,4999,1,0,0:0:0:0:
228,292,5161,5,0,0:0:0:0:
296,331,5322,1,0,0:0:0:0:
373,311,5483,1,0,0:0:0:0:
413,242,5645,1,0,0:0:0:0:
385,220,5967,5,0,0:0:0:0:
363,143,6129,1,0,0:0:0:0:
404,76,6290,1,0,0:0:0:0:
484,56,6612,5,0,0:0:0:0:
464,136,6774,1,0,0:0:0:0:
404,76,6935,1,0,0:0:0:0:
484,56,7096,5,0,0:0:0:0:
472,220,7258,1,0,0:0:0:0:
340,128,7419,1,0,0:0:0:0:
324,44,7580,1,0,0:0:0:0:
284,192,7741,5,0,0:0:0:0:
206,212,7903,1,0,0:0:0:0:
138,172,8064,1,0,0:0:0:0:
117,96,8225,1,0,0:0:0:0:
124,76,8548,5,0,0:0:0:0:
195,110,8709,1,0,0:0:0:0:
56,160,8870,1,0,0:0:0:0:
32,172,9193,5,0,0:0:0:0:
48,84,9354,1,0,0:0:0:0:
96,248,9516,5,0,0:0:0:0:
112,332,9677,1,0,0:0:0:0:
32,304,9838,5,0,0:0:0:0:
176,276,9999,1,0,0:0:0:0:
288,364,10161,1,0,0:0:0:0:
332,156,10322,6,0,L|344:80,1,72.0000027465821
400,32,10645,1,0,0:0:0:0:
404,200,10806,2,0,P|416:236|392:288,1,72.0000027465821
344,316,11129,1,0,0:0:0:0:
216,160,11290,1,0,0:0:0:0:
264,224,11451,6,0,L|340:236,1,72.0000027465821
160,304,11774,2,0,L|84:316,1,72.0000027465821
32,264,12096,1,0,0:0:0:0:
232,344,12258,1,0,0:0:0:0:
4,348,12419,1,0,0:0:0:0:
60,136,12580,5,0,0:0:0:0:
104,212,12741,1,0,0:0:0:0:
136,36,12903,5,0,0:0:0:0:
180,164,13064,2,0,P|216:164|256:136,1,72.0000027465821
376,84,13387,2,0,L|288:76,1,72.0000027465821
220,68,13709,1,0,0:0:0:0:
279,223,13870,1,0,0:0:0:0:
409,161,14032,1,0,0:0:0:0:
328,156,14193,1,0,0:0:0:0:
397,306,14354,5,0,0:0:0:0:
445,238,14516,1,0,0:0:0:0:
362,232,14677,1,0,0:0:0:0:
314,299,14838,5,0,0:0:0:0:
418,147,14999,1,0,0:0:0:0:
262,221,15161,1,0,0:0:0:0:
404,321,15322,1,0,0:0:0:0:
321,141,15483,5,0,0:0:0:0:
302,317,15645,1,0,0:0:0:0:
466,241,15806,1,0,0:0:0:0:
216,292,15967,2,0,L|140:312,1,72.0000027465821
64,280,16290,5,0,0:0:0:0:
112,144,16451,1,0,0:0:0:0:
20,128,16612,2,0,L|38:197,1,72.0000027465821
120,224,16935,5,0,0:0:0:0:
80,64,17096,1,0,0:0:0:0:
0,48,17258,1,0,0:0:0:0:
192,172,17419,6,0,P|224:172|264:136,1,72.0000027465821
404,116,17741,2,0,P|376:100|323:111,1,72.0000027465821
264,68,18064,5,0,0:0:0:0:
316,256,18225,1,0,0:0:0:0:
356,180,18387,5,0,0:0:0:0:
268,328,18548,1,0,0:0:0:0:
404,256,18709,5,0,0:0:0:0:
232,252,18870,1,0,0:0:0:0:
360,332,19032,5,0,0:0:0:0:
444,180,19193,1,0,0:0:0:0:
276,204,19354,6,0,P|248:192|220:196,1,36.0000013732911
88,167,19516,6,0,P|88:184|93:201,1,36.0000013732911
151,348,19677,6,0,P|166:339|178:325,1,36.0000013732911
192,131,19838,6,0,P|176:139|164:153,1,36.0000013732911
254,311,19999,6,0,P|254:293|249:277,1,36.0000013732911
68,276,20161,6,0,P|83:284|101:288,1,36.0000013732911
172,240,20322,5,0,0:0:0:0:
180,260,20645,6,0,L|200:104,1,144
152,48,20967,1,0,0:0:0:0:
280,156,21129,2,0,P|300:168|336:172,1,48
412,164,21290,2,0,P|434:156|460:131,1,48
480,60,21451,5,0,0:0:0:0:
460,232,21612,2,0,L|448:328,1,96
232,268,21935,6,0,P|164:256|112:328,1,144
168,364,22258,1,0,0:0:0:0:
64,232,22419,2,0,L|28:180,1,48
84,128,22580,1,0,0:0:0:0:
97,109,22661,5,0,0:0:0:0:
95,88,22741,1,0,0:0:0:0:
40,20,22903,1,0,0:0:0:0:
152,176,23064,1,0,0:0:0:0:
188,96,23225,6,0,P|256:80|312:136,1,144
396,112,23548,2,0,L|380:228,1,96
372,288,23790,5,0,0:0:0:0:
383,317,23870,1,0,0:0:0:0:
407,338,23951,1,0,0:0:0:0:
437,347,24032,1,0,0:0:0:0:
452,260,24193,5,0,0:0:0:0:
308,352,24354,1,0,0:0:0:0:
204,264,24516,6,0,P|152:272|116:312,1,96
84,380,24838,1,0,0:0:0:0:
64,240,24999,2,0,L|56:184,1,48
124,140,25161,1,0,0:0:0:0:
134,125,25241,1,0,0:0:0:0:
132,92,25322,5,0,0:0:0:0:
72,32,25483,1,0,0:0:0:0:
195,182,25645,1,0,0:0:0:0:
220,104,25806,5,0,0:0:0:0:
47,110,25967,1,0,0:0:0:0:
284,164,26129,6,0,L|380:140,1,96
436,84,26370,1,0,0:0:0:0:
444,60,26451,1,0,0:0:0:0:
460,80,26532,1,0,0:0:0:0:
460,104,26612,1,0,0:0:0:0:
444,188,26774,5,0,0:0:0:0:
356,64,26935,1,0,0:0:0:0:
384,252,27096,6,0,P|368:304|280:308,1,144
216,268,27419,2,0,L|117:257,1,96
52,292,27661,1,0,0:0:0:0:
36,311,27741,1,0,0:0:0:0:
27,286,27822,1,0,0:0:0:0:
35,264,27903,1,0,0:0:0:0:
77,189,28064,5,0,0:0:0:0:
112,344,28225,1,0,0:0:0:0:
68,168,28387,6,0,L|79:69,1,96
144,16,28709,1,0,0:0:0:0:
208,152,28870,2,0,P|224:168|272:172,1,48
344,180,29032,2,0,P|366:180|403:148,1,48
452,96,29193,5,0,0:0:0:0:
488,280,29354,2,0,P|467:259|402:254,1,96
244,356,29677,2,0,L|348:344,1,96
424,332,29999,1,0,0:0:0:0:
320,268,30161,5,0,0:0:0:0:
289,268,30241,1,0,0:0:0:0:
261,253,30322,1,0,0:0:0:0:
242,228,30403,1,0,0:0:0:0:
272,188,30483,5,0,0:0:0:0:
180,292,30645,2,0,L|76:280,1,96
152,44,30967,2,0,P|196:92|176:172,1,144
100,200,31290,2,0,P|44:204|12:240,1,96
84,280,31532,6,0,L|161:288,1,48
284,304,31693,2,0,L|361:312,1,48
464,324,31935,5,0,0:0:0:0:
356,232,32096,1,0,0:0:0:0:
476,168,32258,2,0,B|508:212|488:248|488:248|448:236|416:264,1,144
364,208,32580,2,0,P|312:204|276:172,1,96
264,96,32822,5,0,0:0:0:0:
280,84,32903,1,0,0:0:0:0:
260,60,32983,5,0,0:0:0:0:
267,39,33064,1,0,0:0:0:0:
344,132,33225,5,0,0:0:0:0:
256,252,33387,1,0,0:0:0:0:
204,180,33548,6,0,L|224:328,1,144
204,312,33870,2,0,P|148:316|116:352,1,96
52,278,34112,6,0,L|8:260,1,48
108,196,34274,2,0,L|78:158,1,48
204,180,34516,6,0,L|216:84,1,96
280,28,34838,5,0,0:0:0:0:
400,176,34999,2,0,P|456:176|492:144,1,96
344,116,35322,6,0,P|306:104|276:115,1,48
316,192,35483,2,0,P|287:218|281:250,1,48
364,256,35645,5,0,0:0:0:0:
424,104,35806,1,0,0:0:0:0:
420,320,35967,1,0,0:0:0:0:
487,153,36129,5,0,0:0:0:0:
308,184,36290,1,0,0:0:0:0:
421,330,36451,1,0,0:0:0:0:
495,145,36612,5,0,0:0:0:0:
452,124,36693,5,0,0:0:0:0:
456,113,36774,1,0,0:0:0:0:
408,112,36854,5,0,0:0:0:0:
406,100,36935,1,0,0:0:0:0:
296,176,37096,6,0,P|244:176|208:152,1,96
92,68,37419,6,0,L|113:218,1,144
124,297,37741,1,0,0:0:0:0:
45,268,37903,6,0,L|7:297,1,48
192,247,38064,2,0,L|236:264,1,48
136,384,38225,5,0,0:0:0:0:
112,210,38387,1,0,0:0:0:0:
124,297,38548,1,0,0:0:0:0:
188,160,38709,6,0,L|206:116,1,48
276,24,38870,2,0,L|294:68,1,48
284,176,39032,6,0,L|328:158,1,48
432,128,39193,2,0,L|414:172,1,48
357,227,39354,101,0,0:0:0:0:
368,236,39435,1,0,0:0:0:0:
376,240,39516,1,0,0:0:0:0:
388,248,39596,1,0,0:0:0:0:
398,250,39677,1,0,0:0:0:0:
409,256,39758,1,0,0:0:0:0:
420,259,39838,1,0,0:0:0:0:
433,256,39919,1,0,0:0:0:0:
443,250,39999,101,0,0:0:0:0:
401,266,40080,1,0,0:0:0:0:
353,277,40161,1,0,0:0:0:0:
308,277,40241,1,0,0:0:0:0:
264,264,40322,1,0,0:0:0:0:
293,296,40403,5,0,0:0:0:0:
336,314,40483,1,0,0:0:0:0:
380,322,40564,1,0,0:0:0:0:
427,319,40645,1,0,0:0:0:0:
392,344,40725,5,0,0:0:0:0:
346,353,40806,1,0,0:0:0:0:
301,352,40887,1,0,0:0:0:0:
256,328,40967,1,0,0:0:0:0:
256,324,41290,5,0,0:0:0:0:
256,192,41451,1,0,0:0:0:0:
180,284,41612,5,0,0:0:0:0:
160,272,41693,1,0,0:0:0:0:
220,208,41854,5,0,0:0:0:0:
214,185,41935,1,0,0:0:0:0:
128,192,42096,5,0,0:0:0:0:
108,180,42177,1,0,0:0:0:0:
168,116,42338,5,0,0:0:0:0:
162,93,42419,1,0,0:0:0:0:
80,100,42580,5,0,0:0:0:0:
256,116,42741,1,0,0:0:0:0:
416,48,42903,5,0,0:0:0:0:
412,24,42983,1,0,0:0:0:0:
352,140,43145,5,0,0:0:0:0:
356,116,43225,1,0,0:0:0:0:
436,212,43387,5,0,0:0:0:0:
432,188,43467,1,0,0:0:0:0:
372,304,43629,5,0,0:0:0:0:
376,280,43709,1,0,0:0:0:0:
440,352,43870,5,0,0:0:0:0:
316,220,44032,1,0,0:0:0:0:
240,276,44193,5,0,0:0:0:0:
220,290,44274,1,0,0:0:0:0:
64,326,44435,5,0,0:0:0:0:
84,312,44516,1,0,0:0:0:0:
238,330,44677,5,0,0:0:0:0:
214,330,44758,1,0,0:0:0:0:
65,271,44919,5,0,0:0:0:0:
89,271,44999,1,0,0:0:0:0:
140,372,45161,5,0,0:0:0:0:
220,196,45322,1,0,0:0:0:0:
134,165,45483,5,0,0:0:0:0:
113,158,45564,1,0,0:0:0:0:
287,141,45725,5,0,0:0:0:0:
309,128,45806,1,0,0:0:0:0:
197,111,45967,5,0,0:0:0:0:
188,87,46048,1,0,0:0:0:0:
303,222,46209,5,0,0:0:0:0:
324,230,46290,1,0,0:0:0:0:
152,248,46451,5,0,0:0:0:0:
104,72,46612,1,0,0:0:0:0:
288,52,46774,5,0,0:0:0:0:
310,39,46854,1,0,0:0:0:0:
364,134,47016,5,0,0:0:0:0:
340,128,47096,1,0,0:0:0:0:
424,208,47258,5,0,0:0:0:0:
448,202,47338,1,0,0:0:0:0:
394,297,47499,5,0,0:0:0:0:
372,284,47580,1,0,0:0:0:0:
296,240,47741,5,0,0:0:0:0:
344,368,47903,1,0,0:0:0:0:
242,342,48064,5,0,0:0:0:0:
256,320,48145,1,0,0:0:0:0:
136,276,48306,5,0,0:0:0:0:
161,270,48387,1,0,0:0:0:0:
104,160,48548,5,0,0:0:0:0:
125,173,48629,1,0,0:0:0:0:
156,52,48790,5,0,0:0:0:0:
161,76,48870,1,0,0:0:0:0:
208,148,49032,5,0,0:0:0:0:
68,76,49193,1,0,0:0:0:0:
264,88,49354,5,0,0:0:0:0:
288,91,49435,1,0,0:0:0:0:
448,144,49596,5,0,0:0:0:0:
424,147,49677,1,0,0:0:0:0:
274,65,49838,5,0,0:0:0:0:
297,74,49919,1,0,0:0:0:0:
438,166,50080,5,0,0:0:0:0:
414,163,50161,1,0,0:0:0:0:
380,72,50322,5,0,0:0:0:0:
424,252,50483,1,0,0:0:0:0:
445,329,50645,5,0,0:0:0:0:
451,353,50725,1,0,0:0:0:0:
481,195,50887,5,0,0:0:0:0:
497,179,50967,1,0,0:0:0:0:
347,231,51129,5,0,0:0:0:0:
323,225,51209,1,0,0:0:0:0:
304,220,51290,1,0,0:0:0:0:
424,252,51451,5,0,0:0:0:0:
308,352,51612,6,0,P|236:356|196:300,1,144
116,288,51935,1,0,0:0:0:0:
108,264,52016,1,0,0:0:0:0:
100,240,52096,1,0,0:0:0:0:
188,200,52258,5,0,0:0:0:0:
180,224,52338,1,0,0:0:0:0:
100,160,52499,5,0,0:0:0:0:
74,160,52580,1,0,0:0:0:0:
84,72,52741,5,0,0:0:0:0:
75,47,52822,1,0,0:0:0:0:
168,104,52903,6,0,P|232:120|288:68,1,144
360,176,53225,1,0,0:0:0:0:
384,180,53306,1,0,0:0:0:0:
408,183,53387,1,0,0:0:0:0:
491,151,53548,6,0,P|475:123|399:103,1,96
344,129,53790,2,0,P|324:172|335:217,1,96
398,268,54032,2,0,P|444:263|479:230,1,96
408,183,54354,5,0,0:0:0:0:
320,304,54516,2,0,B|304:300|304:300|272:312|272:312|240:304|240:304|208:328|164:316,1,144
112,288,54838,1,0,0:0:0:0:
92,300,54919,1,0,0:0:0:0:
33,214,55080,5,0,0:0:0:0:
56,220,55161,1,0,0:0:0:0:
64,128,55322,5,0,0:0:0:0:
52,108,55403,1,0,0:0:0:0:
68,64,55483,5,0,0:0:0:0:
144,104,55645,1,0,0:0:0:0:
132,188,55806,1,0,0:0:0:0:
224,72,55967,5,0,0:0:0:0:
269,60,56048,1,0,0:0:0:0:
313,78,56129,1,0,0:0:0:0:
340,120,56209,1,0,0:0:0:0:
336,164,56290,1,0,0:0:0:0:
260,144,56451,5,0,0:0:0:0:
396,60,56612,1,0,0:0:0:0:
408,80,56693,1,0,0:0:0:0:
420,104,56774,5,0,0:0:0:0:
380,292,56935,1,0,0:0:0:0:
432,224,57096,5,0,0:0:0:0:
444,204,57177,1,0,0:0:0:0:
424,364,57338,5,0,0:0:0:0:
435,384,57419,1,0,0:0:0:0:
296,288,57580,5,0,0:0:0:0:
273,287,57661,1,0,0:0:0:0:
464,296,57822,5,0,0:0:0:0:
487,297,57903,1,0,0:0:0:0:
340,368,58064,5,0,0:0:0:0:
348,216,58225,1,0,0:0:0:0:
264,324,58387,6,0,P|216:316|184:280,1,96
136,212,58629,2,0,L|164:108,1,96
124,44,58870,2,0,P|91:9|45:2,1,96
52,88,59193,5,0,0:0:0:0:
116,300,59354,1,0,0:0:0:0:
268,152,59516,1,0,0:0:0:0:
52,244,59677,5,0,0:0:0:0:
24,256,59758,1,0,0:0:0:0:
168,248,59919,5,0,0:0:0:0:
196,260,59999,1,0,0:0:0:0:
52,140,60161,5,0,0:0:0:0:
24,128,60241,1,0,0:0:0:0:
168,136,60403,5,0,0:0:0:0:
196,124,60483,1,0,0:0:0:0:
316,80,60645,5,0,0:0:0:0:
347,77,60725,1,0,0:0:0:0:
377,87,60806,1,0,0:0:0:0:
401,109,60887,1,0,0:0:0:0:
372,108,60967,5,0,0:0:0:0:
332,105,61048,1,0,0:0:0:0:
296,120,61129,1,0,0:0:0:0:
267,147,61209,1,0,0:0:0:0:
292,164,61290,5,0,0:0:0:0:
340,176,61370,1,0,0:0:0:0:
368,216,61451,1,0,0:0:0:0:
368,264,61532,1,0,0:0:0:0:
340,300,61612,1,0,0:0:0:0:
288,240,61774,5,0,0:0:0:0:
452,240,61935,6,0,B|488:239|518:261|518:261|480:278|448:275,1,108.000004119873
424,332,62258,6,0,L|268:324,1,144
195,317,62580,5,0,0:0:0:0:
172,316,62661,1,0,0:0:0:0:
148,314,62741,1,0,0:0:0:0:
20,184,62903,5,0,0:0:0:0:
72,356,63064,1,0,0:0:0:0:
96,248,63225,2,0,L|112:144,1,96
84,24,63548,6,0,P|128:80|204:64,1,144
260,144,63870,1,0,0:0:0:0:
268,120,63951,1,0,0:0:0:0:
276,96,64032,1,0,0:0:0:0:
256,12,64193,5,0,0:0:0:0:
328,200,64354,1,0,0:0:0:0:
404,96,64516,6,0,B|392:144|392:144|416:180|416:180|404:232,1,144
388,252,64838,2,0,P|440:268|464:312,1,96
388,328,65080,1,0,0:0:0:0:
364,332,65161,1,0,0:0:0:0:
340,336,65241,1,0,0:0:0:0:
316,340,65322,1,0,0:0:0:0:
232,224,65483,5,0,0:0:0:0:
292,344,65645,1,0,0:0:0:0:
160,316,65806,6,0,P|96:324|48:264,1,144
88,196,66129,1,0,0:0:0:0:
188,136,66290,2,0,P|204:120|208:88,1,48
124,80,66451,2,0,P|124:57|104:31,1,48
40,88,66612,5,0,0:0:0:0:
172,224,66774,2,0,L|272:212,1,96
452,96,67096,1,0,0:0:0:0:
352,200,67258,1,0,0:0:0:0:
436,180,67419,1,0,0:0:0:0:
338,36,67580,5,0,0:0:0:0:
347,59,67661,1,0,0:0:0:0:
340,83,67741,5,0,0:0:0:0:
360,96,67822,1,0,0:0:0:0:
367,116,67903,5,0,0:0:0:0:
308,280,68064,1,0,0:0:0:0:
436,180,68225,1,0,0:0:0:0:
380,316,68387,6,0,P|336:360|252:336,1,144
220,272,68709,2,0,L|120:264,1,96
56,320,68951,1,0,0:0:0:0:
36,336,69032,2,0,P|56:348|84:344,1,48
68,200,69193,5,0,0:0:0:0:
124,136,69354,2,0,L|132:36,1,96
40,120,69677,1,0,0:0:0:0:
156,220,69838,1,0,0:0:0:0:
292,148,69999,6,0,B|324:148|344:124|344:124|344:180|384:200,1,144
424,132,70322,1,0,0:0:0:0:
416,100,70403,1,0,0:0:0:0:
408,68,70483,1,0,0:0:0:0:
276,68,70645,5,0,0:0:0:0:
460,212,70806,1,0,0:0:0:0:
272,344,70967,2,0,B|240:352|240:352|208:332|208:332|172:364|120:348,1,144
64,320,71290,1,0,0:0:0:0:
148,272,71451,5,0,0:0:0:0:
126,257,71532,1,0,0:0:0:0:
118,234,71612,5,0,0:0:0:0:
94,234,71693,1,0,0:0:0:0:
73,209,71774,5,0,0:0:0:0:
32,24,71935,1,0,0:0:0:0:
156,160,72096,1,0,0:0:0:0:
80,120,72258,6,0,L|244:96,1,144
296,144,72580,2,0,P|336:172|392:164,1,96
380,76,72822,1,0,0:0:0:0:
372,52,72903,1,0,0:0:0:0:
356,72,72983,1,0,0:0:0:0:
356,96,73064,1,0,0:0:0:0:
432,232,73225,5,0,0:0:0:0:
504,96,73387,1,0,0:0:0:0:
488,296,73548,6,0,P|432:352|360:324,1,144
328,272,73870,2,0,P|276:264|240:288,1,96
176,344,74112,2,0,L|108:336,1,48
0,240,74274,2,0,L|68:232,1,48
300,148,74516,2,0,L|186:134,1,96
100,28,74838,6,0,L|117:170,1,144
184,228,75161,2,0,P|231:223|274:249,1,96
212,300,75403,1,0,0:0:0:0:
170,307,75483,1,0,0:0:0:0:
129,289,75564,1,0,0:0:0:0:
107,251,75645,1,0,0:0:0:0:
292,320,75806,5,0,0:0:0:0:
196,140,75967,1,0,0:0:0:0:
356,160,76129,6,0,L|468:172,1,96
272,200,76451,1,0,0:0:0:0:
280,116,76612,6,0,L|344:63,1,48
196,140,76774,2,0,L|204:57,1,48
188,228,76935,5,0,0:0:0:0:
328,344,77096,1,0,0:0:0:0:
412,232,77258,1,0,0:0:0:0:
132,316,77419,6,0,L|20:328,1,96
320,260,77741,1,0,0:0:0:0:
156,232,77903,6,0,L|44:244,1,96
344,176,78225,1,0,0:0:0:0:
184,144,78387,6,0,P|120:140|92:60,1,144
144,8,78709,1,0,0:0:0:0:
244,208,78870,1,0,0:0:0:0:
236,232,78951,1,0,0:0:0:0:
256,260,79032,6,0,L|268:308,1,48
344,176,79193,1,0,0:0:0:0:
336,152,79274,1,0,0:0:0:0:
356,124,79354,6,0,L|368:76,1,48
456,200,79516,1,0,0:0:0:0:
464,224,79596,1,0,0:0:0:0:
444,252,79677,6,0,L|432:300,1,48
340,208,79838,6,0,L|328:161,1,48
348,304,79999,6,0,P|304:352|224:335,1,144
200,264,80322,1,0,0:0:0:0:
292,136,80483,6,0,L|276:284,1,144
152,336,80806,1,0,0:0:0:0:
104,136,80967,6,0,P|100:84|132:132,1,140.8
120,216,81935,6,0,P|68:220|32:268,1,108.000004119873
88,324,82258,6,0,L|132:336,1,36.0000013732911
256,264,82419,6,0,L|295:241,1,36.0000013732911
266,90,82580,5,0,0:0:0:0:
266,90,90322,5,0,0:0:0:0:
395,66,90483,1,0,0:0:0:0:
352,190,90645,1,0,0:0:0:0:
324,40,90806,5,0,0:0:0:0:
409,141,90967,1,0,0:0:0:0:
280,164,91129,1,0,0:0:0:0:
338,113,91290,5,0,0:0:0:0:
446,188,91451,1,0,0:0:0:0:
328,245,91612,1,0,0:0:0:0:
414,119,91774,5,0,0:0:0:0:
403,250,91935,1,0,0:0:0:0:
296,176,92096,1,0,0:0:0:0:
371,182,92258,5,0,0:0:0:0:
345,257,92419,1,0,0:0:0:0:
272,290,92580,1,0,0:0:0:0:
197,264,92741,1,0,0:0:0:0:
240,104,92903,5,0,0:0:0:0:
164,68,93064,1,0,0:0:0:0:
164,152,93226,1,0,0:0:0:0:
248,92,93387,5,0,0:0:0:0:
151,66,93548,1,0,0:0:0:0:
168,165,93710,1,0,0:0:0:0:
255,77,93871,5,0,0:0:0:0:
135,66,94032,1,0,0:0:0:0:
176,180,94193,1,0,0:0:0:0:
261,58,94355,5,0,0:0:0:0:
116,70,94516,1,0,0:0:0:0:
189,195,94677,1,0,0:0:0:0:
263,33,94839,6,0,L|284:160,1,108.000004119873
344,192,95161,2,0,P|376:160|440:164,1,108.000004119873
408,232,95484,5,0,0:0:0:0:
467,290,95645,1,0,0:0:0:0:
388,319,95806,1,0,0:0:0:0:
416,220,95968,5,0,0:0:0:0:
474,302,96129,1,0,0:0:0:0:
374,320,96290,1,0,0:0:0:0:
427,208,96452,5,0,0:0:0:0:
479,317,96613,1,0,0:0:0:0:
358,317,96774,1,0,0:0:0:0:
443,195,96935,5,0,0:0:0:0:
481,336,97097,1,0,0:0:0:0:
339,310,97258,1,0,0:0:0:0:
316,168,97419,6,0,L|304:76,1,72.0000027465821
356,24,97742,6,0,L|370:5,7,18.0000006866455
288,108,98064,5,0,0:0:0:0:
204,128,98226,1,0,0:0:0:0:
136,76,98387,1,0,0:0:0:0:
301,124,98548,5,0,0:0:0:0:
200,148,98710,1,0,0:0:0:0:
119,86,98871,1,0,0:0:0:0:
313,139,99032,5,0,0:0:0:0:
192,168,99193,1,0,0:0:0:0:
94,93,99355,1,0,0:0:0:0:
329,157,99516,5,0,0:0:0:0:
184,192,99677,1,0,0:0:0:0:
66,102,99839,1,0,0:0:0:0:
276,240,100000,6,0,L|300:356,1,108.000004119873
176,212,100322,6,0,L|204:136,1,72.0000027465821
54,188,100645,5,0,0:0:0:0:
192,152,100806,1,0,0:0:0:0:
288,240,100967,1,0,0:0:0:0:
380,292,101129,5,0,0:0:0:0:
452,244,101290,5,0,0:0:0:0:
432,168,101451,5,0,0:0:0:0:
360,156,101612,5,0,0:0:0:0:
324,212,101774,5,0,0:0:0:0:
388,220,101935,5,0,0:0:0:0:
399,202,102016,1,0,0:0:0:0:
406,183,102096,1,0,0:0:0:0:
409,163,102177,1,0,0:0:0:0:
407,142,102258,1,0,0:0:0:0:
401,123,102338,1,0,0:0:0:0:
391,105,102419,1,0,0:0:0:0:
378,89,102499,1,0,0:0:0:0:
388,116,102580,5,0,0:0:0:0:
392,156,102661,1,0,0:0:0:0:
384,196,102741,1,0,0:0:0:0:
360,228,102822,1,0,0:0:0:0:
284,188,102903,6,0,L|176:176,1,96
416,300,103225,5,0,0:0:0:0:
160,135,104838,6,0,P|195:138|227:155,1,72
84,175,105161,6,0,P|65:204|34:223,1,72
87,90,105483,6,0,P|72:58|70:23,1,72
160,224,105806,5,0,0:0:0:0:
4,132,105967,1,0,0:0:0:0:
168,48,106129,1,0,0:0:0:0:
108,132,106290,5,0,0:0:0:0:
252,76,106451,1,0,0:0:0:0:
332,208,106612,5,0,0:0:0:0:
260,160,106774,1,0,0:0:0:0:
336,120,106935,1,0,0:0:0:0:
212,284,107096,5,0,0:0:0:0:
184,299,107177,1,0,0:0:0:0:
152,304,107258,1,0,0:0:0:0:
122,296,107338,1,0,0:0:0:0:
136,316,107419,5,0,0:0:0:0:
177,336,107499,1,0,0:0:0:0:
224,339,107580,1,0,0:0:0:0:
269,323,107661,1,0,0:0:0:0:
268,300,107741,5,0,0:0:0:0:
313,284,107822,1,0,0:0:0:0:
360,287,107903,1,0,0:0:0:0:
401,307,107983,1,0,0:0:0:0:
420,332,108064,5,0,0:0:0:0:
420,332,108225,5,0,0:0:0:0:
460,64,108387,6,0,B|463:91|463:91|480:121|472:160|472:160|468:176|477:186|477:186|492:180|488:152,1,144
496,156,108709,6,0,P|420:144|376:240,1,180
444,256,109032,5,0,0:0:0:0:
448,244,109112,1,0,0:0:0:0:
452,232,109193,1,0,0:0:0:0:
372,76,109354,5,0,0:0:0:0:
292,204,109516,1,0,0:0:0:0:
160,56,109677,6,0,P|96:48|40:120,1,144
80,180,109999,1,0,0:0:0:0:
28,320,110161,6,0,P|44:336|80:336,1,48
152,316,110322,2,0,P|166:298|163:262,1,48
92,264,110483,5,0,0:0:0:0:
240,336,110645,2,0,P|292:344|328:324,1,96
488,192,110967,5,0,0:0:0:0:
416,360,111129,1,0,0:0:0:0:
404,228,111290,2,0,L|396:124,1,96
460,80,111532,5,0,0:0:0:0:
476,68,111612,1,0,0:0:0:0:
456,44,111693,5,0,0:0:0:0:
463,23,111774,1,0,0:0:0:0:
316,180,111935,2,0,P|248:188|196:136,1,144
236,60,112258,5,0,0:0:0:0:
148,220,112419,1,0,0:0:0:0:
168,8,112580,1,0,0:0:0:0:
104,148,112741,1,0,0:0:0:0:
88,167,112822,1,0,0:0:0:0:
79,142,112903,1,0,0:0:0:0:
87,120,112983,1,0,0:0:0:0:
104,104,113064,5,0,0:0:0:0:
68,292,113225,1,0,0:0:0:0:
24,220,113387,1,0,0:0:0:0:
156,304,113548,6,0,P|240:296|280:348,1,144
268,352,113870,2,0,L|376:336,1,96
448,324,114112,6,0,P|468:304|472:264,1,48
480,204,114274,2,0,P|470:177|435:156,1,48
256,132,114516,5,0,0:0:0:0:
400,224,114677,1,0,0:0:0:0:
352,40,114838,6,0,L|324:200,1,144
388,244,115161,1,0,0:0:0:0:
464,160,115322,2,0,P|435:157|401:180,1,48
308,272,115483,2,0,P|290:255|268:248,1,48
184,264,115645,5,0,0:0:0:0:
160,132,115806,2,0,L|144:28,1,96
232,184,116129,5,0,0:0:0:0:
120,320,116290,1,0,0:0:0:0:
48,280,116451,1,0,0:0:0:0:
184,264,116612,6,0,L|240:276,1,48
344,264,116774,2,0,L|392:232,1,48
476,164,116935,5,0,0:0:0:0:
342,30,117096,2,0,P|309:64|263:68,1,96
368,128,117419,6,0,P|359:70|329:116,1,144
406,117,117741,6,0,P|438:82|484:78,1,96
476,164,117983,6,0,P|456:188|432:196,1,48
320,268,118145,2,0,P|294:249|269:248,1,48
96,292,118387,6,0,L|76:184,1,96
204,28,118709,6,0,P|216:128|132:156,1,180
88,112,119032,1,0,0:0:0:0:
312,100,119193,5,0,0:0:0:0:
356,84,119274,1,0,0:0:0:0:
404,92,119354,5,0,0:0:0:0:
388,92,119435,1,0,0:0:0:0:
376,88,119516,1,0,0:0:0:0:
308,16,119677,5,0,0:0:0:0:
364,168,119838,1,0,0:0:0:0:
344,252,119999,6,0,L|316:360,1,96
280,192,120322,1,0,0:0:0:0:
428,220,120483,2,0,P|452:220|488:196,1,48
256,272,120645,2,0,P|232:272|196:296,1,48
160,352,120806,5,0,0:0:0:0:
120,164,120967,2,0,L|108:68,1,96
211,282,121290,6,0,B|198:271|198:271|164:268|164:268|138:248|138:248|99:256|64:226,1,144
27,170,121612,1,0,0:0:0:0:
202,191,121774,5,0,0:0:0:0:
216,172,121854,1,0,0:0:0:0:
237,161,121935,1,0,0:0:0:0:
262,158,122016,1,0,0:0:0:0:
285,170,122096,1,0,0:0:0:0:
344,236,122258,5,0,0:0:0:0:
280,76,122419,1,0,0:0:0:0:
464,188,122580,6,0,P|416:188|380:159,1,96
504,112,122903,1,0,0:0:0:0:
496,260,123064,2,0,P|484:284|468:296,1,48
392,340,123225,2,0,P|367:350|347:349,1,48
260,332,123387,5,0,0:0:0:0:
168,184,123548,2,0,L|144:60,1,96
248,220,123870,5,0,0:0:0:0:
84,324,124032,1,0,0:0:0:0:
32,256,124193,1,0,0:0:0:0:
200,288,124354,5,0,0:0:0:0:
232,301,124435,1,0,0:0:0:0:
268,299,124516,1,0,0:0:0:0:
299,282,124596,1,0,0:0:0:0:
320,253,124677,1,0,0:0:0:0:
320,168,124838,6,0,L|444:144,1,96
488,196,125161,5,0,0:0:0:0:
372,320,125322,1,0,0:0:0:0:
464,296,125483,1,0,0:0:0:0:
296,368,125645,6,0,L|244:356,1,48
128,364,125806,2,0,L|99:318,1,48
16,236,125967,5,0,0:0:0:0:
88,40,126129,1,0,0:0:0:0:
96,196,126290,1,0,0:0:0:0:
200,64,126451,6,0,P|252:68|288:108,1,96
304,172,126774,1,0,0:0:0:0:
172,164,126935,6,0,L|215:142,1,48
232,232,127096,2,0,L|277:247,1,48
228,324,127258,5,0,0:0:0:0:
156,276,127419,1,0,0:0:0:0:
360,244,127580,1,0,0:0:0:0:
148,364,127741,5,0,0:0:0:0:
107,362,127822,1,0,0:0:0:0:
70,349,127903,1,0,0:0:0:0:
40,323,127983,1,0,0:0:0:0:
64,324,128064,5,0,0:0:0:0:
101,320,128145,1,0,0:0:0:0:
136,303,128225,1,0,0:0:0:0:
166,274,128306,1,0,0:0:0:0:
144,280,128387,5,0,0:0:0:0:
118,276,128467,1,0,0:0:0:0:
96,267,128548,1,0,0:0:0:0:
80,252,128629,1,0,0:0:0:0:
80,252,128709,6,0,B|120:236|120:236|156:260|204:240|204:240|160:228,1,144
120,237,129032,6,0,P|80:164|140:96,1,180
160,172,129354,1,0,0:0:0:0:
220,112,129516,5,0,0:0:0:0:
268,100,129596,1,0,0:0:0:0:
308,128,129677,1,0,0:0:0:0:
320,136,129758,5,0,0:0:0:0:
336,140,129838,1,0,0:0:0:0:
420,128,129999,5,0,0:0:0:0:
364,60,130161,1,0,0:0:0:0:
388,212,130322,6,0,B|381:235|381:235|393:267|393:267|348:296|356:360,1,144
436,336,130645,1,0,0:0:0:0:
300,248,130806,1,0,0:0:0:0:
280,236,130887,1,0,0:0:0:0:
268,256,130967,6,0,L|196:272,1,48
76,360,131129,1,0,0:0:0:0:
140,216,131290,2,0,L|116:110,1,96
184,64,131612,5,0,0:0:0:0:
68,272,131774,1,0,0:0:0:0:
100,40,131935,1,0,0:0:0:0:
220,140,132096,5,0,0:0:0:0:
253,153,132177,1,0,0:0:0:0:
288,151,132258,1,0,0:0:0:0:
321,136,132338,1,0,0:0:0:0:
344,108,132419,1,0,0:0:0:0:
332,24,132580,6,0,P|392:24|424:0,1,96
268,76,132903,6,0,L|303:237,1,144
368,264,133225,1,0,0:0:0:0:
231,337,133387,5,0,0:0:0:0:
276,340,133467,1,0,0:0:0:0:
288,297,133548,1,0,0:0:0:0:
249,274,133629,1,0,0:0:0:0:
219,308,133709,1,0,0:0:0:0:
148,360,133870,6,0,P|92:360|56:328,1,96
64,140,134193,5,0,0:0:0:0:
120,284,134354,1,0,0:0:0:0:
20,212,134516,1,0,0:0:0:0:
188,224,134677,6,0,P|220:212|236:184,1,48
252,120,134838,2,0,P|239:87|211:72,1,48
148,68,134999,5,0,0:0:0:0:
308,180,135161,2,0,P|363:156|412:171,1,96
448,356,135483,5,0,0:0:0:0:
366,236,135645,1,0,0:0:0:0:
500,284,135806,1,0,0:0:0:0:
316,304,135967,5,0,0:0:0:0:
276,324,136048,1,0,0:0:0:0:
236,312,136129,1,0,0:0:0:0:
224,304,136209,5,0,0:0:0:0:
208,328,136290,1,0,0:0:0:0:
128,356,136451,5,0,0:0:0:0:
36,212,136612,1,0,0:0:0:0:
104,268,136774,5,0,0:0:0:0:
192,152,136935,1,0,0:0:0:0:
184,236,137096,1,0,0:0:0:0:
124,100,137258,6,0,P|96:96|76:76,1,48
280,136,137419,2,0,P|307:139|327:160,1,48
192,152,137580,5,0,0:0:0:0:
326,56,137741,2,0,L|437:21,1,96
296,296,138064,6,0,P|268:243|313:292,1,180
412,272,138387,6,0,P|453:256|510:282,1,96
371,348,138629,6,0,P|357:366|334:374,1,48
392,191,138790,2,0,P|405:172|427:164,1,48
456,340,139032,5,0,0:0:0:0:
320,152,139193,1,0,0:0:0:0:
208,340,139354,6,0,P|132:356|64:280,1,180
120,216,139677,6,0,L|108:112,1,96
152,48,139919,5,0,0:0:0:0:
200,36,139999,1,0,0:0:0:0:
240,64,140080,1,0,0:0:0:0:
252,72,140161,5,0,0:0:0:0:
328,32,140322,1,0,0:0:0:0:
288,228,140483,1,0,0:0:0:0:
388,100,140645,6,0,P|448:104|492:176,1,144
424,216,140967,5,0,0:0:0:0:
388,360,141129,1,0,0:0:0:0:
356,322,141210,1,0,0:0:0:0:
360,274,141290,1,0,0:0:0:0:
365,281,141371,5,0,0:0:0:0:
369,289,141451,1,0,0:0:0:0:
452,304,141612,5,0,0:0:0:0:
352,172,141774,1,0,0:0:0:0:
268,312,141935,6,0,P|216:312|176:276,1,96
116,100,142258,1,0,0:0:0:0:
108,184,142419,5,0,0:0:0:0:
105,208,142500,1,0,0:0:0:0:
118,229,142580,5,0,0:0:0:0:
102,247,142661,1,0,0:0:0:0:
100,268,142742,5,0,0:0:0:0:
124,352,142903,5,0,0:0:0:0:
16,240,143064,1,0,0:0:0:0:
196,188,143225,6,0,P|264:188|300:120,1,144
244,72,143548,1,0,0:0:0:0:
364,196,143709,6,0,P|384:180|436:180,1,48
436,336,143870,1,0,0:0:0:0:
392,340,143951,1,0,0:0:0:0:
356,312,144032,1,0,0:0:0:0:
416,256,144193,5,0,0:0:0:0:
456,104,144354,1,0,0:0:0:0:
500,280,144516,5,0,0:0:0:0:
280,352,144677,1,0,0:0:0:0:
216,288,144838,2,0,L|112:280,1,96
52,336,145080,1,0,0:0:0:0:
48,344,145160,1,0,0:0:0:0:
43,351,145241,1,0,0:0:0:0:
39,303,145321,5,0,0:0:0:0:
144,196,145483,1,0,0:0:0:0:
132,368,145645,1,0,0:0:0:0:
60,220,145806,6,0,B|48:172|48:172|72:136|72:136|60:84,1,144
44,76,146129,2,0,P|96:64|124:24,1,96
168,112,146370,6,0,P|185:91|210:90,1,48
280,100,146532,5,0,0:0:0:0:
292,112,146612,1,0,0:0:0:0:
332,188,146774,5,0,0:0:0:0:
416,48,146935,1,0,0:0:0:0:
392,260,147096,6,0,L|380:324,1,48
296,280,147258,2,0,L|242:316,1,48
220,228,147419,2,0,L|156:216,1,48
160,304,147580,6,0,L|106:340,1,48
77,250,147742,2,0,L|13:238,1,48
61,159,147903,2,0,L|24:105,1,48
88,44,148064,6,0,L|141:7,1,48
171,98,148225,2,0,L|235:110,1,48
304,156,148386,5,0,0:0:0:0:
332,118,148466,1,0,0:0:0:0:
377,103,148547,1,0,0:0:0:0:
422,118,148627,1,0,0:0:0:0:
392,152,148709,5,0,0:0:0:0:
383,161,148789,1,0,0:0:0:0:
382,173,148870,1,0,0:0:0:0:
389,183,148950,1,0,0:0:0:0:
420,212,149032,5,0,0:0:0:0:
427,258,149112,1,0,0:0:0:0:
408,296,149193,1,0,0:0:0:0:
368,312,149273,1,0,0:0:0:0:
296,264,149354,6,0,B|272:240|244:248|244:248|264:272|260:304,1,108.000004119873
200,348,149677,5,0,3:0:0:0:
196,350,149731,1,0,3:0:0:0:
192,353,149784,1,0,3:0:0:0:
