osu file format v14

[General]
AudioFilename: ginkiha - Starlight Express.mp3
AudioLeadIn: 0
PreviewTime: 65132
Countdown: 0
SampleSet: Soft
StackLeniency: 0.7
Mode: 3
LetterboxInBreaks: 0
SpecialStyle: 0
WidescreenStoryboard: 0

[Editor]
Bookmarks: 9715,19315,20515,22915,30115,40915,50491
DistanceSpacing: 0.8
BeatDivisor: 2
GridSize: 32
TimelineZoom: 1.2

[Metadata]
Title:Starlight Express
TitleUnicode:Starlight Express
Artist:ginkiha
ArtistUnicode:ginkiha
Creator:bakabakemono
Version:NOVICE Lv.8
Source:SOUND VOLTEX II -infinite infection-
Tags:sdvx konami bemani 制作決定記念 オリジナル楽曲コンテスト production confirmation commemorative original song contest
BeatmapID:507627
BeatmapSetID:216238

[Difficulty]
HPDrainRate:7
CircleSize:4
OverallDifficulty:7
ApproachRate:5
SliderMultiplier:1.4
SliderTickRate:1

[Events]
//Background and Video events
0,0,"bg-by-ringating.png",0,0
//Break Periods
//Storyboard Layer 0 (Background)
//Storyboard Layer 1 (Fail)
//Storyboard Layer 2 (Pass)
//Storyboard Layer 3 (Foreground)
//Storyboard Sound Samples

[TimingPoints]
115,300,4,2,0,40,1,0
9715,-100,4,2,0,40,0,1
19315,-100,4,2,0,40,0,0
40915,299.25187032419,4,2,0,40,1,0
60067,260.869565217391,4,2,0,40,1,0
60067,-114.942528735632,4,2,0,40,0,0
61110,218.181818181818,4,2,0,40,1,0
61110,-136.986301369863,4,2,0,40,0,0
61982,187.5,4,2,0,40,1,0
61982,-158.730158730159,4,2,0,40,0,0
62732,150,4,2,0,40,1,0
62732,-200,4,2,0,40,0,0
63932,300,4,2,0,40,1,0
63932,-100,4,2,0,40,0,0
65132,-100,4,2,0,40,0,1
74657,-100,4,2,0,40,0,0
74732,-100,4,2,0,40,0,1
84332,-100,4,2,0,40,0,0

[HitObjects]
64,192,115,5,0,0:0:0:0:
320,192,265,1,0,0:0:0:0:
192,192,415,1,0,0:0:0:70:dance_clap.wav
448,192,565,1,0,0:0:0:0:
64,192,715,1,0,0:0:0:0:
320,192,865,1,0,0:0:0:0:
448,192,1015,1,0,0:0:0:70:dance_clap.wav
192,192,1165,1,0,0:0:0:0:
64,192,1315,1,0,0:0:0:0:
320,192,1465,1,0,0:0:0:0:
448,192,1615,1,0,0:0:0:70:dance_clap.wav
192,192,1765,1,0,0:0:0:0:
320,192,2065,1,0,0:0:0:0:
192,192,2215,1,0,0:0:0:70:dance_clap.wav
320,192,2365,1,0,0:0:0:0:
64,192,2515,1,0,0:0:0:0:
320,192,2665,1,0,0:0:0:0:
192,192,2815,1,0,0:0:0:70:dance_clap.wav
448,192,2965,1,0,0:0:0:0:
64,192,3115,1,0,0:0:0:0:
192,192,3265,1,0,0:0:0:0:
448,192,3415,1,0,0:0:0:70:dance_clap.wav
64,192,3565,1,0,0:0:0:0:
448,192,3715,1,0,0:0:0:0:
192,192,3865,1,0,0:0:0:0:
320,192,4015,1,0,0:0:0:70:dance_clap.wav
64,192,4165,1,0,0:0:0:0:
320,192,4465,1,0,0:0:0:70:dance_clap.wav
320,192,4615,1,0,0:0:0:70:dance_clap.wav
192,192,4765,1,0,0:0:0:0:
64,192,4915,1,0,0:0:0:0:
320,192,5065,1,0,0:0:0:0:
192,192,5215,1,0,0:0:0:70:dance_clap.wav
448,192,5365,1,0,0:0:0:0:
64,192,5515,1,0,0:0:0:0:
320,192,5665,1,0,0:0:0:0:
448,192,5815,1,0,0:0:0:70:dance_clap.wav
192,192,5965,1,0,0:0:0:0:
64,192,6115,1,0,0:0:0:0:
320,192,6265,1,0,0:0:0:0:
448,192,6415,1,0,0:0:0:70:dance_clap.wav
192,192,6565,1,0,0:0:0:0:
320,192,6865,1,0,0:0:0:0:
192,192,7015,1,0,0:0:0:70:dance_clap.wav
320,192,7165,1,0,0:0:0:0:
64,192,7315,1,0,0:0:0:0:
192,192,7465,1,0,0:0:0:0:
64,192,7615,1,0,0:0:0:70:dance_clap.wav
192,192,7765,1,0,0:0:0:0:
448,192,7915,1,0,0:0:0:0:
320,192,8065,1,0,0:0:0:0:
448,192,8215,1,0,0:0:0:70:dance_clap.wav
320,192,8365,1,0,0:0:0:0:
64,192,8515,1,0,0:0:0:70:cymbal.wav
192,192,8515,1,0,0:0:0:70:dance_kick.wav
448,192,8815,1,0,0:0:0:70:cymbal.wav
320,192,8815,1,0,0:0:0:70:dance_kick.wav
192,192,9115,1,0,0:0:0:70:dance_kick.wav
64,192,9115,1,0,0:0:0:70:cymbal.wav
64,192,9415,1,0,0:0:0:70:dance_kick.wav
64,192,9565,1,0,0:0:0:70:dance_kick.wav
320,192,9715,1,0,0:0:0:70:dance_kick.wav
448,192,9715,1,0,0:0:0:70:cymbal.wav
192,192,9865,1,0,0:0:0:0:
64,188,10015,1,0,0:0:0:70:dance_kick.wav
448,192,10165,1,0,0:0:0:0:
320,192,10465,1,0,0:0:0:0:
192,192,10765,1,0,0:0:0:0:
320,192,11065,128,0,11365:0:0:0:0:
64,192,11365,1,0,0:0:0:0:
192,192,11515,1,0,0:0:0:70:dance_kick.wav
320,192,11665,1,0,0:0:0:0:
448,192,11815,1,0,0:0:0:70:dance_kick.wav
192,192,11965,1,0,0:0:0:0:
448,192,12115,1,0,0:0:0:70:dance_kick.wav
320,192,12265,1,0,0:0:0:0:
192,192,12415,1,0,0:0:0:70:dance_kick.wav
448,192,12565,1,0,0:0:0:0:
64,192,12865,1,0,0:0:0:0:
320,192,13165,1,0,0:0:0:0:
64,192,13465,128,0,13765:0:0:0:0:
320,192,13765,1,0,0:0:0:0:
192,192,13915,1,0,0:0:0:70:dance_kick.wav
64,192,14065,1,0,0:0:0:0:
192,192,14215,1,0,0:0:0:70:dance_kick.wav
320,192,14365,1,0,0:0:0:0:
192,192,14515,1,0,0:0:0:70:dance_kick.wav
64,192,14515,1,0,0:0:0:70:cymbal.wav
448,192,14665,1,0,0:0:0:0:
448,192,14965,1,0,0:0:0:0:
64,192,15265,1,0,0:0:0:0:
64,192,15565,1,0,0:0:0:0:
320,192,15865,1,0,0:0:0:0:
320,192,16165,1,0,0:0:0:0:
192,192,16465,1,0,0:0:0:0:
192,192,16765,1,0,0:0:0:0:
448,192,17065,1,0,0:0:0:0:
64,192,17365,1,0,0:0:0:70:cymbal.wav
192,192,17365,1,0,0:0:0:0:
448,192,17665,1,0,0:0:0:70:cymbal.wav
320,192,17665,1,0,0:0:0:0:
192,192,17965,1,0,0:0:0:0:
64,192,17965,1,0,0:0:0:70:cymbal.wav
320,192,18265,1,0,0:0:0:0:
448,192,18265,1,0,0:0:0:70:cymbal.wav
192,192,18565,1,0,0:0:0:0:
448,192,18715,128,0,19315:0:0:0:70:cymbal.wav
64,192,19015,1,0,0:0:0:70:dance_kick.wav
320,192,19315,1,0,0:0:0:70:cymbal.wav
192,192,19315,1,0,0:0:0:70:dance_kick.wav
64,192,19615,1,0,0:0:0:70:dance_clap.wav
320,192,19915,1,0,0:0:0:70:dance_kick.wav
64,192,20065,1,0,0:0:0:70:cymbal.wav
192,192,20065,1,0,0:0:0:70:dance_kick.wav
448,192,20215,128,0,20515:0:0:0:70:dance_clap.wav
192,192,20515,1,0,0:0:0:70:dance_kick.wav
64,192,20665,1,0,0:0:0:70:dance_kick.wav
320,192,20815,1,0,0:0:0:0:
448,192,20815,1,0,0:0:0:70:dance_clap.wav
64,192,21265,1,0,0:0:0:70:dance_kick.wav
192,192,21415,1,0,0:0:0:0:
448,192,21415,1,0,0:0:0:70:dance_clap.wav
320,192,21715,1,0,0:0:0:70:dance_kick.wav
64,192,22015,1,0,0:0:0:70:dance_clap.wav
192,192,22015,1,0,0:0:0:0:
448,192,22465,1,0,0:0:0:70:dance_kick.wav
64,192,22615,1,0,0:0:0:70:dance_clap.wav
320,192,22615,1,0,0:0:0:0:
192,192,22915,1,0,0:0:0:70:dance_kick.wav
64,192,23065,1,0,0:0:0:70:dance_kick.wav
448,192,23215,1,0,0:0:0:70:dance_clap.wav
320,192,23215,1,0,0:0:0:0:
64,192,23665,1,0,0:0:0:70:dance_kick.wav
192,192,23815,1,0,0:0:0:0:
448,192,23815,1,0,0:0:0:70:dance_clap.wav
320,192,24115,1,0,0:0:0:70:dance_kick.wav
64,192,24415,1,0,0:0:0:0:
192,192,24415,1,0,0:0:0:70:dance_clap.wav
320,192,24865,1,0,0:0:0:70:dance_kick.wav
64,192,25015,1,0,0:0:0:70:dance_clap.wav
448,192,25015,1,0,0:0:0:0:
192,192,25315,1,0,0:0:0:70:dance_kick.wav
448,192,25315,1,0,0:0:0:70:cymbal.wav
320,192,25465,1,0,0:0:0:70:dance_kick.wav
192,192,25615,1,0,0:0:0:0:
64,192,25615,1,0,0:0:0:70:dance_clap.wav
448,192,26065,1,0,0:0:0:70:dance_kick.wav
320,192,26215,1,0,0:0:0:70:dance_clap.wav
192,192,26215,1,0,0:0:0:0:
64,192,26515,1,0,0:0:0:70:dance_kick.wav
192,192,26815,1,0,0:0:0:0:
448,192,26815,1,0,0:0:0:70:dance_clap.wav
320,192,27265,1,0,0:0:0:70:dance_kick.wav
64,192,27415,1,0,0:0:0:70:dance_clap.wav
192,192,27415,1,0,0:0:0:0:
448,192,27715,1,0,0:0:0:70:dance_kick.wav
448,192,28015,1,0,0:0:0:70:dance_kick.wav
320,192,28315,1,0,0:0:0:70:dance_kick.wav
320,192,28615,1,0,0:0:0:70:dance_kick.wav
64,192,28915,1,0,0:0:0:70:dance_kick.wav
192,192,29065,1,0,0:0:0:70:dance_kick.wav
320,192,29215,1,0,0:0:0:70:dance_kick.wav
448,192,29365,1,0,0:0:0:70:dance_kick.wav
64,192,29515,128,0,30115:0:0:0:70:dance_kick.wav
192,192,29815,128,0,30115:0:0:0:70:dance_kick.wav
448,192,30115,128,0,30715:0:0:0:70:cymbal.wav
320,192,30115,1,0,0:0:0:70:dance_kick.wav
192,192,30415,1,0,0:0:0:70:dance_kick.wav
64,192,30715,1,0,0:0:0:70:dance_kick.wav
320,192,31015,1,0,0:0:0:70:dance_kick.wav
192,192,31315,128,0,32215:0:0:0:0:
448,192,31315,1,0,0:0:0:70:dance_kick.wav
320,192,31615,1,0,0:0:0:70:dance_kick.wav
64,192,31915,1,0,0:0:0:70:dance_kick.wav
320,192,32215,1,0,0:0:0:70:dance_kick.wav
448,192,32515,1,0,0:0:0:70:dance_kick.wav
64,192,32665,1,0,0:0:0:0:
448,192,32815,1,0,0:0:0:70:dance_kick.wav
64,192,32965,1,0,0:0:0:0:
320,192,33115,1,0,0:0:0:70:dance_kick.wav
192,192,33415,1,0,0:0:0:70:dance_kick.wav
64,192,33715,1,0,0:0:0:70:dance_kick.wav
192,192,33865,1,0,0:0:0:0:
448,192,34015,128,0,34315:0:0:0:70:dance_kick.wav
64,192,34315,1,0,0:0:0:70:dance_kick.wav
320,192,34615,1,0,0:0:0:70:dance_kick.wav
192,192,34765,1,0,0:0:0:70:dance_kick.wav
64,192,34915,1,0,0:0:0:70:dance_kick.wav
448,192,34915,1,0,0:0:0:70:cymbal.wav
320,192,35215,1,0,0:0:0:70:dance_kick.wav
64,192,35515,1,0,0:0:0:70:dance_kick.wav
448,192,35815,1,0,0:0:0:70:dance_kick.wav
192,192,36115,1,0,0:0:0:70:dance_kick.wav
320,192,36115,1,0,0:0:0:70:cymbal.wav
64,192,36415,1,0,0:0:0:70:dance_kick.wav
448,192,36715,1,0,0:0:0:70:dance_kick.wav
320,192,36865,1,0,0:0:0:0:
448,192,37015,1,0,0:0:0:70:dance_kick.wav
320,192,37165,1,0,0:0:0:0:
64,192,37315,1,0,0:0:0:70:dance_kick.wav
192,192,37315,1,0,0:0:0:70:cymbal.wav
320,192,37465,1,0,0:0:0:70:dance_kick.wav
448,192,37615,1,0,0:0:0:70:dance_kick.wav
64,192,37765,1,0,0:0:0:70:cymbal.wav
192,192,37915,1,0,0:0:0:70:dance_kick.wav
448,192,38065,1,0,0:0:0:70:cymbal.wav
64,192,38215,1,0,0:0:0:70:dance_kick.wav
192,192,38365,1,0,0:0:0:70:cymbal.wav
320,192,38515,128,0,39115:0:0:0:70:dance_kick.wav
192,192,38815,128,0,39115:0:0:0:70:dance_kick.wav
448,192,39265,1,0,0:0:0:70:cymbal.wav
192,192,39415,1,0,0:0:0:70:dance_kick.wav
320,192,39415,1,0,0:0:0:70:cymbal.wav
64,192,39715,1,0,0:0:0:70:dance_kick.wav
448,192,39715,1,0,0:0:0:70:cymbal.wav
192,192,40015,1,0,0:0:0:70:dance_snare.wav
320,192,40315,1,0,0:0:0:70:dance_kick.wav
320,192,40465,1,0,0:0:0:70:dance_kick.wav
64,192,40615,1,0,0:0:0:70:dance_snare.wav
448,192,40915,128,0,42710:0:0:0:70:cymbal.wav
192,192,40915,1,0,0:0:0:70:dance_kick.wav
320,192,41214,1,0,0:0:0:70:dance_clap.wav
64,192,41812,1,0,0:0:0:70:dance_clap.wav
192,192,42411,1,0,0:0:0:70:dance_clap.wav
64,192,42710,1,0,0:0:0:0:
320,192,43009,1,0,0:0:0:70:dance_clap.wav
64,192,43309,128,0,44506:0:0:0:0:
192,192,43608,1,0,0:0:0:70:dance_clap.wav
448,192,44206,1,0,0:0:0:70:dance_clap.wav
320,192,44506,128,0,45104:0:0:0:0:
64,192,44805,1,0,0:0:0:70:dance_clap.wav
192,192,45104,128,0,45703:0:0:0:0:
448,192,45403,1,0,0:0:0:70:dance_clap.wav
64,192,45703,128,0,47498:0:0:0:0:
320,192,45703,1,0,0:0:0:40:dance_kick.wav
448,192,46002,1,0,0:0:0:40:dance_kick.wav
192,192,46301,1,0,0:0:0:40:dance_kick.wav
320,192,46600,1,0,0:0:0:50:dance_kick.wav
448,192,46900,1,0,0:0:0:50:dance_kick.wav
320,192,47199,1,0,0:0:0:50:dance_kick.wav
192,192,47498,1,0,0:0:0:60:dance_kick.wav
320,192,47797,1,0,0:0:0:60:dance_kick.wav
64,192,48097,128,0,49294:0:0:0:0:
448,192,48097,1,0,0:0:0:70:dance_kick.wav
320,192,48396,1,0,0:0:0:70:dance_kick.wav
192,192,48695,1,0,0:0:0:70:dance_kick.wav
320,192,48994,1,0,0:0:0:70:dance_kick.wav
448,192,49294,128,0,49892:0:0:0:0:
192,192,49294,1,0,0:0:0:70:dance_kick.wav
320,192,49593,1,0,0:0:0:70:dance_kick.wav
64,192,49892,1,0,0:0:0:70:dance_kick.wav
192,192,50042,1,0,0:0:0:70:dance_snare.wav
448,192,50191,1,0,0:0:0:70:dance_kick.wav
320,192,50341,1,0,0:0:0:70:dance_kick.wav
192,192,50491,1,0,0:0:0:70:dance_kick.wav
64,192,50491,1,0,0:0:0:70:cymbal.wav
320,192,50790,1,0,0:0:0:70:dance_kick.wav
448,192,50790,1,0,0:0:0:70:dance_clap.wav
64,192,51089,1,0,0:0:0:70:dance_kick.wav
320,192,51388,1,0,0:0:0:70:dance_kick.wav
448,192,51388,1,0,0:0:0:70:dance_clap.wav
192,192,51688,1,0,0:0:0:70:dance_kick.wav
64,192,51987,1,0,0:0:0:70:dance_kick.wav
320,192,51987,1,0,0:0:0:70:dance_clap.wav
448,192,52286,1,0,0:0:0:70:dance_kick.wav
192,192,52585,1,0,0:0:0:70:dance_kick.wav
320,192,52585,1,0,0:0:0:70:dance_clap.wav
64,192,52885,1,0,0:0:0:70:dance_kick.wav
448,192,53184,1,0,0:0:0:70:dance_kick.wav
192,192,53184,1,0,0:0:0:70:dance_clap.wav
64,192,53483,1,0,0:0:0:70:dance_kick.wav
192,192,53782,1,0,0:0:0:70:dance_kick.wav
320,192,53782,1,0,0:0:0:70:dance_clap.wav
64,192,54082,1,0,0:0:0:70:dance_kick.wav
448,192,54231,1,0,0:0:0:70:hihat.wav
320,192,54381,1,0,0:0:0:70:dance_clap.wav
192,192,54530,1,0,0:0:0:70:hihat.wav
64,192,54680,1,0,0:0:0:70:dance_kick.wav
192,192,54830,1,0,0:0:0:70:hihat.wav
320,192,54979,1,0,0:0:0:70:dance_clap.wav
448,192,54979,1,0,0:0:0:70:dance_kick.wav
192,192,55129,1,0,0:0:0:70:dance_kick.wav
64,192,55279,1,0,0:0:0:70:dance_kick.wav
192,192,55578,1,0,0:0:0:70:dance_kick.wav
448,192,55578,1,0,0:0:0:70:dance_clap.wav
320,192,55877,1,0,0:0:0:70:dance_kick.wav
64,192,56176,1,0,0:0:0:70:dance_kick.wav
448,192,56176,1,0,0:0:0:70:dance_clap.wav
192,192,56476,1,0,0:0:0:70:dance_kick.wav
320,192,56775,1,0,0:0:0:70:dance_kick.wav
448,192,56775,1,0,0:0:0:70:dance_clap.wav
64,192,57074,1,0,0:0:0:70:dance_kick.wav
448,192,57373,1,0,0:0:0:70:dance_kick.wav
192,192,57373,1,0,0:0:0:70:dance_clap.wav
64,192,57673,1,0,0:0:0:70:dance_kick.wav
192,192,57972,1,0,0:0:0:70:dance_kick.wav
320,192,57972,1,0,0:0:0:70:dance_clap.wav
448,192,58271,1,0,0:0:0:70:dance_kick.wav
64,192,58570,1,0,0:0:0:70:dance_kick.wav
192,192,58570,1,0,0:0:0:70:dance_clap.wav
320,192,58870,1,0,0:0:0:70:dance_kick.wav
448,192,59019,1,0,0:0:0:70:hihat.wav
320,192,59169,1,0,0:0:0:70:dance_clap.wav
192,192,59318,1,0,0:0:0:70:hihat.wav
64,192,59468,1,0,0:0:0:70:dance_kick.wav
448,192,59618,1,0,0:0:0:70:hihat.wav
320,192,59767,1,0,0:0:0:70:dance_clap.wav
192,192,59917,1,0,0:0:0:70:dance_kick.wav
64,192,60067,1,0,0:0:0:70:dance_kick.wav
448,192,60067,1,0,0:0:0:70:cymbal.wav
64,192,61110,1,0,0:0:0:70:dance_kick.wav
448,192,61110,1,0,0:0:0:70:cymbal.wav
64,192,61982,1,0,0:0:0:70:dance_kick.wav
448,192,61982,1,0,0:0:0:70:cymbal.wav
64,192,62357,1,0,0:0:0:70:dance_kick.wav
448,192,62357,1,0,0:0:0:70:cymbal.wav
192,192,62732,128,0,63932:0:0:0:70:dance_kick.wav
320,192,62732,128,0,63932:0:0:0:0:
64,192,63932,1,0,0:0:0:70:dance_kick.wav
448,192,63932,1,0,0:0:0:70:cymbal.wav
448,192,65132,1,0,0:0:0:70:cymbal.wav
64,192,65132,1,0,0:0:0:70:dance_kick.wav
320,192,65282,1,0,0:0:0:0:
64,192,65432,1,0,0:0:0:70:dance_kick.wav
448,192,65582,128,0,65732:0:0:0:0:
320,192,65882,128,0,66032:0:0:0:0:
192,192,66182,128,0,66332:0:0:0:0:
320,192,66332,1,0,0:0:0:70:dance_kick.wav
448,192,66482,128,0,66782:0:0:0:0:
64,192,66782,1,0,0:0:0:0:
192,192,66932,1,0,0:0:0:70:dance_kick.wav
320,192,67082,1,0,0:0:0:0:
448,192,67232,1,0,0:0:0:70:dance_kick.wav
64,192,67382,1,0,0:0:0:0:
448,192,67532,1,0,0:0:0:70:dance_kick.wav
320,192,67682,1,0,0:0:0:0:
64,192,67832,1,0,0:0:0:70:dance_kick.wav
448,192,67982,1,0,0:0:0:0:
320,192,68282,1,0,0:0:0:0:
192,192,68582,1,0,0:0:0:0:
64,192,68882,128,0,69182:0:0:0:0:
192,192,69182,1,0,0:0:0:0:
320,192,69332,1,0,0:0:0:70:dance_kick.wav
448,192,69482,1,0,0:0:0:0:
192,192,69632,1,0,0:0:0:70:dance_kick.wav
64,192,69782,1,0,0:0:0:70:dance_kick.wav
192,192,69932,1,0,0:0:0:70:dance_kick.wav
448,192,70082,1,0,0:0:0:0:
448,192,70382,1,0,0:0:0:0:
64,192,70682,1,0,0:0:0:0:
64,192,70982,1,0,0:0:0:0:
320,192,71282,1,0,0:0:0:0:
320,192,71582,1,0,0:0:0:0:
192,192,71882,1,0,0:0:0:0:
192,192,72182,1,0,0:0:0:0:
320,192,72332,1,0,0:0:0:70:dance_kick.wav
192,192,72482,1,0,0:0:0:0:
64,192,72632,1,0,0:0:0:70:dance_kick.wav
448,192,72782,1,0,0:0:0:70:cymbal.wav
192,192,72782,1,0,0:0:0:0:
320,192,73082,1,0,0:0:0:70:cymbal.wav
64,192,73082,1,0,0:0:0:0:
448,192,73382,1,0,0:0:0:0:
320,192,73382,1,0,0:0:0:70:cymbal.wav
64,192,73682,1,0,0:0:0:0:
192,192,73682,1,0,0:0:0:70:cymbal.wav
320,192,73982,1,0,0:0:0:0:
192,192,74132,128,0,74732:0:0:0:70:dance_kick.wav
448,192,74132,1,0,0:0:0:70:cymbal.wav
448,192,74732,1,0,0:0:0:70:cymbal.wav
64,192,74732,1,0,0:0:0:70:dance_kick.wav
320,192,74882,1,0,0:0:0:0:
192,192,75032,1,0,0:0:0:70:dance_kick.wav
64,192,75182,128,0,75332:0:0:0:0:
320,192,75482,128,0,75632:0:0:0:0:
192,192,75782,128,0,75932:0:0:0:0:
448,192,75932,1,0,0:0:0:70:dance_kick.wav
64,192,76082,128,0,76382:0:0:0:0:
448,192,76382,1,0,0:0:0:0:
320,192,76532,1,0,0:0:0:70:dance_kick.wav
64,192,76682,1,0,0:0:0:0:
192,192,76832,1,0,0:0:0:70:dance_kick.wav
320,192,76982,1,0,0:0:0:0:
64,192,77132,128,0,77432:0:0:0:70:dance_kick.wav
192,192,77432,128,0,77732:0:0:0:70:dance_kick.wav
448,192,77732,128,0,78032:0:0:0:70:dance_kick.wav
320,192,78032,128,0,78332:0:0:0:70:dance_kick.wav
64,192,78332,128,0,78632:0:0:0:70:dance_kick.wav
192,192,78632,128,0,78932:0:0:0:70:dance_kick.wav
320,192,78932,128,0,79232:0:0:0:70:dance_kick.wav
64,192,79232,1,0,0:0:0:70:dance_kick.wav
192,192,79382,1,0,0:0:0:70:dance_kick.wav
448,192,79532,1,0,0:0:0:70:cymbal.wav
320,192,79532,1,0,0:0:0:70:dance_kick.wav
64,192,79832,1,0,0:0:0:70:dance_kick.wav
192,192,80132,1,0,0:0:0:70:dance_kick.wav
448,192,80432,1,0,0:0:0:70:dance_kick.wav
64,192,80732,128,0,81932:0:0:0:70:dance_kick.wav
320,192,81332,128,0,81932:0:0:0:70:dance_kick.wav
448,192,81932,1,0,0:0:0:70:dance_kick.wav
192,192,82082,1,0,0:0:0:70:dance_kick.wav
320,192,82232,1,0,0:0:0:70:dance_kick.wav
64,192,82382,1,0,0:0:0:70:dance_kick.wav
448,192,82382,1,0,0:0:0:70:cymbal.wav
320,192,82682,1,0,0:0:0:70:cymbal.wav
192,192,82682,1,0,0:0:0:70:dance_kick.wav
448,192,82982,1,0,0:0:0:70:dance_kick.wav
192,192,82982,1,0,0:0:0:70:cymbal.wav
320,192,83282,1,0,0:0:0:70:dance_kick.wav
64,192,83282,1,0,0:0:0:70:cymbal.wav
192,192,83582,1,0,0:0:0:70:cymbal.wav
448,192,83732,128,0,84332:0:0:0:70:dance_kick.wav
64,192,83732,1,0,0:0:0:70:cymbal.wav
320,192,84332,1,0,0:0:0:70:cymbal.wav
192,192,84332,1,0,0:0:0:70:dance_kick.wav
64,192,84632,1,0,0:0:0:70:dance_snare.wav
448,192,84932,1,0,0:0:0:70:dance_kick.wav
448,192,85082,1,0,0:0:0:70:dance_kick.wav
64,192,85232,1,0,0:0:0:70:dance_snare.wav
192,192,85532,1,0,0:0:0:70:dance_kick.wav
64,192,85532,1,0,0:0:0:70:cymbal.wav
320,192,85682,1,0,0:0:0:0:
192,192,85832,1,0,0:0:0:70:dance_clap.wav
320,192,85982,1,0,0:0:0:0:
192,192,86132,1,0,0:0:0:0:
320,192,86282,1,0,0:0:0:0:
448,192,86432,1,0,0:0:0:70:dance_clap.wav
320,192,86582,1,0,0:0:0:0:
64,192,86732,1,0,0:0:0:0:
192,192,86882,1,0,0:0:0:0:
448,192,87032,1,0,0:0:0:70:dance_clap.wav
64,192,87182,1,0,0:0:0:0:
64,192,87332,1,0,0:0:0:0:
448,192,87482,1,0,0:0:0:0:
320,192,87632,1,0,0:0:0:70:dance_clap.wav
448,192,87782,1,0,0:0:0:70:cymbal.wav
192,192,87932,1,0,0:0:0:70:cymbal.wav
320,192,88082,1,0,0:0:0:0:
192,192,88232,1,0,0:0:0:70:dance_clap.wav
320,192,88382,1,0,0:0:0:0:
192,192,88532,1,0,0:0:0:0:
320,192,88682,1,0,0:0:0:0:
448,192,88832,1,0,0:0:0:70:dance_clap.wav
64,192,88982,1,0,0:0:0:0:
448,192,89132,1,0,0:0:0:0:
320,192,89282,1,0,0:0:0:0:
448,192,89432,1,0,0:0:0:70:dance_clap.wav
192,192,89582,1,0,0:0:0:0:
320,192,89882,1,0,0:0:0:70:cymbal.wav
192,192,90032,1,0,0:0:0:70:dance_clap.wav
64,192,90182,1,0,0:0:0:70:cymbal.wav
192,192,90332,1,0,0:0:0:70:cymbal.wav
320,192,90482,1,0,0:0:0:0:
192,192,90632,1,0,0:0:0:70:dance_clap.wav
320,192,90782,1,0,0:0:0:0:
192,192,90932,1,0,0:0:0:0:
320,192,91082,1,0,0:0:0:0:
448,192,91232,1,0,0:0:0:70:dance_clap.wav
320,192,91382,1,0,0:0:0:0:
64,192,91532,1,0,0:0:0:0:
192,192,91682,1,0,0:0:0:0:
448,192,91832,1,0,0:0:0:70:dance_clap.wav
64,192,91982,1,0,0:0:0:0:
64,192,92132,1,0,0:0:0:0:
448,192,92282,1,0,0:0:0:0:
192,192,92432,1,0,0:0:0:70:dance_clap.wav
320,192,92582,1,0,0:0:0:70:cymbal.wav
64,192,92732,1,0,0:0:0:70:dance_kick.wav
192,192,92732,1,0,0:0:0:70:cymbal.wav
448,192,92882,1,0,0:0:0:0:
320,192,93032,1,0,0:0:0:70:dance_clap.wav
448,192,93182,1,0,0:0:0:0:
64,192,93332,1,0,0:0:0:70:dance_kick.wav
192,192,93332,1,0,0:0:0:70:cymbal.wav
448,192,93482,1,0,0:0:0:0:
320,192,93632,1,0,0:0:0:70:dance_clap.wav
192,192,93782,1,0,0:0:0:0:
64,192,93932,1,0,0:0:0:70:dance_kick.wav
448,192,93932,1,0,0:0:0:70:cymbal.wav
320,192,94232,1,0,0:0:0:70:cymbal.wav
64,192,94232,1,0,0:0:0:70:dance_kick.wav
64,192,94532,1,0,0:0:0:70:dance_kick.wav
192,192,94532,1,0,0:0:0:70:cymbal.wav
64,192,94832,1,0,0:0:0:70:dance_kick.wav
192,192,94982,1,0,0:0:0:70:dance_kick.wav
320,192,95132,1,0,0:0:0:70:dance_kick.wav
448,192,95132,1,0,0:0:0:70:cymbal.wav
