osu file format v14

[General]
AudioFilename: ginkiha - Starlight Express.mp3
AudioLeadIn: 0
PreviewTime: 65132
Countdown: 0
SampleSet: Soft
StackLeniency: 0.7
Mode: 3
LetterboxInBreaks: 0
SpecialStyle: 0
WidescreenStoryboard: 0

[Editor]
Bookmarks: 9715,19315,20515,22915,30115,40915,50491,65132
DistanceSpacing: 0.8
BeatDivisor: 2
GridSize: 32
TimelineZoom: 2.1

[Metadata]
Title:Starlight Express
TitleUnicode:Starlight Express
Artist:ginkiha
ArtistUnicode:ginkiha
Creator:bakabakemono
Version:EXHAUST Lv.15
Source:SOUND VOLTEX II -infinite infection-
Tags:sdvx konami bemani 制作決定記念 オリジナル楽曲コンテスト production confirmation commemorative original song contest
BeatmapID:507626
BeatmapSetID:216238

[Difficulty]
HPDrainRate:8
CircleSize:4
OverallDifficulty:8
ApproachRate:5
SliderMultiplier:1.4
SliderTickRate:1

[Events]
//Background and Video events
0,0,"bg-by-ringating.png",0,0
//Break Periods
//Storyboard Layer 0 (Background)
//Storyboard Layer 1 (Fail)
//Storyboard Layer 2 (Pass)
//Storyboard Layer 3 (Foreground)
//Storyboard Sound Samples

[TimingPoints]
115,300,4,2,0,40,1,0
9715,-100,4,2,0,40,0,1
19315,-100,4,2,0,40,0,0
40915,299.25187032419,4,2,0,40,1,0
60067,260.869565217391,4,2,0,40,1,0
60067,-114.942528735632,4,2,0,40,0,0
61110,218.181818181818,4,2,0,40,1,0
61110,-136.986301369863,4,2,0,40,0,0
61982,187.5,4,2,0,40,1,0
61982,-158.730158730159,4,2,0,40,0,0
62732,150,4,2,0,40,1,0
62732,-200,4,2,0,40,0,0
63932,300,4,2,0,40,1,0
63932,-100,4,2,0,40,0,0
65132,-100,4,2,0,40,0,1
74657,-100,4,2,0,40,0,0
74732,-100,4,2,0,40,0,1
84332,-100,4,2,0,40,0,0

[HitObjects]
192,192,115,5,0,0:0:0:0:
320,192,265,1,0,0:0:0:0:
192,192,415,1,0,0:0:0:0:
64,192,415,1,0,0:0:0:70:dance_clap.wav
320,192,565,1,0,0:0:0:0:
192,192,715,1,0,0:0:0:0:
320,192,865,1,0,0:0:0:0:
448,192,1015,1,0,0:0:0:70:dance_clap.wav
192,192,1015,1,0,0:0:0:0:
320,192,1165,1,0,0:0:0:0:
64,192,1315,1,0,0:0:0:0:
192,192,1465,1,0,0:0:0:0:
448,192,1615,1,0,0:0:0:0:
64,192,1615,1,0,0:0:0:70:dance_clap.wav
320,192,1765,1,0,0:0:0:0:
192,192,2065,1,0,0:0:0:0:
64,192,2215,1,0,0:0:0:70:dance_clap.wav
448,192,2215,1,0,0:0:0:0:
320,192,2365,1,0,0:0:0:0:
192,192,2515,1,0,0:0:0:0:
320,192,2665,1,0,0:0:0:0:
192,192,2815,1,0,0:0:0:0:
64,192,2815,1,0,0:0:0:70:dance_clap.wav
320,192,2965,1,0,0:0:0:0:
192,192,3115,1,0,0:0:0:0:
320,192,3265,1,0,0:0:0:0:
448,192,3415,1,0,0:0:0:70:dance_clap.wav
192,192,3415,1,0,0:0:0:0:
64,192,3565,1,0,0:0:0:0:
448,192,3715,1,0,0:0:0:0:
320,192,3865,1,0,0:0:0:0:
448,192,4015,1,0,0:0:0:0:
64,192,4015,1,0,0:0:0:70:dance_clap.wav
192,192,4165,1,0,0:0:0:0:
192,192,4465,1,0,0:0:0:0:
320,192,4465,1,0,0:0:0:70:dance_clap.wav
320,192,4615,1,0,0:0:0:0:
192,192,4615,1,0,0:0:0:70:dance_clap.wav
448,192,4765,1,0,0:0:0:0:
192,192,4915,1,0,0:0:0:0:
320,192,5065,1,0,0:0:0:0:
64,192,5215,1,0,0:0:0:0:
448,192,5215,1,0,0:0:0:70:dance_clap.wav
320,192,5365,1,0,0:0:0:0:
192,192,5515,1,0,0:0:0:0:
320,192,5665,1,0,0:0:0:0:
192,192,5815,1,0,0:0:0:0:
64,192,5815,1,0,0:0:0:70:dance_clap.wav
320,192,5965,1,0,0:0:0:0:
64,192,6115,1,0,0:0:0:0:
192,192,6265,1,0,0:0:0:0:
448,192,6415,1,0,0:0:0:70:dance_clap.wav
64,192,6415,1,0,0:0:0:0:
320,192,6565,1,0,0:0:0:0:
448,192,6865,1,0,0:0:0:0:
192,192,7015,1,0,0:0:0:70:dance_clap.wav
320,192,7015,1,0,0:0:0:0:
64,192,7165,1,0,0:0:0:0:
320,192,7315,1,0,0:0:0:10:dance_clap.wav
192,192,7390,1,0,0:0:0:10:dance_clap.wav
448,192,7465,1,0,0:0:0:20:dance_clap.wav
64,192,7540,1,0,0:0:0:20:dance_clap.wav
320,192,7615,1,0,0:0:0:30:dance_clap.wav
448,192,7690,1,0,0:0:0:30:dance_clap.wav
64,192,7765,1,0,0:0:0:40:dance_clap.wav
320,192,7840,1,0,0:0:0:40:dance_clap.wav
192,192,7915,1,0,0:0:0:50:dance_clap.wav
448,192,7990,1,0,0:0:0:50:dance_clap.wav
320,192,8065,1,0,0:0:0:60:dance_clap.wav
64,192,8140,1,0,0:0:0:60:dance_clap.wav
192,194,8215,1,0,0:0:0:70:dance_clap.wav
448,192,8290,1,0,0:0:0:70:dance_clap.wav
64,192,8365,1,0,0:0:0:70:dance_clap.wav
320,192,8440,1,0,0:0:0:70:dance_clap.wav
192,192,8515,1,0,0:0:0:70:cymbal.wav
448,192,8515,1,0,0:0:0:70:dance_kick.wav
64,192,8515,1,0,0:0:0:0:
64,192,8665,1,0,0:0:0:0:
192,192,8815,1,0,0:0:0:0:
448,192,8815,1,0,0:0:0:70:dance_kick.wav
320,192,8815,1,0,0:0:0:70:cymbal.wav
320,192,8965,1,0,0:0:0:0:
64,192,9115,1,0,0:0:0:0:
192,192,9115,1,0,0:0:0:70:cymbal.wav
448,192,9115,1,0,0:0:0:70:dance_kick.wav
448,192,9415,1,0,0:0:0:0:
64,192,9415,1,0,0:0:0:70:dance_kick.wav
64,192,9565,1,0,0:0:0:70:dance_kick.wav
448,192,9565,1,0,0:0:0:0:
192,192,9715,1,0,0:0:0:0:
64,192,9715,1,0,0:0:0:70:dance_kick.wav
448,192,9715,1,0,0:0:0:70:cymbal.wav
192,192,9865,1,0,0:0:0:0:
320,192,9865,1,0,0:0:0:0:
64,192,10015,1,0,0:0:0:70:dance_kick.wav
192,192,10015,1,0,0:0:0:0:
448,192,10015,1,0,0:0:0:0:
448,192,10165,1,0,0:0:0:0:
320,192,10165,1,0,0:0:0:0:
320,192,10315,1,0,0:0:0:0:
64,192,10315,1,0,0:0:0:70:dance_kick.wav
448,192,10390,1,0,0:0:0:0:
192,192,10390,1,0,0:0:0:0:
320,192,10465,1,0,0:0:0:0:
64,192,10465,1,0,0:0:0:0:
192,192,10615,1,0,0:0:0:0:
448,192,10615,1,0,0:0:0:70:dance_kick.wav
64,192,10690,1,0,0:0:0:0:
320,192,10690,1,0,0:0:0:0:
192,192,10765,1,0,0:0:0:0:
448,192,10765,1,0,0:0:0:0:
64,192,10915,1,0,0:0:0:0:
320,192,10915,1,0,0:0:0:70:dance_kick.wav
64,192,11065,128,0,11365:0:0:0:0:
448,192,11215,1,0,0:0:0:0:
192,192,11215,1,0,0:0:0:70:dance_kick.wav
320,192,11365,128,0,11515:0:0:0:0:
192,192,11515,128,0,11665:0:0:0:0:
64,192,11515,1,0,0:0:0:70:dance_kick.wav
448,192,11665,128,0,11815:0:0:0:0:
64,192,11815,128,0,11965:0:0:0:0:
192,192,11815,1,0,0:0:0:70:dance_kick.wav
320,192,11965,128,0,12115:0:0:0:0:
192,192,12115,1,0,0:0:0:0:
448,192,12115,1,0,0:0:0:70:dance_kick.wav
64,192,12265,1,0,0:0:0:0:
320,192,12265,1,0,0:0:0:0:
192,192,12415,1,0,0:0:0:70:dance_kick.wav
448,192,12415,1,0,0:0:0:0:
64,192,12565,1,0,0:0:0:0:
448,192,12565,128,0,12715:0:0:0:0:
320,192,12715,1,0,0:0:0:70:dance_kick.wav
192,192,12715,1,0,0:0:0:0:
448,192,12865,1,0,0:0:0:0:
64,192,12865,128,0,13015:0:0:0:0:
192,192,13015,1,0,0:0:0:70:dance_kick.wav
320,192,13015,1,0,0:0:0:0:
64,192,13165,1,0,0:0:0:0:
448,192,13165,128,0,13315:0:0:0:0:
64,192,13315,1,0,0:0:0:0:
320,192,13315,1,0,0:0:0:70:dance_kick.wav
448,192,13465,128,0,13915:0:0:0:0:
192,192,13465,128,0,13765:0:0:0:0:
64,192,13765,128,0,14065:0:0:0:0:
320,192,13915,128,0,14215:0:0:0:70:dance_kick.wav
192,192,14065,128,0,14365:0:0:0:0:
448,192,14215,128,0,14515:0:0:0:70:dance_kick.wav
64,192,14365,128,0,14515:0:0:0:0:
192,192,14515,1,0,0:0:0:70:dance_kick.wav
320,192,14515,1,0,0:0:0:70:cymbal.wav
320,192,14665,1,0,0:0:0:0:
64,192,14665,1,0,0:0:0:0:
192,192,14815,1,0,0:0:0:0:
448,192,14815,1,0,0:0:0:70:dance_kick.wav
64,192,14965,1,0,0:0:0:0:
448,192,14965,1,0,0:0:0:0:
192,192,15115,1,0,0:0:0:0:
320,192,15115,1,0,0:0:0:70:dance_kick.wav
448,192,15190,1,0,0:0:0:0:
64,192,15190,1,0,0:0:0:0:
192,192,15265,1,0,0:0:0:0:
320,192,15265,1,0,0:0:0:0:
64,192,15415,1,0,0:0:0:0:
448,192,15415,1,0,0:0:0:70:dance_kick.wav
192,192,15490,1,0,0:0:0:0:
320,192,15490,1,0,0:0:0:0:
448,192,15565,1,0,0:0:0:0:
64,192,15565,1,0,0:0:0:0:
192,192,15715,1,0,0:0:0:70:dance_kick.wav
320,192,15715,1,0,0:0:0:0:
64,192,15865,1,0,0:0:0:0:
320,192,16015,1,0,0:0:0:0:
64,192,16015,128,0,16165:0:0:0:70:dance_kick.wav
448,192,16165,1,0,0:0:0:0:
192,192,16165,128,0,16315:0:0:0:0:
64,192,16315,1,0,0:0:0:70:dance_kick.wav
320,192,16315,128,0,16465:0:0:0:0:
448,192,16465,1,0,0:0:0:0:
192,192,16465,128,0,16615:0:0:0:0:
64,192,16615,1,0,0:0:0:70:dance_kick.wav
320,192,16615,128,0,16765:0:0:0:0:
192,192,16765,1,0,0:0:0:0:
448,192,16765,128,0,16915:0:0:0:0:
320,192,16915,1,0,0:0:0:0:
64,192,16915,1,0,0:0:0:70:dance_kick.wav
320,192,17065,1,0,0:0:0:0:
192,192,17065,1,0,0:0:0:0:
64,192,17215,1,0,0:0:0:0:
448,192,17215,1,0,0:0:0:70:dance_kick.wav
320,192,17365,5,0,0:0:0:0:
192,192,17365,1,0,0:0:0:70:cymbal.wav
64,195,17365,128,0,17515:0:0:0:0:
448,192,17515,1,0,0:0:0:70:dance_kick.wav
192,192,17515,1,0,0:0:0:0:
320,192,17665,1,0,0:0:0:0:
448,192,17665,1,0,0:0:0:70:cymbal.wav
192,192,17665,128,0,17815:0:0:0:0:
320,192,17815,1,0,0:0:0:0:
64,192,17815,1,0,0:0:0:70:dance_kick.wav
448,192,17965,1,0,0:0:0:0:
64,192,17965,1,0,0:0:0:70:cymbal.wav
192,192,17965,128,0,18115:0:0:0:0:
320,192,18115,1,0,0:0:0:0:
448,192,18115,1,0,0:0:0:70:dance_kick.wav
192,192,18265,1,0,0:0:0:70:cymbal.wav
64,192,18265,1,0,0:0:0:0:
320,194,18265,128,0,18415:0:0:0:0:
64,192,18415,1,0,0:0:0:0:
448,192,18415,1,0,0:0:0:70:dance_kick.wav
448,192,18565,1,0,0:0:0:0:
320,192,18565,1,0,0:0:0:0:
192,192,18565,128,0,18715:0:0:0:0:
64,192,18715,128,0,19165:0:0:0:70:dance_kick.wav
320,192,18715,1,0,0:0:0:70:cymbal.wav
448,192,18790,1,0,0:0:0:70:dance_snare.wav
192,192,18865,1,0,0:0:0:70:dance_snare.wav
320,192,18940,1,0,0:0:0:70:dance_snare.wav
448,192,19015,1,0,0:0:0:70:dance_snare.wav
192,192,19015,1,0,0:0:0:70:dance_kick.wav
320,192,19090,1,0,0:0:0:70:dance_snare.wav
448,192,19165,1,0,0:0:0:70:dance_snare.wav
320,192,19240,1,0,0:0:0:70:dance_snare.wav
448,192,19315,1,0,0:0:0:70:cymbal.wav
192,192,19315,1,0,0:0:0:70:dance_kick.wav
64,192,19465,128,0,19615:0:0:0:0:
320,192,19615,1,0,0:0:0:0:
448,192,19615,1,0,0:0:0:70:dance_clap.wav
192,192,19765,128,0,19915:0:0:0:0:
64,192,19915,1,0,0:0:0:0:
320,192,19915,1,0,0:0:0:70:dance_kick.wav
320,192,20065,128,0,20215:0:0:0:0:
448,192,20065,1,0,0:0:0:70:dance_kick.wav
192,192,20065,1,0,0:0:0:70:cymbal.wav
64,192,20215,128,0,20515:0:0:0:0:
448,192,20215,1,0,0:0:0:0:
192,192,20215,1,0,0:0:0:70:dance_clap.wav
448,192,20365,128,0,20515:0:0:0:0:
192,192,20515,1,0,0:0:0:70:cymbal.wav
320,194,20515,1,0,0:0:0:70:dance_kick.wav
448,192,20590,1,0,0:0:0:0:
64,192,20665,1,0,0:0:0:0:
320,194,20665,1,0,0:0:0:70:dance_kick.wav
192,192,20740,1,0,0:0:0:0:
320,192,20815,1,0,0:0:0:0:
448,192,20815,1,0,0:0:0:70:dance_clap.wav
64,192,20890,1,0,0:0:0:0:
448,192,20965,1,0,0:0:0:0:
192,192,21040,1,0,0:0:0:0:
320,192,21115,1,0,0:0:0:0:
192,192,21190,1,0,0:0:0:0:
64,194,21265,1,0,0:0:0:70:dance_kick.wav
448,192,21265,1,0,0:0:0:0:
192,192,21340,1,0,0:0:0:0:
320,192,21415,1,0,0:0:0:0:
448,192,21415,1,0,0:0:0:70:dance_clap.wav
64,192,21490,1,0,0:0:0:0:
448,192,21565,1,0,0:0:0:0:
320,192,21640,1,0,0:0:0:0:
64,194,21715,1,0,0:0:0:70:dance_kick.wav
192,192,21715,1,0,0:0:0:0:
448,192,21790,1,0,0:0:0:0:
192,192,21865,1,0,0:0:0:0:
320,192,21940,1,0,0:0:0:0:
192,192,22015,1,0,0:0:0:0:
448,192,22015,1,0,0:0:0:70:dance_clap.wav
64,192,22090,1,0,0:0:0:0:
192,192,22165,1,0,0:0:0:0:
320,192,22240,1,0,0:0:0:0:
448,192,22315,1,0,0:0:0:0:
320,192,22390,1,0,0:0:0:0:
192,192,22465,1,0,0:0:0:70:dance_kick.wav
448,192,22465,1,0,0:0:0:0:
64,192,22540,1,0,0:0:0:0:
448,192,22615,1,0,0:0:0:70:dance_clap.wav
192,192,22615,1,0,0:0:0:0:
320,192,22690,1,0,0:0:0:0:
192,192,22765,1,0,0:0:0:0:
64,192,22840,1,0,0:0:0:0:
192,192,22915,1,0,0:0:0:0:
320,194,22915,1,0,0:0:0:70:dance_kick.wav
448,192,22990,1,0,0:0:0:0:
64,192,23065,1,0,0:0:0:0:
320,194,23065,1,0,0:0:0:70:dance_kick.wav
448,192,23140,1,0,0:0:0:0:
192,192,23215,1,0,0:0:0:70:dance_clap.wav
320,192,23215,1,0,0:0:0:0:
64,192,23290,1,0,0:0:0:0:
320,192,23365,1,0,0:0:0:0:
192,192,23440,1,0,0:0:0:0:
448,192,23515,1,0,0:0:0:0:
320,192,23590,1,0,0:0:0:0:
192,192,23665,1,0,0:0:0:0:
448,194,23665,1,0,0:0:0:70:dance_kick.wav
64,192,23740,1,0,0:0:0:0:
320,192,23815,1,0,0:0:0:0:
192,192,23815,1,0,0:0:0:70:dance_clap.wav
448,192,23890,1,0,0:0:0:0:
320,192,23965,1,0,0:0:0:0:
192,192,24040,1,0,0:0:0:0:
448,194,24115,1,0,0:0:0:70:dance_kick.wav
64,192,24115,1,0,0:0:0:0:
320,192,24190,1,0,0:0:0:0:
192,192,24265,1,0,0:0:0:0:
64,192,24340,1,0,0:0:0:0:
192,192,24415,1,0,0:0:0:0:
448,192,24415,1,0,0:0:0:70:dance_clap.wav
320,192,24490,1,0,0:0:0:0:
192,192,24565,1,0,0:0:0:0:
64,192,24640,1,0,0:0:0:0:
320,192,24715,1,0,0:0:0:0:
448,192,24790,1,0,0:0:0:0:
320,194,24865,1,0,0:0:0:70:dance_kick.wav
64,192,24865,1,0,0:0:0:0:
192,192,24940,1,0,0:0:0:0:
64,192,25015,1,0,0:0:0:70:dance_clap.wav
320,192,25015,1,0,0:0:0:0:
448,192,25090,1,0,0:0:0:0:
320,192,25165,1,0,0:0:0:0:
192,192,25240,1,0,0:0:0:0:
64,194,25315,1,0,0:0:0:70:dance_kick.wav
448,192,25315,1,0,0:0:0:70:cymbal.wav
320,192,25315,1,0,0:0:0:0:
192,192,25390,1,0,0:0:0:0:
448,194,25465,1,0,0:0:0:70:dance_kick.wav
64,192,25465,1,0,0:0:0:0:
320,192,25540,1,0,0:0:0:0:
192,192,25615,1,0,0:0:0:0:
64,192,25615,1,0,0:0:0:70:dance_clap.wav
448,192,25690,1,0,0:0:0:0:
320,194,25765,1,0,0:0:0:0:
192,192,25840,1,0,0:0:0:0:
320,192,25915,1,0,0:0:0:0:
192,192,25990,1,0,0:0:0:0:
64,194,26065,1,0,0:0:0:70:dance_kick.wav
448,192,26065,1,0,0:0:0:0:
192,192,26140,1,0,0:0:0:0:
448,192,26215,1,0,0:0:0:70:dance_clap.wav
64,192,26215,1,0,0:0:0:0:
320,192,26290,1,0,0:0:0:0:
448,192,26365,1,0,0:0:0:0:
64,192,26440,1,0,0:0:0:0:
448,192,26515,1,0,0:0:0:70:dance_kick.wav
320,192,26515,1,0,0:0:0:0:
64,192,26590,1,0,0:0:0:0:
192,192,26665,1,0,0:0:0:0:
320,192,26740,1,0,0:0:0:0:
64,192,26815,1,0,0:0:0:0:
192,192,26815,1,0,0:0:0:70:dance_clap.wav
448,192,26890,1,0,0:0:0:0:
320,192,26965,1,0,0:0:0:0:
192,192,27040,1,0,0:0:0:0:
64,192,27115,1,0,0:0:0:0:
192,192,27190,1,0,0:0:0:0:
64,192,27265,1,0,0:0:0:0:
320,192,27265,1,0,0:0:0:70:dance_kick.wav
448,192,27340,1,0,0:0:0:0:
64,192,27415,1,0,0:0:0:70:dance_clap.wav
320,192,27415,1,0,0:0:0:0:
448,192,27490,1,0,0:0:0:0:
320,192,27565,1,0,0:0:0:0:
192,192,27640,1,0,0:0:0:0:
64,192,27715,1,0,0:0:0:0:
448,192,27715,1,0,0:0:0:70:dance_kick.wav
320,192,27790,1,0,0:0:0:0:
192,192,27865,1,0,0:0:0:0:
320,192,27940,1,0,0:0:0:0:
64,192,28015,1,0,0:0:0:0:
448,192,28015,1,0,0:0:0:70:dance_kick.wav
320,192,28090,1,0,0:0:0:0:
192,192,28165,1,0,0:0:0:0:
320,192,28240,1,0,0:0:0:0:
64,192,28315,1,0,0:0:0:0:
448,192,28315,1,0,0:0:0:70:dance_kick.wav
192,192,28390,1,0,0:0:0:0:
320,192,28465,1,0,0:0:0:0:
192,192,28540,1,0,0:0:0:0:
64,192,28615,1,0,0:0:0:0:
448,192,28615,1,0,0:0:0:70:dance_kick.wav
192,192,28690,1,0,0:0:0:0:
448,192,28765,1,0,0:0:0:0:
320,192,28840,1,0,0:0:0:0:
64,192,28915,1,0,0:0:0:70:dance_kick.wav
192,192,28915,1,0,0:0:0:0:
320,192,28990,1,0,0:0:0:0:
64,192,29065,1,0,0:0:0:70:dance_kick.wav
192,192,29065,1,0,0:0:0:0:
448,192,29140,1,0,0:0:0:0:
64,192,29215,1,0,0:0:0:0:
192,192,29215,1,0,0:0:0:70:dance_kick.wav
320,192,29290,1,0,0:0:0:0:
64,192,29365,1,0,0:0:0:70:dance_kick.wav
192,192,29365,1,0,0:0:0:0:
448,192,29440,1,0,0:0:0:0:
192,192,29515,1,0,0:0:0:0:
64,192,29515,1,0,0:0:0:70:dance_kick.wav
320,192,29590,1,0,0:0:0:70:dance_kick.wav
192,192,29665,1,0,0:0:0:70:dance_kick.wav
448,192,29740,1,0,0:0:0:70:dance_kick.wav
320,192,29815,1,0,0:0:0:70:dance_kick.wav
64,192,29852,1,0,0:0:0:70:dance_kick.wav
192,192,29890,1,0,0:0:0:70:dance_kick.wav
320,192,29927,1,0,0:0:0:70:dance_kick.wav
448,192,29965,1,0,0:0:0:70:dance_kick.wav
192,192,30040,1,0,0:0:0:70:dance_kick.wav
64,192,30115,1,0,0:0:0:70:dance_kick.wav
448,192,30115,1,0,0:0:0:70:cymbal.wav
320,192,30115,1,0,0:0:0:0:
320,192,30265,1,0,0:0:0:0:
64,192,30415,1,0,0:0:0:70:dance_kick.wav
448,192,30415,1,0,0:0:0:0:
192,192,30415,1,0,0:0:0:0:
192,192,30565,1,0,0:0:0:0:
64,192,30715,1,0,0:0:0:70:dance_kick.wav
320,192,30715,1,0,0:0:0:0:
448,192,30715,1,0,0:0:0:0:
320,192,30865,1,0,0:0:0:0:
64,192,31015,1,0,0:0:0:70:dance_kick.wav
448,192,31015,1,0,0:0:0:0:
192,192,31015,1,0,0:0:0:0:
192,192,31165,1,0,0:0:0:0:
64,192,31315,1,0,0:0:0:70:dance_kick.wav
192,192,31315,1,0,0:0:0:0:
448,192,31315,1,0,0:0:0:0:
320,192,31390,1,0,0:0:0:0:
192,192,31465,1,0,0:0:0:0:
320,192,31540,1,0,0:0:0:0:
64,192,31615,1,0,0:0:0:70:dance_kick.wav
448,192,31615,1,0,0:0:0:0:
320,192,31690,1,0,0:0:0:0:
192,192,31765,1,0,0:0:0:0:
320,192,31840,1,0,0:0:0:0:
64,192,31915,1,0,0:0:0:70:dance_kick.wav
448,192,31915,1,0,0:0:0:0:
320,192,31990,1,0,0:0:0:0:
192,192,32065,1,0,0:0:0:0:
320,192,32140,1,0,0:0:0:0:
64,192,32215,1,0,0:0:0:70:dance_kick.wav
448,192,32215,1,0,0:0:0:0:
192,192,32215,1,0,0:0:0:0:
192,192,32365,1,0,0:0:0:0:
64,192,32515,1,0,0:0:0:70:dance_kick.wav
448,192,32515,1,0,0:0:0:0:
192,192,32665,1,0,0:0:0:0:
320,192,32665,1,0,0:0:0:0:
448,192,32815,1,0,0:0:0:0:
64,192,32815,1,0,0:0:0:70:dance_kick.wav
448,192,32965,1,0,0:0:0:0:
192,192,32965,1,0,0:0:0:0:
320,192,33115,1,0,0:0:0:0:
64,192,33115,1,0,0:0:0:70:dance_kick.wav
448,192,33115,1,0,0:0:0:0:
192,192,33265,1,0,0:0:0:0:
448,192,33415,1,0,0:0:0:0:
64,192,33415,1,0,0:0:0:70:dance_kick.wav
192,192,33415,1,0,0:0:0:0:
320,192,33565,1,0,0:0:0:0:
64,192,33715,1,0,0:0:0:70:dance_kick.wav
320,192,33715,1,0,0:0:0:0:
192,192,33865,1,0,0:0:0:0:
448,192,33865,1,0,0:0:0:0:
64,192,34015,1,0,0:0:0:70:dance_kick.wav
320,192,34015,1,0,0:0:0:0:
192,192,34090,1,0,0:0:0:0:
448,192,34090,1,0,0:0:0:0:
320,192,34165,1,0,0:0:0:0:
64,192,34165,1,0,0:0:0:0:
192,192,34240,1,0,0:0:0:0:
448,192,34240,1,0,0:0:0:0:
64,192,34315,1,0,0:0:0:70:dance_kick.wav
320,192,34315,1,0,0:0:0:0:
192,192,34465,1,0,0:0:0:0:
320,192,34615,1,0,0:0:0:0:
448,192,34615,1,0,0:0:0:70:dance_kick.wav
64,192,34690,1,0,0:0:0:0:
320,192,34765,1,0,0:0:0:0:
448,192,34765,1,0,0:0:0:70:dance_kick.wav
64,192,34840,1,0,0:0:0:0:
192,192,34915,1,0,0:0:0:0:
448,192,34915,1,0,0:0:0:70:dance_kick.wav
320,192,34915,1,0,0:0:0:70:cymbal.wav
320,192,35065,1,0,0:0:0:0:
64,192,35215,1,0,0:0:0:0:
192,192,35215,1,0,0:0:0:0:
448,192,35215,1,0,0:0:0:70:dance_kick.wav
320,192,35365,1,0,0:0:0:0:
448,192,35515,1,0,0:0:0:70:dance_kick.wav
192,192,35515,1,0,0:0:0:0:
64,192,35590,1,0,0:0:0:0:
192,192,35665,1,0,0:0:0:0:
448,192,35740,1,0,0:0:0:0:
64,192,35815,1,0,0:0:0:70:dance_kick.wav
320,192,35815,1,0,0:0:0:0:
192,192,35890,1,0,0:0:0:0:
320,194,35965,1,0,0:0:0:0:
192,192,36040,1,0,0:0:0:0:
64,192,36115,1,0,0:0:0:70:dance_kick.wav
448,192,36115,1,0,0:0:0:0:
320,192,36115,1,0,0:0:0:70:cymbal.wav
192,192,36265,1,0,0:0:0:0:
64,192,36415,1,0,0:0:0:70:dance_kick.wav
448,192,36415,1,0,0:0:0:0:
320,192,36565,1,0,0:0:0:0:
64,192,36715,1,0,0:0:0:70:dance_kick.wav
448,192,36715,1,0,0:0:0:0:
64,192,36865,1,0,0:0:0:0:
320,192,36865,1,0,0:0:0:0:
192,192,37015,1,0,0:0:0:0:
448,192,37015,1,0,0:0:0:70:dance_kick.wav
448,192,37165,1,0,0:0:0:0:
64,192,37165,1,0,0:0:0:0:
64,192,37315,1,0,0:0:0:0:
192,192,37315,1,0,0:0:0:70:cymbal.wav
448,192,37315,1,0,0:0:0:70:dance_kick.wav
192,192,37465,1,0,0:0:0:0:
320,192,37465,1,0,0:0:0:70:dance_kick.wav
64,192,37615,1,0,0:0:0:0:
320,192,37615,1,0,0:0:0:70:dance_kick.wav
192,192,37765,1,0,0:0:0:0:
448,192,37765,1,0,0:0:0:70:dance_kick.wav
64,192,37765,1,0,0:0:0:70:cymbal.wav
320,192,37915,1,0,0:0:0:0:
448,192,37915,1,0,0:0:0:70:dance_kick.wav
64,192,38065,1,0,0:0:0:70:cymbal.wav
192,192,38065,1,0,0:0:0:0:
320,192,38065,1,0,0:0:0:70:dance_kick.wav
192,192,38215,1,0,0:0:0:0:
448,192,38215,1,0,0:0:0:70:dance_kick.wav
64,192,38365,1,0,0:0:0:70:cymbal.wav
320,192,38365,1,0,0:0:0:70:dance_kick.wav
192,192,38365,1,0,0:0:0:0:
320,192,38515,1,0,0:0:0:0:
448,192,38515,1,0,0:0:0:70:dance_kick.wav
64,192,38590,1,0,0:0:0:0:
192,192,38590,1,0,0:0:0:70:dance_kick.wav
320,192,38665,1,0,0:0:0:0:
448,192,38665,1,0,0:0:0:70:dance_kick.wav
64,192,38740,1,0,0:0:0:0:
192,192,38740,1,0,0:0:0:70:dance_kick.wav
448,192,38815,1,0,0:0:0:70:dance_kick.wav
320,192,38852,1,0,0:0:0:70:dance_kick.wav
192,192,38890,1,0,0:0:0:70:dance_kick.wav
64,192,38927,1,0,0:0:0:70:dance_kick.wav
448,192,38965,1,0,0:0:0:70:dance_kick.wav
320,192,39002,1,0,0:0:0:70:dance_kick.wav
192,192,39040,1,0,0:0:0:70:dance_kick.wav
64,192,39077,1,0,0:0:0:70:dance_kick.wav
448,192,39115,1,0,0:0:0:70:dance_kick.wav
320,192,39115,1,0,0:0:0:0:
192,192,39190,1,0,0:0:0:0:
64,192,39265,1,0,0:0:0:70:cymbal.wav
448,192,39340,1,0,0:0:0:0:
320,192,39415,1,0,0:0:0:70:dance_kick.wav
192,192,39415,1,0,0:0:0:70:cymbal.wav
64,192,39715,1,0,0:0:0:70:cymbal.wav
448,192,39715,1,0,0:0:0:70:dance_kick.wav
192,192,39715,1,0,0:0:0:0:
320,192,39790,1,0,0:0:0:0:
192,192,39865,1,0,0:0:0:0:
64,192,39940,1,0,0:0:0:0:
320,192,40015,1,0,0:0:0:0:
192,192,40015,1,0,0:0:0:70:dance_clap.wav
448,192,40090,1,0,0:0:0:0:
192,192,40165,1,0,0:0:0:0:
320,192,40240,1,0,0:0:0:0:
64,192,40315,1,0,0:0:0:0:
448,192,40315,1,0,0:0:0:70:dance_kick.wav
192,192,40390,1,0,0:0:0:0:
64,192,40465,1,0,0:0:0:0:
448,192,40465,1,0,0:0:0:70:dance_kick.wav
320,192,40540,1,0,0:0:0:0:
448,192,40615,1,0,0:0:0:0:
192,192,40615,1,0,0:0:0:70:dance_clap.wav
64,192,40690,1,0,0:0:0:0:
192,192,40765,1,0,0:0:0:0:
320,192,40840,1,0,0:0:0:0:
64,192,40915,1,0,0:0:0:70:dance_kick.wav
448,185,40915,128,0,42560:0:0:0:70:cymbal.wav
320,192,41064,1,0,0:0:0:0:
192,192,41214,1,0,0:0:0:50:dance_clap.wav
320,192,41363,1,0,0:0:0:0:
64,194,41513,1,0,0:0:0:0:
192,187,41663,1,0,0:0:0:0:
64,185,41812,1,0,0:0:0:50:dance_clap.wav
320,187,41962,1,0,0:0:0:0:
192,185,42112,1,0,0:0:0:0:
64,185,42261,1,0,0:0:0:0:
192,185,42411,1,0,0:0:0:50:dance_clap.wav
320,185,42560,1,0,0:0:0:0:
448,185,42710,128,0,43009:0:0:0:0:
64,185,42710,1,0,0:0:0:0:
320,185,42860,1,0,0:0:0:0:
64,185,43009,128,0,43309:0:0:0:0:
192,185,43009,1,0,0:0:0:50:dance_clap.wav
320,185,43159,1,0,0:0:0:0:
192,185,43309,1,0,0:0:0:0:
448,185,43309,128,0,44506:0:0:0:0:
320,185,43458,1,0,0:0:0:0:
64,185,43608,1,0,0:0:0:50:dance_clap.wav
192,185,43757,1,0,0:0:0:0:
64,185,43907,1,0,0:0:0:0:
320,185,44057,1,0,0:0:0:0:
64,185,44206,1,0,0:0:0:50:dance_clap.wav
320,185,44356,1,0,0:0:0:0:
192,185,44506,128,0,45703:0:0:0:0:
64,185,44506,1,0,0:0:0:0:
448,185,44655,1,0,0:0:0:0:
320,185,44805,1,0,0:0:0:50:dance_clap.wav
448,185,44954,1,0,0:0:0:0:
64,185,45104,1,0,0:0:0:0:
320,185,45104,128,0,45703:0:0:0:0:
448,185,45254,1,0,0:0:0:0:
64,185,45403,1,0,0:0:0:50:dance_clap.wav
448,185,45553,1,0,0:0:0:0:
64,185,45703,128,0,47348:0:0:0:0:
448,192,45703,1,0,0:0:0:70:dance_kick.wav
320,185,45852,1,0,0:0:0:0:
192,180,46002,1,0,0:0:0:70:dance_clap.wav
448,192,46002,1,0,0:0:0:70:dance_kick.wav
320,185,46151,1,0,0:0:0:0:
320,185,46301,1,0,0:0:0:0:
192,192,46301,1,0,0:0:0:70:dance_kick.wav
448,185,46451,1,0,0:0:0:0:
192,185,46600,1,0,0:0:0:70:dance_kick.wav
448,187,46600,1,0,0:0:0:70:dance_clap.wav
320,185,46750,1,0,0:0:0:0:
192,185,46900,1,0,0:0:0:70:dance_kick.wav
448,185,46900,1,0,0:0:0:0:
448,185,47049,1,0,0:0:0:0:
320,180,47199,1,0,0:0:0:70:dance_clap.wav
192,185,47199,1,0,0:0:0:70:dance_kick.wav
320,185,47348,1,0,0:0:0:0:
64,185,47498,128,0,47797:0:0:0:0:
192,185,47498,1,0,0:0:0:70:dance_kick.wav
448,185,47498,1,0,0:0:0:0:
320,185,47648,1,0,0:0:0:0:
448,185,47797,128,0,48097:0:0:0:70:dance_clap.wav
192,185,47797,1,0,0:0:0:70:dance_kick.wav
320,185,47947,1,0,0:0:0:0:
64,185,48097,128,0,49294:0:0:0:0:
192,185,48097,1,0,0:0:0:70:dance_kick.wav
320,185,48246,1,0,0:0:0:0:
192,185,48396,1,0,0:0:0:70:dance_kick.wav
448,185,48396,1,0,0:0:0:70:dance_clap.wav
192,185,48545,1,0,0:0:0:0:
320,185,48695,1,0,0:0:0:70:dance_kick.wav
448,185,48695,1,0,0:0:0:0:
320,185,48845,1,0,0:0:0:0:
448,185,48994,1,0,0:0:0:70:dance_clap.wav
192,185,48994,1,0,0:0:0:70:dance_kick.wav
448,185,49144,1,0,0:0:0:0:
192,185,49294,128,0,49892:0:0:0:0:
320,185,49294,1,0,0:0:0:70:dance_kick.wav
448,185,49443,1,0,0:0:0:70:hihat.wav
64,185,49593,1,0,0:0:0:70:hihat.wav
320,185,49742,1,0,0:0:0:70:hihat.wav
448,185,49892,128,0,50491:0:0:0:0:
64,185,49892,1,0,0:0:0:70:dance_kick.wav
320,185,49892,1,0,0:0:0:0:
64,185,50042,1,0,0:0:0:70:dance_kick.wav
320,185,50042,1,0,0:0:0:70:dance_snare.wav
192,185,50191,1,0,0:0:0:0:
320,185,50191,1,0,0:0:0:70:dance_kick.wav
64,185,50341,1,0,0:0:0:70:dance_kick.wav
192,185,50341,1,0,0:0:0:0:
64,185,50491,1,0,0:0:0:70:dance_kick.wav
320,185,50491,1,0,0:0:0:70:cymbal.wav
192,192,50491,1,0,0:0:0:0:
192,185,50640,1,0,0:0:0:70:hihat.wav
64,185,50790,1,0,0:0:0:70:dance_kick.wav
320,185,50790,1,0,0:0:0:0:
448,192,50790,1,0,0:0:0:70:dance_clap.wav
448,185,50939,1,0,0:0:0:70:hihat.wav
192,192,51089,1,0,0:0:0:0:
64,192,51089,1,0,0:0:0:70:dance_kick.wav
320,192,51239,1,0,0:0:0:70:hihat.wav
64,185,51388,1,0,0:0:0:70:dance_kick.wav
448,185,51388,1,0,0:0:0:70:dance_clap.wav
192,192,51388,1,0,0:0:0:0:
320,185,51538,1,0,0:0:0:70:hihat.wav
64,185,51688,1,0,0:0:0:70:dance_kick.wav
448,192,51688,1,0,0:0:0:0:
192,192,51837,1,0,0:0:0:70:hihat.wav
448,185,51987,1,0,0:0:0:70:dance_clap.wav
192,192,51987,1,0,0:0:0:0:
64,192,51987,1,0,0:0:0:70:dance_kick.wav
320,192,52136,1,0,0:0:0:70:hihat.wav
448,192,52286,1,0,0:0:0:0:
64,192,52286,1,0,0:0:0:70:dance_kick.wav
192,192,52436,1,0,0:0:0:70:hihat.wav
320,185,52585,1,0,0:0:0:0:
448,185,52585,1,0,0:0:0:70:dance_clap.wav
64,192,52585,1,0,0:0:0:70:dance_kick.wav
320,185,52735,1,0,0:0:0:70:hihat.wav
64,185,52885,1,0,0:0:0:70:dance_kick.wav
448,192,52885,1,0,0:0:0:0:
192,192,53034,1,0,0:0:0:70:hihat.wav
320,185,53184,1,0,0:0:0:0:
448,192,53184,1,0,0:0:0:70:dance_clap.wav
64,192,53184,1,0,0:0:0:70:dance_kick.wav
448,192,53333,1,0,0:0:0:70:hihat.wav
192,192,53483,1,0,0:0:0:0:
64,192,53483,1,0,0:0:0:70:dance_kick.wav
192,185,53633,1,0,0:0:0:70:hihat.wav
320,185,53782,1,0,0:0:0:0:
448,185,53782,1,0,0:0:0:70:dance_clap.wav
64,192,53782,1,0,0:0:0:70:dance_kick.wav
192,192,53932,1,0,0:0:0:70:hihat.wav
64,192,54082,1,0,0:0:0:70:dance_kick.wav
320,192,54082,1,0,0:0:0:70:hihat.wav
448,192,54231,128,0,54530:0:0:0:70:hihat.wav
192,192,54381,128,0,54530:0:0:0:70:dance_clap.wav
320,192,54530,128,0,54830:0:0:0:70:hihat.wav
64,192,54680,128,0,54830:0:0:0:70:dance_kick.wav
192,192,54830,128,0,54979:0:0:0:70:hihat.wav
448,192,54979,1,0,0:0:0:70:dance_kick.wav
320,192,54979,1,0,0:0:0:70:dance_clap.wav
192,192,55129,1,0,0:0:0:0:
64,192,55129,1,0,0:0:0:70:dance_kick.wav
448,192,55279,1,0,0:0:0:70:dance_kick.wav
320,192,55279,1,0,0:0:0:0:
192,185,55428,1,0,0:0:0:70:hihat.wav
320,185,55578,1,0,0:0:0:0:
64,185,55578,1,0,0:0:0:70:dance_clap.wav
448,185,55578,1,0,0:0:0:70:dance_kick.wav
448,185,55727,1,0,0:0:0:70:hihat.wav
64,192,55877,1,0,0:0:0:0:
320,192,55877,1,0,0:0:0:70:dance_kick.wav
192,192,56027,1,0,0:0:0:70:hihat.wav
448,185,56176,1,0,0:0:0:70:dance_kick.wav
64,185,56176,1,0,0:0:0:70:dance_clap.wav
320,192,56176,1,0,0:0:0:0:
64,185,56326,1,0,0:0:0:70:hihat.wav
192,185,56476,1,0,0:0:0:0:
448,192,56476,1,0,0:0:0:70:dance_kick.wav
320,192,56625,1,0,0:0:0:70:hihat.wav
192,192,56775,1,0,0:0:0:0:
448,185,56775,1,0,0:0:0:70:dance_kick.wav
64,192,56775,1,0,0:0:0:70:dance_clap.wav
448,192,56924,1,0,0:0:0:70:hihat.wav
192,192,57074,1,0,0:0:0:0:
320,192,57074,1,0,0:0:0:70:dance_kick.wav
64,192,57224,1,0,0:0:0:70:hihat.wav
448,185,57373,1,0,0:0:0:70:dance_kick.wav
320,185,57373,1,0,0:0:0:70:dance_clap.wav
192,192,57373,1,0,0:0:0:0:
192,185,57523,1,0,0:0:0:70:hihat.wav
64,185,57673,1,0,0:0:0:0:
448,192,57673,1,0,0:0:0:70:dance_kick.wav
192,192,57822,1,0,0:0:0:70:hihat.wav
448,192,57972,1,0,0:0:0:70:dance_kick.wav
320,185,57972,1,0,0:0:0:0:
64,192,57972,1,0,0:0:0:70:dance_clap.wav
64,185,58121,1,0,0:0:0:70:hihat.wav
192,185,58271,1,0,0:0:0:0:
448,192,58271,1,0,0:0:0:70:dance_kick.wav
320,185,58421,1,0,0:0:0:70:hihat.wav
448,185,58570,1,0,0:0:0:70:dance_kick.wav
192,185,58570,1,0,0:0:0:70:dance_clap.wav
64,192,58570,1,0,0:0:0:0:
192,192,58720,1,0,0:0:0:70:hihat.wav
64,192,58870,1,0,0:0:0:70:dance_kick.wav
448,192,58870,1,0,0:0:0:8:dance_snare.wav
320,192,58944,1,0,0:0:0:8:dance_snare.wav
448,192,59019,1,0,0:0:0:10:dance_snare.wav
192,192,59094,1,0,0:0:0:15:dance_snare.wav
64,192,59169,5,0,0:0:0:70:dance_kick.wav
448,192,59169,1,0,0:0:0:70:dance_clap.wav
320,192,59244,1,0,0:0:0:20:dance_snare.wav
192,192,59318,1,0,0:0:0:25:dance_snare.wav
320,192,59393,1,0,0:0:0:30:dance_snare.wav
64,192,59468,1,0,0:0:0:70:dance_kick.wav
448,192,59468,1,0,0:0:0:35:dance_snare.wav
192,192,59543,1,0,0:0:0:40:dance_snare.wav
320,192,59618,1,0,0:0:0:45:dance_snare.wav
64,192,59693,1,0,0:0:0:50:dance_snare.wav
320,192,59767,1,0,0:0:0:55:dance_snare.wav
448,192,59767,1,0,0:0:0:70:dance_kick.wav
192,192,59842,1,0,0:0:0:60:dance_snare.wav
64,192,59917,1,0,0:0:0:70:dance_kick.wav
320,192,59917,1,0,0:0:0:65:dance_snare.wav
448,192,59992,1,0,0:0:0:70:dance_snare.wav
192,192,60067,1,0,0:0:0:70:cymbal.wav
64,192,60067,1,0,0:0:0:70:dance_kick.wav
320,192,60067,1,0,0:0:0:0:
448,192,60197,5,0,0:0:0:0:
320,192,60327,1,0,0:0:0:70:dance_snare.wav
64,192,60327,1,0,0:0:0:70:dance_kick.wav
192,192,60458,1,0,0:0:0:0:
64,192,60588,1,0,0:0:0:0:
448,192,60588,1,0,0:0:0:70:dance_kick.wav
192,192,60719,1,0,0:0:0:0:
320,192,60849,1,0,0:0:0:70:dance_kick.wav
448,192,60849,1,0,0:0:0:70:dance_snare.wav
64,192,60980,1,0,0:0:0:70:dance_kick.wav
192,192,61110,1,0,0:0:0:70:cymbal.wav
64,192,61110,1,0,0:0:0:70:dance_kick.wav
320,192,61110,1,0,0:0:0:0:
448,197,61219,1,0,0:0:0:0:
320,197,61328,1,0,0:0:0:70:dance_snare.wav
64,192,61328,1,0,0:0:0:70:dance_kick.wav
192,197,61437,1,0,0:0:0:0:
64,197,61546,1,0,0:0:0:0:
448,192,61546,1,0,0:0:0:70:dance_kick.wav
192,197,61655,1,0,0:0:0:0:
448,197,61764,1,0,0:0:0:70:dance_snare.wav
320,192,61764,1,0,0:0:0:70:dance_kick.wav
64,192,61873,1,0,0:0:0:70:dance_kick.wav
192,192,61982,1,0,0:0:0:70:cymbal.wav
64,192,61982,1,0,0:0:0:70:dance_kick.wav
320,192,61982,1,0,0:0:0:0:
448,192,62075,1,0,0:0:0:0:
192,192,62169,1,0,0:0:0:70:dance_snare.wav
320,192,62169,1,0,0:0:0:70:dance_kick.wav
448,192,62263,1,0,0:0:0:0:
192,192,62357,1,0,0:0:0:70:cymbal.wav
64,192,62357,1,0,0:0:0:70:dance_kick.wav
320,192,62357,1,0,0:0:0:0:
448,192,62450,1,0,0:0:0:0:
64,192,62544,1,0,0:0:0:0:
320,192,62544,1,0,0:0:0:70:dance_kick.wav
192,192,62638,1,0,0:0:0:70:dance_kick.wav
64,192,62732,1,0,0:0:0:70:dance_kick.wav
448,192,62732,1,0,0:0:0:0:
192,192,62807,1,0,0:0:0:70:dance_kick.wav
320,192,62807,1,0,0:0:0:0:
448,192,62882,1,0,0:0:0:0:
64,192,62882,1,0,0:0:0:70:dance_kick.wav
192,192,62957,1,0,0:0:0:70:dance_kick.wav
448,192,63032,1,0,0:0:0:0:
320,192,63032,1,0,0:0:0:70:dance_kick.wav
192,192,63107,1,0,0:0:0:70:dance_kick.wav
64,192,63107,1,0,0:0:0:0:
448,192,63182,1,0,0:0:0:0:
320,192,63182,1,0,0:0:0:70:dance_kick.wav
192,192,63257,1,0,0:0:0:70:dance_kick.wav
320,192,63332,1,0,0:0:0:70:cymbal.wav
64,192,63332,1,0,0:0:0:70:dance_kick.wav
448,192,63407,1,0,0:0:0:0:
192,192,63407,1,0,0:0:0:70:dance_kick.wav
320,192,63482,1,0,0:0:0:70:dance_kick.wav
64,192,63482,1,0,0:0:0:0:
448,192,63557,1,0,0:0:0:70:dance_kick.wav
192,192,63557,1,0,0:0:0:0:
64,192,63632,1,0,0:0:0:70:dance_kick.wav
192,192,63669,1,0,0:0:0:70:dance_kick.wav
320,192,63707,1,0,0:0:0:70:dance_kick.wav
448,192,63744,1,0,0:0:0:70:dance_kick.wav
64,192,63782,1,0,0:0:0:70:dance_kick.wav
192,192,63819,1,0,0:0:0:70:dance_kick.wav
320,192,63857,1,0,0:0:0:70:dance_kick.wav
448,192,63894,1,0,0:0:0:70:dance_kick.wav
64,192,63932,1,0,0:0:0:70:cymbal.wav
320,192,63932,1,0,0:0:0:70:dance_kick.wav
192,192,64007,1,0,0:0:0:0:
448,192,64082,1,0,0:0:0:0:
320,192,64157,1,0,0:0:0:0:
448,192,64232,1,0,0:0:0:0:
64,192,64232,1,0,0:0:0:70:dance_clap.wav
320,192,64307,1,0,0:0:0:0:
192,192,64382,1,0,0:0:0:0:
448,192,64457,1,0,0:0:0:0:
64,192,64532,1,0,0:0:0:0:
192,192,64607,1,0,0:0:0:0:
448,192,64682,1,0,0:0:0:0:
64,192,64682,1,0,0:0:0:0:
320,192,64757,1,0,0:0:0:0:
192,192,64832,1,0,0:0:0:0:
448,192,64832,1,0,0:0:0:0:
448,192,65132,128,0,65282:0:0:0:0:
192,192,65132,1,0,0:0:0:70:cymbal.wav
64,192,65132,1,0,0:0:0:70:dance_kick.wav
320,192,65282,128,0,65432:0:0:0:0:
64,192,65432,128,0,65582:0:0:0:0:
448,192,65432,1,0,0:0:0:70:dance_kick.wav
320,192,65582,1,0,0:0:0:0:
192,192,65582,1,0,0:0:0:0:
448,192,65732,1,0,0:0:0:70:dance_kick.wav
64,192,65732,1,0,0:0:0:0:
192,192,65807,1,0,0:0:0:0:
320,192,65882,128,0,66182:0:0:0:0:
64,192,66032,1,0,0:0:0:70:dance_kick.wav
192,192,66107,1,0,0:0:0:0:
448,192,66182,1,0,0:0:0:0:
64,192,66182,1,0,0:0:0:0:
320,192,66332,1,0,0:0:0:0:
192,192,66332,1,0,0:0:0:70:dance_kick.wav
64,192,66482,128,0,66782:0:0:0:0:
448,192,66482,1,0,0:0:0:0:
320,192,66632,1,0,0:0:0:70:dance_kick.wav
448,192,66632,128,0,66782:0:0:0:0:
192,192,66782,128,0,66932:0:0:0:0:
320,192,66932,128,0,67082:0:0:0:0:
64,192,66932,1,0,0:0:0:70:dance_kick.wav
448,192,67082,128,0,67232:0:0:0:0:
64,192,67232,128,0,67382:0:0:0:0:
320,192,67232,1,0,0:0:0:70:dance_kick.wav
192,192,67382,128,0,67532:0:0:0:0:
448,192,67532,128,0,67682:0:0:0:0:
64,192,67532,1,0,0:0:0:70:dance_kick.wav
320,192,67682,128,0,67832:0:0:0:0:
64,192,67832,1,0,0:0:0:70:dance_kick.wav
192,192,67832,128,0,67982:0:0:0:0:
448,192,67982,128,0,68132:0:0:0:0:
64,192,68132,1,0,0:0:0:70:dance_kick.wav
320,192,68132,1,0,0:0:0:0:
192,192,68282,128,0,68432:0:0:0:0:
448,192,68432,1,0,0:0:0:0:
64,192,68432,1,0,0:0:0:70:dance_kick.wav
320,192,68582,128,0,68732:0:0:0:0:
64,192,68732,1,0,0:0:0:70:dance_kick.wav
448,192,68732,1,0,0:0:0:0:
320,192,68882,128,0,69182:0:0:0:0:
192,192,68882,1,0,0:0:0:0:
448,192,69032,1,0,0:0:0:70:dance_kick.wav
64,192,69032,128,0,69182:0:0:0:0:
192,192,69182,128,0,69332:0:0:0:0:
64,192,69332,1,0,0:0:0:70:dance_kick.wav
320,192,69332,128,0,69482:0:0:0:0:
448,192,69482,128,0,69632:0:0:0:0:
320,192,69632,128,0,69782:0:0:0:0:
64,192,69632,1,0,0:0:0:70:dance_kick.wav
192,192,69782,128,0,69932:0:0:0:0:
64,192,69782,1,0,0:0:0:70:dance_kick.wav
64,192,69932,1,0,0:0:0:70:dance_kick.wav
320,192,69932,128,0,70082:0:0:0:0:
192,192,70082,1,0,0:0:0:0:
448,192,70082,128,0,70232:0:0:0:0:
320,192,70232,1,0,0:0:0:70:dance_kick.wav
64,192,70232,128,0,70382:0:0:0:0:
448,192,70382,1,0,0:0:0:0:
192,192,70382,128,0,70532:0:0:0:0:
320,192,70532,1,0,0:0:0:0:
64,192,70532,1,0,0:0:0:70:dance_kick.wav
448,192,70607,1,0,0:0:0:0:
64,192,70682,1,0,0:0:0:0:
320,192,70682,128,0,70832:0:0:0:0:
192,192,70832,1,0,0:0:0:0:
448,192,70832,1,0,0:0:0:70:dance_kick.wav
64,192,70907,1,0,0:0:0:0:
192,192,70982,1,0,0:0:0:0:
448,192,70982,128,0,71132:0:0:0:0:
320,192,71132,1,0,0:0:0:0:
64,192,71132,1,0,0:0:0:70:dance_kick.wav
192,192,71282,1,0,0:0:0:0:
64,192,71282,128,0,71582:0:0:0:0:
448,192,71282,1,0,0:0:0:0:
448,192,71432,128,0,71582:0:0:0:0:
320,192,71432,1,0,0:0:0:70:dance_kick.wav
192,192,71582,1,0,0:0:0:0:
320,192,71582,128,0,71732:0:0:0:0:
448,192,71732,1,0,0:0:0:70:dance_kick.wav
64,192,71732,128,0,71882:0:0:0:0:
320,192,71882,128,0,72032:0:0:0:0:
192,192,71882,1,0,0:0:0:0:
64,192,72032,1,0,0:0:0:70:dance_kick.wav
448,192,72032,128,0,72182:0:0:0:0:
320,192,72182,1,0,0:0:0:0:
192,192,72182,128,0,72332:0:0:0:0:
448,192,72332,128,0,72482:0:0:0:0:
64,192,72332,1,0,0:0:0:70:dance_kick.wav
320,192,72482,128,0,72632:0:0:0:0:
64,192,72482,1,0,0:0:0:0:
192,192,72632,128,0,72782:0:0:0:0:
448,192,72632,1,0,0:0:0:70:dance_kick.wav
448,192,72782,128,0,72932:0:0:0:0:
64,192,72782,1,0,0:0:0:70:cymbal.wav
320,192,72782,1,0,0:0:0:0:
192,192,72932,1,0,0:0:0:70:dance_kick.wav
320,192,72932,1,0,0:0:0:0:
192,192,73082,1,0,0:0:0:70:cymbal.wav
448,192,73082,1,0,0:0:0:0:
64,192,73082,128,0,73232:0:0:0:0:
320,192,73232,1,0,0:0:0:0:
448,192,73232,1,0,0:0:0:70:dance_kick.wav
192,192,73382,128,0,73532:0:0:0:0:
64,192,73382,1,0,0:0:0:0:
320,192,73382,1,0,0:0:0:70:cymbal.wav
64,192,73532,1,0,0:0:0:70:dance_kick.wav
448,192,73532,1,0,0:0:0:0:
320,192,73682,128,0,73832:0:0:0:0:
192,192,73682,1,0,0:0:0:0:
448,192,73682,1,0,0:0:0:70:cymbal.wav
64,192,73832,1,0,0:0:0:0:
192,192,73832,1,0,0:0:0:70:dance_kick.wav
320,192,73982,128,0,74132:0:0:0:0:
64,192,73982,1,0,0:0:0:70:cymbal.wav
448,192,73982,1,0,0:0:0:0:
192,192,74132,128,0,74582:0:0:0:70:cymbal.wav
448,192,74132,1,0,0:0:0:70:dance_kick.wav
320,192,74282,1,0,0:0:0:0:
448,192,74432,1,0,0:0:0:0:
64,192,74432,1,0,0:0:0:70:dance_kick.wav
448,192,74582,1,0,0:0:0:0:
64,192,74582,1,0,0:0:0:70:dance_kick.wav
448,192,74732,1,0,0:0:0:70:cymbal.wav
64,192,74732,1,0,0:0:0:70:dance_kick.wav
320,192,74732,128,0,74882:0:0:0:0:
192,192,74882,128,0,75032:0:0:0:0:
64,192,75032,128,0,75182:0:0:0:0:
448,192,75032,1,0,0:0:0:70:dance_kick.wav
320,192,75182,128,0,75332:0:0:0:0:
192,192,75332,1,0,0:0:0:70:dance_kick.wav
448,192,75332,1,0,0:0:0:0:
64,192,75407,1,0,0:0:0:0:
320,192,75482,1,0,0:0:0:0:
448,192,75482,1,0,0:0:0:0:
192,192,75632,1,0,0:0:0:70:dance_kick.wav
64,192,75632,1,0,0:0:0:0:
320,192,75707,1,0,0:0:0:0:
448,192,75782,1,0,0:0:0:0:
64,192,75782,1,0,0:0:0:0:
448,192,75932,1,0,0:0:0:0:
64,192,75932,1,0,0:0:0:0:
320,192,75932,1,0,0:0:0:70:dance_kick.wav
448,192,76082,128,0,76382:0:0:0:0:
64,192,76082,128,0,76382:0:0:0:0:
192,192,76382,128,0,76682:0:0:0:0:
320,192,76382,128,0,76532:0:0:0:0:
448,192,76532,128,0,76682:0:0:0:70:dance_kick.wav
64,192,76682,128,0,76832:0:0:0:0:
320,192,76682,128,0,76982:0:0:0:0:
192,192,76832,128,0,76982:0:0:0:70:dance_kick.wav
64,192,76982,128,0,77132:0:0:0:0:
448,192,76982,128,0,77132:0:0:0:0:
192,192,77132,1,0,0:0:0:0:
320,192,77132,1,0,0:0:0:70:dance_kick.wav
64,192,77207,1,0,0:0:0:0:
320,192,77282,1,0,0:0:0:0:
192,192,77357,1,0,0:0:0:0:
448,192,77432,1,0,0:0:0:0:
64,194,77432,1,0,0:0:0:70:dance_kick.wav
320,192,77507,1,0,0:0:0:0:
192,192,77582,1,0,0:0:0:0:
320,192,77657,1,0,0:0:0:0:
64,192,77732,1,0,0:0:0:70:dance_kick.wav
448,192,77732,1,0,0:0:0:0:
192,192,77807,1,0,0:0:0:0:
320,192,77882,1,0,0:0:0:0:
448,192,77957,1,0,0:0:0:0:
64,192,78032,1,0,0:0:0:70:dance_kick.wav
320,192,78032,1,0,0:0:0:0:
448,192,78107,1,0,0:0:0:0:
192,192,78182,1,0,0:0:0:0:
320,192,78257,1,0,0:0:0:0:
448,192,78332,1,0,0:0:0:0:
64,192,78332,1,0,0:0:0:70:dance_kick.wav
320,192,78407,1,0,0:0:0:0:
192,192,78482,1,0,0:0:0:0:
64,192,78557,1,0,0:0:0:0:
448,192,78632,1,0,0:0:0:70:dance_kick.wav
320,192,78632,1,0,0:0:0:0:
192,192,78707,1,0,0:0:0:0:
320,192,78782,1,0,0:0:0:0:
192,192,78857,1,0,0:0:0:0:
64,192,78932,1,0,0:0:0:0:
448,192,78932,1,0,0:0:0:70:dance_kick.wav
192,192,79007,1,0,0:0:0:0:
320,192,79082,1,0,0:0:0:0:
448,192,79157,1,0,0:0:0:0:
64,192,79232,1,0,0:0:0:70:dance_kick.wav
192,192,79232,1,0,0:0:0:0:
448,192,79307,1,0,0:0:0:0:
192,192,79382,1,0,0:0:0:0:
64,192,79382,1,0,0:0:0:70:dance_kick.wav
448,192,79457,1,0,0:0:0:0:
192,192,79532,1,0,0:0:0:70:cymbal.wav
64,192,79532,1,0,0:0:0:70:dance_kick.wav
320,192,79532,1,0,0:0:0:0:
448,192,79607,1,0,0:0:0:0:
320,192,79682,128,0,79757:0:0:0:0:
64,192,79757,1,0,0:0:0:0:
192,192,79832,1,0,0:0:0:70:dance_kick.wav
448,192,79832,1,0,0:0:0:0:
64,192,79907,128,0,79982:0:0:0:0:
320,192,79982,1,0,0:0:0:0:
192,192,80057,1,0,0:0:0:0:
448,192,80132,128,0,80207:0:0:0:0:
64,192,80132,1,0,0:0:0:70:dance_kick.wav
320,192,80207,1,0,0:0:0:0:
192,192,80282,1,0,0:0:0:0:
320,192,80357,128,0,80432:0:0:0:0:
192,192,80432,1,0,0:0:0:0:
64,192,80432,1,0,0:0:0:70:dance_kick.wav
448,192,80507,1,0,0:0:0:0:
192,192,80582,128,0,80657:0:0:0:0:
320,192,80657,1,0,0:0:0:0:
64,192,80732,1,0,0:0:0:70:dance_kick.wav
448,192,80732,128,0,80832:0:0:0:0:
320,192,80832,128,0,80932:0:0:0:0:
192,192,80932,128,0,81032:0:0:0:0:
448,192,81032,1,0,0:0:0:70:dance_kick.wav
64,192,81032,128,0,81132:0:0:0:0:
192,192,81132,128,0,81232:0:0:0:0:
320,192,81232,128,0,81332:0:0:0:0:
64,192,81332,1,0,0:0:0:70:dance_kick.wav
448,192,81332,128,0,81432:0:0:0:0:
320,192,81432,128,0,81532:0:0:0:0:
192,192,81532,128,0,81632:0:0:0:0:
448,192,81632,1,0,0:0:0:70:dance_kick.wav
64,192,81632,128,0,81732:0:0:0:0:
192,192,81732,128,0,81832:0:0:0:0:
320,192,81832,128,0,81932:0:0:0:0:
64,192,81932,1,0,0:0:0:0:
448,192,81932,1,0,0:0:0:70:dance_kick.wav
192,192,81932,128,0,82082:0:0:0:0:
320,192,82082,128,0,82232:0:0:0:0:
64,192,82082,1,0,0:0:0:70:dance_kick.wav
192,192,82232,128,0,82382:0:0:0:0:
448,192,82232,1,0,0:0:0:70:dance_kick.wav
64,192,82382,128,0,82532:0:0:0:70:cymbal.wav
448,192,82382,1,0,0:0:0:70:dance_kick.wav
320,192,82532,1,0,0:0:0:70:dance_kick.wav
320,192,82682,1,0,0:0:0:70:dance_kick.wav
64,192,82682,128,0,82832:0:0:0:70:cymbal.wav
320,192,82832,1,0,0:0:0:70:dance_kick.wav
320,192,82982,1,0,0:0:0:70:dance_kick.wav
64,192,82982,128,0,83132:0:0:0:70:cymbal.wav
448,192,83132,1,0,0:0:0:70:dance_kick.wav
320,192,83207,1,0,0:0:0:70:dance_kick.wav
64,192,83282,128,0,83432:0:0:0:70:cymbal.wav
192,192,83282,1,0,0:0:0:70:dance_kick.wav
320,192,83357,1,0,0:0:0:70:dance_kick.wav
448,192,83432,1,0,0:0:0:70:dance_kick.wav
320,192,83469,1,0,0:0:0:70:dance_kick.wav
192,192,83507,1,0,0:0:0:70:dance_kick.wav
320,192,83544,1,0,0:0:0:70:dance_kick.wav
448,192,83582,1,0,0:0:0:70:dance_kick.wav
64,192,83619,1,0,0:0:0:70:dance_kick.wav
192,192,83657,1,0,0:0:0:70:dance_kick.wav
320,192,83694,1,0,0:0:0:70:dance_kick.wav
64,192,83732,128,0,84182:0:0:0:70:cymbal.wav
448,192,83732,1,0,0:0:0:70:dance_kick.wav
320,192,83882,1,0,0:0:0:70:dance_kick.wav
192,192,84032,1,0,0:0:0:0:
320,192,84032,1,0,0:0:0:70:dance_kick.wav
448,192,84182,1,0,0:0:0:0:
192,192,84332,1,0,0:0:0:70:cymbal.wav
64,192,84332,1,0,0:0:0:70:dance_snare.wav
320,192,84407,1,0,0:0:0:0:
448,192,84482,1,0,0:0:0:0:
64,192,84557,1,0,0:0:0:0:
192,192,84632,1,0,0:0:0:0:
448,192,84632,1,0,0:0:0:70:dance_snare.wav
320,192,84707,1,0,0:0:0:0:
448,192,84782,1,0,0:0:0:0:
320,192,84857,1,0,0:0:0:0:
64,192,84932,1,0,0:0:0:70:dance_kick.wav
192,194,84932,1,0,0:0:0:0:
448,192,85007,1,0,0:0:0:0:
192,192,85082,1,0,0:0:0:70:cymbal.wav
64,192,85082,1,0,0:0:0:70:dance_kick.wav
320,192,85157,1,0,0:0:0:0:
448,194,85232,1,0,0:0:0:70:dance_snare.wav
192,192,85232,1,0,0:0:0:0:
64,192,85307,1,0,0:0:0:0:
192,192,85382,1,0,0:0:0:70:cymbal.wav
320,192,85457,1,0,0:0:0:0:
192,192,85532,5,0,0:0:0:0:
448,192,85532,1,0,0:0:0:70:cymbal.wav
64,192,85532,1,0,0:0:0:70:dance_kick.wav
320,192,85682,1,0,0:0:0:0:
192,192,85832,1,0,0:0:0:0:
64,192,85832,1,0,0:0:0:70:dance_clap.wav
320,192,85982,1,0,0:0:0:0:
192,192,86132,1,0,0:0:0:0:
320,192,86282,1,0,0:0:0:0:
448,192,86432,1,0,0:0:0:0:
64,192,86432,1,0,0:0:0:70:dance_clap.wav
320,192,86582,1,0,0:0:0:0:
192,192,86732,1,0,0:0:0:0:
320,192,86882,1,0,0:0:0:0:
448,192,87032,1,0,0:0:0:0:
64,192,87032,1,0,0:0:0:70:dance_clap.wav
320,192,87182,1,0,0:0:0:0:
320,192,87332,1,0,0:0:0:0:
448,192,87482,1,0,0:0:0:0:
192,192,87632,1,0,0:0:0:70:dance_clap.wav
64,192,87782,1,0,0:0:0:70:dance_kick.wav
448,192,87782,1,0,0:0:0:70:cymbal.wav
320,192,87782,1,0,0:0:0:0:
192,192,87932,1,0,0:0:0:0:
448,192,87932,1,0,0:0:0:70:dance_kick.wav
64,192,87932,1,0,0:0:0:70:cymbal.wav
320,192,88082,1,0,0:0:0:0:
192,192,88232,1,0,0:0:0:0:
64,192,88232,1,0,0:0:0:70:dance_clap.wav
320,192,88382,1,0,0:0:0:0:
192,192,88532,1,0,0:0:0:0:
320,192,88682,1,0,0:0:0:0:
448,192,88832,1,0,0:0:0:0:
64,192,88832,1,0,0:0:0:70:dance_clap.wav
192,192,88982,1,0,0:0:0:0:
448,192,89132,1,0,0:0:0:0:
320,192,89282,1,0,0:0:0:0:
448,192,89432,1,0,0:0:0:0:
64,192,89432,1,0,0:0:0:70:dance_clap.wav
192,192,89582,128,0,89882:0:0:0:0:
64,192,89882,1,0,0:0:0:70:cymbal.wav
320,192,89882,1,0,0:0:0:0:
448,192,89882,1,0,0:0:0:70:dance_kick.wav
448,194,90032,1,0,0:0:0:70:dance_clap.wav
64,192,90182,1,0,0:0:0:70:cymbal.wav
192,192,90182,1,0,0:0:0:0:
320,192,90182,1,0,0:0:0:70:dance_kick.wav
448,192,90332,1,0,0:0:0:70:dance_kick.wav
320,192,90332,1,0,0:0:0:0:
64,192,90332,1,0,0:0:0:70:cymbal.wav
320,192,90482,1,0,0:0:0:0:
192,192,90632,1,0,0:0:0:0:
64,192,90632,1,0,0:0:0:70:dance_clap.wav
320,192,90782,1,0,0:0:0:0:
192,192,90932,1,0,0:0:0:0:
320,192,91082,1,0,0:0:0:0:
448,192,91232,1,0,0:0:0:0:
64,192,91232,1,0,0:0:0:70:dance_clap.wav
320,192,91382,1,0,0:0:0:0:
192,192,91532,1,0,0:0:0:0:
320,192,91682,1,0,0:0:0:0:
448,192,91832,1,0,0:0:0:0:
64,192,91832,1,0,0:0:0:70:dance_clap.wav
320,192,91982,1,0,0:0:0:0:
320,192,92132,1,0,0:0:0:0:
192,192,92282,1,0,0:0:0:0:
64,192,92432,1,0,0:0:0:70:dance_clap.wav
192,192,92582,1,0,0:0:0:0:
320,192,92582,1,0,0:0:0:70:dance_kick.wav
448,192,92582,1,0,0:0:0:70:cymbal.wav
192,192,92732,1,0,0:0:0:70:cymbal.wav
64,192,92732,1,0,0:0:0:0:
448,192,92732,1,0,0:0:0:70:dance_kick.wav
320,192,92807,1,0,0:0:0:10:dance_snare.wav
192,192,92882,1,0,0:0:0:10:dance_snare.wav
320,192,92957,1,0,0:0:0:10:dance_snare.wav
64,192,93032,1,0,0:0:0:70:dance_clap.wav
448,192,93032,1,0,0:0:0:20:dance_snare.wav
320,192,93107,1,0,0:0:0:20:dance_snare.wav
192,192,93182,1,0,0:0:0:30:dance_snare.wav
64,192,93257,1,0,0:0:0:30:dance_snare.wav
192,192,93332,1,0,0:0:0:70:dance_kick.wav
448,192,93332,1,0,0:0:0:70:cymbal.wav
320,192,93407,1,0,0:0:0:40:dance_snare.wav
448,192,93482,1,0,0:0:0:50:dance_snare.wav
192,192,93557,1,0,0:0:0:50:dance_snare.wav
64,192,93632,1,0,0:0:0:70:dance_clap.wav
448,192,93632,1,0,0:0:0:60:dance_snare.wav
320,192,93707,1,0,0:0:0:60:dance_snare.wav
448,192,93782,1,0,0:0:0:70:dance_snare.wav
64,192,93857,1,0,0:0:0:70:dance_snare.wav
192,192,93932,1,0,0:0:0:70:dance_kick.wav
320,192,93932,1,0,0:0:0:70:cymbal.wav
448,192,93932,1,0,0:0:0:0:
320,192,94082,1,0,0:0:0:0:
64,192,94232,1,0,0:0:0:70:dance_kick.wav
192,192,94232,1,0,0:0:0:70:cymbal.wav
448,192,94232,1,0,0:0:0:0:
192,192,94382,1,0,0:0:0:0:
64,192,94532,1,0,0:0:0:0:
320,192,94532,1,0,0:0:0:70:dance_kick.wav
448,192,94532,1,0,0:0:0:70:cymbal.wav
192,192,94832,1,0,0:0:0:70:dance_kick.wav
448,192,94832,1,0,0:0:0:0:
64,192,94832,1,0,0:0:0:0:
192,192,94982,1,0,0:0:0:70:dance_kick.wav
448,192,94982,1,0,0:0:0:0:
320,192,94982,1,0,0:0:0:0:
192,192,95132,1,0,0:0:0:70:dance_kick.wav
320,192,95132,1,0,0:0:0:0:
448,192,95132,1,0,0:0:0:70:cymbal.wav
64,192,95132,1,0,0:0:0:0:
