osu file format v14

[General]
AudioFilename: Ginkiha - Oriens.mp3
AudioLeadIn: 2000
PreviewTime: 16507
Countdown: 0
SampleSet: Soft
StackLeniency: 0.7
Mode: 0
LetterboxInBreaks: 0
WidescreenStoryboard: 0

[Editor]
DistanceSpacing: 1
BeatDivisor: 2
GridSize: 4
TimelineZoom: 0.8

[Metadata]
Title:Oriens
TitleUnicode:Oriens
Artist:ginkiha
ArtistUnicode:ginkiha
Creator:Kloyd
Version:KwaN's Easy
Source:BMS
Tags:cytus fighters 2012 bof2012 FREESTYLE ORIENTAL ELECTRO sionkotori IamKwaN EvilElvis EvilElvisV2
BeatmapID:517047
BeatmapSetID:182271

[Difficulty]
HPDrainRate:2
CircleSize:2.8
OverallDifficulty:2
ApproachRate:3
SliderMultiplier:0.8
SliderTickRate:1

[Events]
//Background and Video events
0,0,"BG.jpg",0,0
//Break Periods
2,57896,66634
//Storyboard Layer 0 (Background)
//Storyboard Layer 1 (Fail)
//Storyboard Layer 2 (Pass)
//Storyboard Layer 3 (Foreground)
//Storyboard Sound Samples

[TimingPoints]
754.960185239278,428.571428571429,4,2,88,65,1,0
16183,324.324324324324,4,2,88,75,1,0
17155,-100,4,2,89,75,0,0
17318,-100,4,2,88,75,0,0
22345,-100,4,2,89,75,0,0
22507,-100,4,2,88,75,0,0
24291,-100,4,2,89,75,0,0
24453,-100,4,2,88,75,0,0
25588,-100,4,2,89,75,0,0
25750,-100,4,2,88,75,0,0
27534,-100,4,2,89,75,0,0
27696,-100,4,2,88,75,0,0
32723,-100,4,2,89,75,0,0
32885,-100,4,2,88,75,0,0
34669,-100,4,2,89,75,0,0
34831,-100,4,2,88,75,0,0
35966,-100,4,2,89,75,0,0
36128,-100,4,2,88,75,0,0
36939,-100,4,2,88,75,0,1
37020,-100,4,2,88,75,0,0
41155,-100,4,2,89,75,0,0
41318,-100,4,2,88,75,0,0
42453,-100,4,2,89,75,0,0
42615,-100,4,2,88,75,0,0
47318,-100,4,2,88,75,0,1
47399,-100,4,2,88,75,0,0
51534,-100,4,2,89,75,0,0
51696,-100,4,2,88,75,0,0
52831,-100,4,2,89,75,0,0
52993,-100,4,2,88,75,0,0
57372,-100,4,2,89,75,0,0
57534,-100,4,2,88,75,0,0
73264,-100,4,2,88,85,0,0
80723,-100,4,2,89,75,0,0
80885,-100,4,2,88,75,0,0
85912,-100,4,2,89,75,0,0
86074,-100,4,2,88,75,0,0
87858,-100,4,2,89,75,0,0
88020,-100,4,2,88,75,0,0
89155,-100,4,2,89,75,0,0
89318,-100,4,2,88,75,0,0
91101,-100,4,2,89,75,0,0
91264,-100,4,2,88,75,0,0
96291,-100,4,2,89,75,0,0
96453,-100,4,2,88,75,0,0
98237,-100,4,2,89,75,0,0
98399,-100,4,2,88,75,0,0
99534,-100,4,2,89,75,0,0
99696,-100,4,2,88,75,0,0
100507,-100,4,2,88,75,0,1
100588,-100,4,2,88,75,0,0
104723,-100,4,2,89,75,0,0
104885,-100,4,2,88,75,0,0
106020,-100,4,2,89,75,0,0
106182,-100,4,2,88,75,0,0
110885,-100,4,2,88,75,0,1
110966,-100,4,2,88,75,0,0
115101,-100,4,2,89,75,0,0
115264,-100,4,2,88,75,0,0
116399,-100,4,2,89,75,0,0
116561,-100,4,2,88,75,0,0
121588,-100,4,2,88,65,0,0
122561,-100,4,2,88,45,0,0
123858,-100,4,2,88,25,0,0

[Colours]
Combo1 : 0,0,244
Combo2 : 244,150,238
Combo3 : 244,0,244
Combo4 : 15,231,255

[HitObjects]
380,106,754,6,0,P|417:174|400:254,1,160,4|0,1:2|1:0,0:0:0:0:
251,307,2469,2,0,B|204:291|165:312|165:312|134:286|136:248,1,160,0|0,0:0|1:0,0:0:0:0:
102,93,4183,6,0,L|265:88,1,160,0|0,0:0|1:0,0:0:0:0:
417,126,5897,2,0,B|434:186|394:235|394:235|408:277,1,160,0|0,0:0|1:0,0:0:0:0:
436,351,7183,1,0,1:0:0:0:
356,340,7612,6,0,B|276:314|277:363|196:347,1,160,0|0,0:0|1:0,0:0:0:0:
62,264,9326,2,0,P|36:199|108:171,1,160,0|0,0:0|1:0,0:0:0:0:
226,64,11040,6,0,L|390:53,1,160,0|0,0:0|1:0,0:0:0:0:
449,102,12326,1,0,1:0:0:0:
418,176,12754,2,0,P|408:217|411:256,1,80
367,321,13612,2,0,B|275:325|275:325|290:300,1,120,0|0,1:0|1:0,0:0:0:0:
305,264,14469,6,0,B|327:216|287:187|287:187|380:98|380:98|275:107,1,320,4|2,0:3|0:0,0:0:0:0:
213,155,16507,6,0,P|196:100|226:46,2,120,4|2|2,1:2|0:0|0:0,0:0:0:0:
169,222,17804,2,0,B|157:339|157:339|125:310,1,160,0|2,1:0|1:2,0:0:0:0:
62,260,18777,6,0,L|50:180,1,80,2|0,0:0|1:0,0:0:0:0:
99,117,19426,2,0,L|111:37,1,80,2|0,0:0|1:0,0:0:0:0:
189,21,20074,1,2,0:0:0:0:
261,56,20399,2,0,P|331:92|399:60,1,160,0|0,1:0|1:0,0:0:0:0:
462,10,21372,5,4,0:0:0:0:
476,88,21696,2,0,L|480:209,2,120,0|2|0,1:0|0:0|0:0,0:0:0:0:
465,8,22993,2,0,P|438:41|401:52,1,80,0|2,1:0|0:0,0:0:0:0:
324,38,23642,1,0,1:0:0:0:
247,15,23966,6,0,B|208:52|159:30|159:30|152:63|121:83,1,160,2|2,0:0|0:0,0:0:0:0:
80,13,24939,1,0,1:0:0:0:
44,84,25264,2,0,L|34:208,2,120,2|2|0,0:0|0:0|1:0,0:0:0:0:
124,80,26561,5,4,0:0:0:0:
190,36,26885,2,0,B|272:37|272:37|305:63,2,120,0|2|2,1:0|0:0|0:0,0:0:0:0:
195,115,28182,2,0,B|229:167|205:216|205:216|151:229,1,160,0|0,1:0|1:0,0:0:0:0:
136,307,29155,6,0,L|216:316,1,80,2|0,0:0|1:0,0:0:0:0:
296,316,29804,2,0,L|376:307,1,80,2|0,0:0|1:0,0:0:0:0:
422,242,30452,1,2,0:0:0:0:
462,172,30777,2,0,P|469:102|389:85,1,160,0|0,1:0|1:0,0:0:0:0:
315,70,31750,5,4,0:0:0:0:
252,120,32074,2,0,L|132:113,2,120,0|2|2,1:0|0:0|0:0,0:0:0:0:
299,184,33372,2,0,P|305:228|291:259,1,80,0|2,1:0|0:0,0:0:0:0:
224,305,34020,1,0,1:0:0:0:
146,322,34344,6,0,B|59:330|59:330|30:309|41:262,1,160,2|2,0:0|0:0,0:0:0:0:
94,204,35317,1,0,1:0:0:0:
41,143,35642,2,0,L|31:23,2,120,2|4|4,0:0|0:0|1:2,0:0:0:0:
94,204,36939,5,4,0:0:0:0:
174,209,37264,2,0,P|241:214|295:147,1,160,0|0,1:0|1:0,0:0:0:0:
215,137,38237,1,2,0:0:0:0:
261,72,38561,2,0,B|370:46|370:46|357:95,1,160,0|0,1:0|1:0,0:0:0:0:
405,156,39534,5,2,0:0:0:0:
382,232,39858,2,0,P|421:234|459:215,2,80,0|2|0,1:0|0:0|1:0,0:0:0:0:
324,287,40831,2,0,B|252:238|236:304|169:273,1,160,2|2,0:0|0:0,0:0:0:0:
202,200,41804,1,0,1:0:0:0:
137,152,42128,6,0,B|137:71|137:71|110:40,1,120,2|0,0:0|0:0,0:0:0:0:
58,102,42939,2,0,B|11:127|11:127|31:179|-14:218|-14:218|9:262,1,200,2|0,0:0|1:0,0:0:0:0:
80,293,44074,2,0,P|120:291|157:308,1,80,2|0,0:0|1:0,0:0:0:0:
229,275,44723,5,2,0:0:0:0:
266,345,45047,2,0,P|311:281|280:214,1,160,0|0,1:0|1:0,0:0:0:0:
310,139,46020,2,0,B|363:130|363:130|391:139,1,80,2|0,0:0|1:0,0:0:0:0:
461,171,46669,2,0,P|469:131|453:92,1,80,2|0,0:0|1:0,0:0:0:0:
398,38,47318,5,4,0:0:0:0:
319,52,47642,2,0,B|272:68|233:47|233:47|202:73|204:111,1,160,0|0,1:0|1:0,0:0:0:0:
208,189,48616,1,2,0:0:0:0:
277,229,48940,2,0,B|269:342|269:342|224:355,1,160,0|0,1:0|1:0,0:0:0:0:
154,314,49913,5,2,0:0:0:0:
78,287,50237,2,0,L|66:366,2,80,0|2|0,1:0|0:0|1:0,0:0:0:0:
112,214,51210,2,0,B|131:166|112:127|112:127|149:147|179:127,1,160,2|2,0:0|0:0,0:0:0:0:
232,68,52183,1,0,1:0:0:0:
303,103,52507,6,0,B|372:97|406:154,1,120,2|0,0:0|0:0,0:0:0:0:
424,230,53318,2,0,B|436:301|385:333|385:333|350:307|306:320,1,200,2|0,0:0|1:0,0:0:0:0:
230,343,54453,2,0,B|203:346|203:346|152:332,1,80,2|0,0:0|1:0,0:0:0:0:
98,272,55102,5,2,0:0:0:0:
150,210,55426,2,0,P|171:140|107:95,1,160,0|0,1:0|1:0,0:0:0:0:
39,54,56399,2,0,L|120:41,1,80,2|0,0:0|1:0,0:0:0:0:
198,43,57048,2,0,B|234:62|248:104|248:104|326:85,1,160,2|4,0:0|0:0,0:0:0:0:
54,88,68074,6,0,B|115:125|160:65|160:65|205:69|216:113,1,200,2|2,0:0|0:0,0:0:0:0:
174,180,69210,2,0,P|246:187|295:122,1,160,2|2,0:0|0:0,0:0:0:0:
273,45,70182,2,0,L|313:42,1,40,2|0,0:0|1:0,0:0:0:0:
380,87,70669,6,0,B|379:158|352:200|352:200|375:235|425:222,1,200,2|2,0:0|0:0,0:0:0:0:
491,177,71805,2,0,P|501:254|442:301,1,160,2|2,0:0|0:0,0:0:0:0:
362,302,72777,2,0,L|323:308,1,40,2|0,0:0|1:0,0:0:0:0:
256,352,73264,5,4,0:0:0:0:
256,32,74561,1,4,0:0:0:0:
256,352,75858,5,4,0:0:0:0:
109,287,76507,1,4,0:0:0:0:
170,139,77155,2,0,P|152:105|155:63,1,80,4|2,0:0|0:0,0:0:0:0:
231,87,77804,2,0,B|302:120|302:120|334:97|382:111,1,160,0|2,0:0|0:0,0:0:0:0:
116,286,79750,5,2,0:0:0:0:
186,324,80074,2,0,P|236:347|297:324,2,120,4|2|2,1:2|0:0|0:0,0:0:0:0:
242,266,81371,2,0,P|320:250|371:304,1,160,0|0,1:0|1:0,0:0:0:0:
448,326,82344,6,0,L|456:243,1,80,2|0,0:0|1:0,0:0:0:0:
390,199,82993,2,0,L|382:116,1,80,2|0,0:0|1:0,0:0:0:0:
324,64,83641,1,2,0:0:0:0:
244,75,83966,2,0,B|116:80|116:80|136:107,1,160,0|0,1:0|1:0,0:0:0:0:
181,170,84939,5,4,0:0:0:0:
102,183,85264,2,0,P|67:166|37:93,2,120,0|2|2,1:0|0:0|0:0,0:0:0:0:
151,246,86561,2,0,P|154:288|132:318,1,80,0|2,1:0|0:0,0:0:0:0:
53,331,87209,1,0,1:0:0:0:
16,259,87533,6,0,B|41:157|41:157|22:105,1,160,2|2,0:0|0:0,0:0:0:0:
44,28,88506,1,0,1:0:0:0:
120,52,88831,2,0,L|246:30,2,120,2|2|0,0:0|0:0|1:0,0:0:0:0:
120,132,90128,5,4,0:0:0:0:
113,211,90453,2,0,L|101:333,2,120,0|2|2,1:0|0:0|0:0,0:0:0:0:
185,176,91750,2,0,P|265:183|304:120,1,160,0|0,1:0|1:0,0:0:0:0:
359,64,92722,6,0,B|419:67|419:67|445:80,1,80,2|0,0:0|1:0,0:0:0:0:
455,153,93371,2,0,P|445:195|446:234,1,80,2|0,0:0|1:0,0:0:0:0:
472,306,94019,1,2,0:0:0:0:
392,293,94344,2,0,B|325:274|298:320|234:299,1,160,0|0,1:0|1:0,0:0:0:0:
203,225,95317,5,4,0:0:0:0:
155,289,95642,2,0,B|149:381|149:381|119:365,2,120,0|2|2,1:0|0:0|0:0,0:0:0:0:
118,217,96939,1,0,1:0:0:0:
41,193,97264,2,0,L|41:110,1,80,2|0,0:0|1:0,0:0:0:0:
91,50,97912,6,0,P|160:31|243:59,1,160,2|2,0:0|0:0,0:0:0:0:
270,134,98884,1,0,1:0:0:0:
334,182,99210,2,0,P|351:128|318:70,2,120,2|4|4,0:0|0:0|1:2,0:0:0:0:
290,249,100506,5,4,0:0:0:0:
220,288,100831,2,0,B|173:272|134:293|134:293|103:267|105:229,1,160,0|0,1:0|1:0,0:0:0:0:
127,154,101804,1,2,0:0:0:0:
48,141,102128,2,0,B|61:28|61:28|106:12,1,160,0|0,1:0|1:0,0:0:0:0:
179,40,103101,5,2,0:0:0:0:
258,28,103425,2,0,L|333:53,2,80,0|2|0,1:0|0:0|1:0,0:0:0:0:
229,103,104398,2,0,B|339:139|339:139|382:122,1,160,2|2,0:0|0:0,0:0:0:0:
434,63,105371,1,0,1:0:0:0:
484,125,105695,6,0,B|471:246,1,120,2|0,0:0|0:0,0:0:0:0:
409,296,106507,2,0,B|355:296|355:296|336:331|296:335|296:335|259:318|224:329,1,200,2|0,0:0|1:0,0:0:0:0:
156,288,107642,2,0,P|116:299|77:293,1,80,2|0,0:0|1:0,0:0:0:0:
40,223,108290,5,2,0:0:0:0:
30,143,108615,2,0,P|47:70|116:84,1,160,0|0,1:0|1:0,0:0:0:0:
184,125,109587,2,0,P|224:128|259:108,1,80,2|0,0:0|1:0,0:0:0:0:
317,55,110236,2,0,L|399:65,1,80,2|0,0:0|1:0,0:0:0:0:
451,122,110885,5,4,0:0:0:0:
460,201,111210,2,0,P|446:278|373:297,1,160,0|0,1:0|1:0,0:0:0:0:
303,260,112183,1,2,0:0:0:0:
228,230,112507,2,0,B|115:238|115:238|142:280,1,160,0|0,1:0|1:0,0:0:0:0:
210,316,113480,5,2,0:0:0:0:
142,358,113804,2,0,L|55:365,2,80,0|2|0,1:0|0:0|1:0,0:0:0:0:
210,316,114777,2,0,P|273:337|329:275,1,160,2|2,0:0|0:0,0:0:0:0:
340,194,115750,1,0,1:0:0:0:
407,151,116074,6,0,B|437:101|411:49|411:49|407:65,1,120,2|0,0:0|0:0,0:0:0:0:
337,100,116885,2,0,B|303:105|303:105|285:53|285:53|233:17|179:47,1,200,2|0,0:0|1:0,0:0:0:0:
125,104,118020,2,0,B|104:139|104:139|107:178,1,80,2|0,0:0|1:0,0:0:0:0:
156,241,118669,5,2,0:0:0:0:
115,309,118993,2,0,P|183:318|236:251,1,160,0|0,1:0|1:0,0:0:0:0:
246,172,119966,2,0,B|227:147|227:97|264:81|264:81|308:120|308:120|320:112|320:112|332:120|332:120|344:112|344:112|356:120|356:120|368:112|368:112|380:120|380:120|392:112|392:112|404:120|404:120|416:112|416:112|401:91,1,320,2|4,0:0|0:0,0:0:0:0:
256,192,121426,12,2,123858,0:0:0:0:
