osu file format v14

[General]
AudioFilename: Ginkiha - Oriens.mp3
AudioLeadIn: 2000
PreviewTime: 16507
Countdown: 0
SampleSet: Soft
StackLeniency: 0.7
Mode: 0
LetterboxInBreaks: 0
WidescreenStoryboard: 0

[Editor]
Bookmarks: 68074
DistanceSpacing: 0.6
BeatDivisor: 6
GridSize: 4
TimelineZoom: 4.299998

[Metadata]
Title:Oriens
TitleUnicode:Oriens
Artist:ginkiha
ArtistUnicode:ginkiha
Creator:Kloyd
Version:Kotori's Insane
Source:BMS
Tags:cytus fighters 2012 bof2012 FREESTYLE ORIENTAL ELECTRO sionkotori IamKwaN EvilElvis EvilElvisV2
BeatmapID:572101
BeatmapSetID:182271

[Difficulty]
HPDrainRate:7
CircleSize:4
OverallDifficulty:7
ApproachRate:9
SliderMultiplier:1.6
SliderTickRate:1

[Events]
//Background and Video events
0,0,"BG.jpg",0,0
//Break Periods
2,57896,67474
//Storyboard Layer 0 (Background)
//Storyboard Layer 1 (Fail)
//Storyboard Layer 2 (Pass)
//Storyboard Layer 3 (Foreground)
//Storyboard Sound Samples

[TimingPoints]
754,428.571428571429,4,2,50,70,1,0
1611,-100,4,2,51,70,0,0
1932,-100,4,2,50,70,0,0
3754,-76.9230769230769,4,2,50,70,0,0
4182,-100,4,2,50,70,0,0
5039,-100,4,2,51,70,0,0
5575,-76.9230769230769,4,2,50,70,0,0
5896,-100,4,2,50,70,0,0
7182,-76.9230769230769,4,2,50,70,0,0
7611,-100,4,2,50,70,0,0
8468,-100,4,2,51,70,0,0
9004,-76.9230769230769,4,2,50,70,0,0
9325,-100,4,2,50,70,0,0
10611,-76.9230769230769,4,2,50,70,0,0
11039,-100,4,2,50,70,0,0
11896,-100,4,2,51,70,0,0
12325,-76.9230769230769,4,2,51,70,0,0
12754,-100,4,2,50,70,0,0
15325,-83.3333333333333,4,2,50,50,0,0
15754,-71.4285714285714,4,2,50,50,0,0
16183,324.324324324324,4,2,50,70,1,0
16507,-86.9565217391304,4,2,51,70,0,0
16669,-86.9565217391304,4,2,50,70,0,0
24291,-86.9565217391304,4,2,51,70,0,0
24615,-86.9565217391304,4,2,50,70,0,0
24939,-86.9565217391304,4,2,51,70,0,0
25264,-86.9565217391304,4,2,50,70,0,0
25588,-86.9565217391304,4,2,51,70,0,0
25750,-86.9565217391304,4,2,50,70,0,0
26237,-86.9565217391304,4,2,51,70,0,0
26399,-86.9565217391304,4,2,50,70,0,0
34669,-86.9565217391304,4,2,51,70,0,0
34993,-86.9565217391304,4,2,50,70,0,0
35318,-86.9565217391304,4,2,51,70,0,0
35642,-86.9565217391304,4,2,50,70,0,0
35804,-74.0740740740741,4,2,50,70,0,0
36939,-83.3333333333333,4,2,50,70,0,1
42128,-83.3333333333333,4,2,50,70,0,0
44074,-66.6666666666667,4,2,50,70,0,0
44723,-83.3333333333333,4,2,50,70,0,0
46669,-66.6666666666667,4,2,50,70,0,0
46993,-83.3333333333333,4,2,50,70,0,0
47318,-83.3333333333333,4,2,50,70,0,1
52507,-83.3333333333333,4,2,50,70,0,0
56399,-83.3333333333333,4,2,50,50,0,0
57696,-83.3333333333333,4,2,50,50,0,0
68074,-100,4,2,50,70,0,0
75858,-90.9090909090909,4,2,50,70,0,0
76507,-83.3333333333333,4,2,50,70,0,0
77155,-76.9230769230769,4,2,50,70,0,0
78453,-83.3333333333333,4,2,50,70,0,0
80074,-74.0740740740741,4,2,50,70,0,0
99372,-66.6666666666667,4,2,50,70,0,0
100507,-74.0740740740741,4,2,50,70,0,1
105696,-74.0740740740741,4,2,50,70,0,0
110237,-66.6666666666667,4,2,50,70,0,0
110561,-74.0740740740741,4,2,50,70,0,0
110885,-74.0740740740741,4,2,50,70,0,1
116074,-74.0740740740741,4,2,50,70,0,0
119966,-74.0740740740741,4,2,50,50,0,0
120615,-74.0740740740741,4,2,50,40,0,0
120939,-74.0740740740741,4,2,50,30,0,0
121345,-74.0740740740741,4,2,50,20,0,0

[Colours]
Combo1 : 0,0,244
Combo2 : 244,150,238
Combo3 : 244,0,244
Combo4 : 15,231,255

[HitObjects]
248,340,754,5,12,0:0:0:0:
280,336,861,2,0,L|328:328,1,40,0|8,0:0|0:0,0:0:0:0:
400,200,1182,1,8,0:0:0:0:
376,212,1289,2,0,B|352:220|352:220|284:204,1,80,8|0,0:0|0:0,0:0:0:0:
216,72,1611,2,0,B|228:164|228:164|208:204,1,120,4|0,0:0|0:0,0:0:0:0:
148,256,2039,1,8,0:0:0:0:
128,252,2146,2,0,L|48:232,1,80,8|0,0:0|0:0,0:0:0:0:
73,138,2468,5,8,0:0:0:0:
172,164,2682,2,0,L|92:144,1,80,8|0,0:0|0:0,0:0:0:0:
371,100,3111,5,8,0:0:0:0:
272,126,3325,2,0,L|352:106,1,80,8|0,0:0|0:0,0:0:0:0:
187,61,3754,6,0,L|121:46,1,51.999997619629,12|0,0:0|0:0,0:0:0:0:
280,240,4182,6,0,L|276:272,3,26.6666666666667,12|8|8|8,0:0|0:0|0:0|0:0,0:0:0:0:
348,160,4611,2,0,L|440:152,1,80,0|0,0:0|0:0,0:0:0:0:
476,280,5039,2,0,P|408:264|356:328,1,160,4|0,0:0|0:0,0:0:0:0:
365,348,5575,2,0,L|249:336,1,103.999995239258,8|0,0:0|0:0,0:0:0:0:
201,286,5896,5,8,0:0:0:0:
107,309,6110,2,0,L|187:289,1,80,8|0,0:0|0:0,0:0:0:0:
186,187,6539,5,8,0:0:0:0:
280,210,6753,2,0,L|200:190,1,80,8|0,0:0|0:0,0:0:0:0:
260,81,7182,6,0,L|252:21,1,51.999997619629,12|0,0:0|0:0,0:0:0:0:
400,40,7611,6,0,P|428:108|296:144,1,240,4|0,0:0|0:0,0:0:0:0:
354,98,8468,2,0,B|378:134|366:178|366:178|342:238|370:274,1,160,4|0,0:0|0:0,0:0:0:0:
424,336,9004,2,0,B|400:324|400:324|304:336,1,103.999995239258,4|0,0:0|0:0,0:0:0:0:
246,241,9325,5,8,0:0:0:0:
220,344,9539,2,0,L|240:264,1,80,8|0,0:0|0:0,0:0:0:0:
133,266,9968,5,8,0:0:0:0:
107,163,10182,2,0,L|127:243,1,80,8|0,0:0|0:0,0:0:0:0:
262,151,10611,6,0,L|198:143,1,51.999997619629,12|0,0:0|0:0,0:0:0:0:
380,56,11039,6,0,L|384:100,3,26.6666666666667,12|8|8|8,0:0|0:0|0:0|0:0,0:0:0:0:
472,72,11468,2,0,P|480:112|472:152,1,80
360,192,11896,2,0,B|392:236|392:236|392:324,1,120,4|0,0:0|0:0,0:0:0:0:
335,355,12325,2,0,L|255:347,1,51.999997619629,4|0,0:0|0:0,0:0:0:0:
32,328,12754,6,0,L|160:320,1,120,4|0,0:0|0:0,0:0:0:0:
231,313,13182,1,0,0:0:0:0:
298,173,13396,1,0,0:0:0:0:
161,246,13611,1,0,0:0:0:0:
314,267,13825,1,0,0:0:0:0:
202,159,14039,1,0,0:0:0:0:
202,159,14146,2,0,L|145:153,1,40
132,64,14468,5,4,0:0:0:0:
251,96,14682,1,4,0:0:0:0:
360,52,14896,1,4,0:0:0:0:
476,84,15110,1,4,0:0:0:0:
476,84,15325,5,4,0:0:0:0:
416,64,15432,1,4,0:0:0:0:
360,52,15539,1,4,0:0:0:0:
303,73,15646,1,4,0:0:0:0:
251,96,15754,2,0,L|240:128,8,27.9999991455078,4|4|4|4|4|4|4|0|0,0:0|0:0|0:0|0:0|0:0|0:0|0:0|0:0|0:0,0:0:0:0:
40,88,16507,6,0,L|43:179,1,92.0000017547608,4|0,0:0|0:0,0:0:0:0:
136,296,16831,1,0,0:0:0:0:
216,332,16993,1,4,0:0:0:0:
196,248,17155,2,0,P|160:220|108:224,1,92.0000017547608,4|0,0:0|0:0,0:0:0:0:
216,332,17480,6,0,B|260:320|260:320|304:332,1,92.0000017547608,4|0,0:0|0:0,0:0:0:0:
416,372,17804,2,0,P|392:332|404:264,1,92.0000017547608,4|0,0:0|0:0,0:0:0:0:
464,192,18128,2,0,L|368:184,1,92.0000017547608,0|4,0:0|0:0,0:0:0:0:
304,84,18453,2,0,L|400:76,1,92.0000017547608,4|0,0:0|0:0,0:0:0:0:
224,136,18777,5,4,0:0:0:0:
140,208,18939,1,0,0:0:0:0:
72,120,19101,2,0,L|8:36,1,92.0000017547608,4|0,0:0|0:0,0:0:0:0:
224,160,19426,5,0,0:0:0:0:
140,232,19588,1,4,0:0:0:0:
72,144,19750,2,0,L|8:60,1,92.0000017547608,4|0,0:0|0:0,0:0:0:0:
240,256,20074,6,0,L|336:264,1,92.0000017547608,4|0,0:0|0:0,0:0:0:0:
216,376,20399,2,0,L|120:368,1,92.0000017547608,4|4,0:0|0:0,0:0:0:0:
336,188,20723,1,0,0:0:0:0:
352,304,20885,1,4,0:0:0:0:
240,256,21047,2,0,B|228:192|228:192|240:144|240:144|228:76,1,184.000003509522,4|0,0:0|0:0,0:0:0:0:
436,108,21696,6,0,L|441:77,8,30.6666672515869,0|0|0|0|0|0|0|0|0,0:0|0:0|0:0|0:0|0:0|0:0|0:0|0:0|0:0,0:0:0:0:
432,124,22182,1,4,0:0:0:0:
336,148,22345,2,0,P|364:192|368:240,1,92.0000017547608,4|0,0:0|0:0,0:0:0:0:
320,328,22669,6,0,L|224:332,1,92.0000017547608,4|0,0:0|0:0,0:0:0:0:
68,268,22993,2,0,L|164:264,1,92.0000017547608,4|0,0:0|0:0,0:0:0:0:
232,156,23318,2,0,B|244:112|244:112|232:56,1,92.0000017547608,0|4,0:0|0:0,0:0:0:0:
340,156,23642,2,0,B|328:200|328:200|340:256,1,92.0000017547608,4|0,0:0|0:0,0:0:0:0:
456,144,23966,6,0,L|448:92,2,46.0000008773804,0|0|0,0:0|0:0|0:0,0:0:0:0:
364,128,24291,2,0,L|348:28,1,92.0000017547608,4|0,0:0|0:0,0:0:0:0:
260,88,24615,6,0,L|252:140,2,46.0000008773804,0|0|0,0:0|0:0|0:0,0:0:0:0:
168,104,24940,2,0,L|152:204,1,92.0000017547608,4|0,0:0|0:0,0:0:0:0:
68,324,25264,5,4,0:0:0:0:
48,240,25426,2,0,L|32:140,1,92.0000017547608,4|4,0:0|0:0,0:0:0:0:
234,304,25750,5,4,0:0:0:0:
152,280,25912,2,0,L|57:243,1,92.0000017547608,4|0,0:0|0:0,0:0:0:0:
236,212,26237,6,0,L|156:275,1,92.0000017547608,4|0,0:0|0:0,0:0:0:0:
132,152,26561,5,2,0:0:0:0:
368,40,26885,6,0,L|376:136,1,92.0000017547608,4|0,0:0|0:0,0:0:0:0:
412,320,27210,1,0,0:0:0:0:
496,356,27372,1,4,0:0:0:0:
480,260,27534,2,0,P|440:228|400:228,1,92.0000017547608,4|0,0:0|0:0,0:0:0:0:
296,328,27858,6,0,B|252:316|252:316|204:328,1,92.0000017547608,4|0,0:0|0:0,0:0:0:0:
84,372,28182,2,0,P|108:332|96:264,1,92.0000017547608,4|0,0:0|0:0,0:0:0:0:
48,192,28506,2,0,L|144:184,1,92.0000017547608,0|4,0:0|0:0,0:0:0:0:
208,76,28831,2,0,L|112:68,1,92.0000017547608,4|0,0:0|0:0,0:0:0:0:
232,180,29155,5,4,0:0:0:0:
316,224,29318,1,0,0:0:0:0:
364,140,29480,2,0,L|400:56,1,92.0000017547608,4|0,0:0|0:0,0:0:0:0:
236,196,29804,5,0,0:0:0:0:
320,240,29967,1,4,0:0:0:0:
368,156,30129,2,0,L|404:72,1,92.0000017547608,4|0,0:0|0:0,0:0:0:0:
240,212,30453,6,0,P|248:260|240:316,1,92.0000017547608,4|0,0:0|0:0,0:0:0:0:
132,360,30777,2,0,L|28:348,1,92.0000017547608,4|0,0:0|0:0,0:0:0:0:
144,104,31101,2,0,L|248:116,1,92.0000017547608,0|4,0:0|0:0,0:0:0:0:
160,256,31426,2,0,P|108:268|144:188,1,184.000003509522,4|0,0:0|0:0,0:0:0:0:
356,312,32074,6,0,L|351:347,8,30.6666672515869
360,288,32561,1,4,0:0:0:0:
456,264,32723,2,0,P|424:228|420:184,1,92.0000017547608,4|0,0:0|0:0,0:0:0:0:
484,100,33047,6,0,L|360:88,1,92.0000017547608,4|0,0:0|0:0,0:0:0:0:
252,108,33372,2,0,L|264:-16,1,92.0000017547608,4|0,0:0|0:0,0:0:0:0:
368,172,33696,2,0,P|356:220|316:252,1,92.0000017547608,0|4,0:0|0:0,0:0:0:0:
180,144,34020,2,0,L|88:136,1,92.0000017547608,4|0,0:0|0:0,0:0:0:0:
77,260,34345,6,0,L|85:312,2,46.0000008773804,0|0|0,0:0|0:0|0:0,0:0:0:0:
169,276,34670,2,0,L|185:376,1,92.0000017547608,4|0,0:0|0:0,0:0:0:0:
273,316,34994,6,0,L|281:264,2,46.0000008773804,0|0|0,0:0|0:0|0:0,0:0:0:0:
365,300,35319,2,0,L|381:200,1,92.0000017547608,4|0,0:0|0:0,0:0:0:0:
477,184,35642,5,4,0:0:0:0:
424,80,35804,1,8,0:0:0:0:
328,64,35966,1,8,0:0:0:0:
236,52,36128,1,8,0:0:0:0:
217,132,36291,6,0,L|149:140,1,54.0000002059937,4|0,0:0|0:0,0:0:0:0:
89,220,36453,2,0,L|81:152,1,54.0000002059937,4|0,0:0|0:0,0:0:0:0:
177,232,36615,1,4,0:0:0:0:
177,232,36696,1,0,0:0:0:0:
177,232,36777,2,0,L|169:300,1,54.0000002059937,4|0,0:0|0:0,0:0:0:0:
104,320,36939,6,0,P|192:300|268:360,1,191.999994140625,4|4,0:0|0:0,0:0:0:0:
343,317,37426,1,0,0:0:0:0:
425,204,37588,1,0,0:0:0:0:
293,247,37750,1,0,0:0:0:0:
426,290,37912,1,0,0:0:0:0:
343,177,38074,1,0,0:0:0:0:
325,53,38237,6,0,L|302:104,3,47.9999985351563,4|0|0|0,0:0|0:0|0:0|0:0,0:0:0:0:
230,143,38561,2,0,L|175:155,3,47.9999985351563,4|0|0|4,0:0|0:0|0:0|0:0,0:0:0:0:
108,106,38885,2,0,L|96:258,1,143.999995605469,4|0,0:0|0:0,0:0:0:0:
25,293,39210,2,0,L|18:197,1,95.9999970703126,4|0,0:0|0:0,0:0:0:0:
165,288,39534,5,4,0:0:0:0:
261,232,39696,2,0,L|253:180,1,47.9999985351563
345,248,39858,2,0,L|337:300,3,47.9999985351563,4|0|0|0,0:0|0:0|0:0|0:0,0:0:0:0:
377,156,40182,2,0,L|429:164,3,47.9999985351563,0|0|4|0,0:0|0:0|0:0|0:0,0:0:0:0:
289,112,40507,2,0,L|237:104,3,47.9999985351563,4|0|0|0,0:0|0:0|0:0|0:0,0:0:0:0:
308,117,40831,5,8,0:0:0:0:
342,10,40993,1,8,0:0:0:0:
453,122,41155,1,8,0:0:0:0:
420,229,41317,1,8,0:0:0:0:
381,336,41480,2,0,L|281:332,1,95.9999970703126,8|12,0:0|0:0,0:0:0:0:
321,232,41804,2,0,L|257:228,1,47.9999985351563,12|0,0:0|0:0,0:0:0:0:
181,224,41966,2,0,L|117:220,1,47.9999985351563,8|0,0:0|0:0,0:0:0:0:
49,292,42128,6,0,B|73:224|73:224|53:132,1,143.999995605469,4|0,0:0|0:0,0:0:0:0:
53,132,42453,1,4,0:0:0:0:
125,52,42615,2,0,L|145:148,2,95.9999970703126,0|0|4,0:0|0:0|0:0,0:0:0:0:
17,36,43101,1,4,0:0:0:0:
221,120,43426,5,4,0:0:0:0:
190,215,43588,1,0,0:0:0:0:
285,248,43750,1,4,0:0:0:0:
316,153,43912,1,0,0:0:0:0:
221,120,44074,2,0,B|173:160|173:160|193:224,1,120.000004577637,0|4,0:0|0:0,0:0:0:0:
305,300,44399,2,0,L|269:184,1,120.000004577637,4|0,0:0|0:0,0:0:0:0:
197,336,44723,6,0,B|257:312|297:352|297:352|337:368|381:340,1,191.999994140625,4|4,0:0|0:0,0:0:0:0:
449,200,45210,1,0,0:0:0:0:
445,300,45372,1,0,0:0:0:0:
369,244,45534,1,4,0:0:0:0:
493,256,45696,2,0,L|397:248,1,95.9999970703126,4|0,0:0|0:0,0:0:0:0:
253,92,46020,5,4,0:0:0:0:
285,188,46182,1,0,0:0:0:0:
381,156,46344,1,4,0:0:0:0:
349,60,46506,1,0,0:0:0:0:
253,92,46669,2,0,B|237:152|237:152|289:192,1,120.000004577637,0|4,0:0|0:0,0:0:0:0:
225,264,46993,2,0,L|129:256,1,95.9999970703126,4|0,0:0|0:0,0:0:0:0:
69,160,47318,6,0,B|93:252|93:252|61:344,1,191.999994140625,4|4,0:0|0:0,0:0:0:0:
169,365,47804,1,0,0:0:0:0:
280,298,47966,1,0,0:0:0:0:
162,229,48128,1,0,0:0:0:0:
248,364,48291,1,0,0:0:0:0:
243,216,48453,1,0,0:0:0:0:
112,299,48615,6,0,L|73:256,3,47.9999985351563,4|0|0|0,0:0|0:0|0:0|0:0,0:0:0:0:
79,167,48939,2,0,L|122:128,3,47.9999985351563,4|0|0|4,0:0|0:0|0:0|0:0,0:0:0:0:
197,108,49264,2,0,L|361:96,1,143.999995605469,4|0,0:0|0:0,0:0:0:0:
265,24,49588,2,0,L|165:16,1,95.9999970703126,4|0,0:0|0:0,0:0:0:0:
81,104,49912,5,4,0:0:0:0:
97,224,50074,2,0,L|33:216,1,47.9999985351563
165,296,50237,2,0,L|229:288,3,47.9999985351563,4|0|0|0,0:0|0:0|0:0|0:0,0:0:0:0:
241,196,50561,2,0,L|233:132,3,47.9999985351563,0|0|4|0,0:0|0:0|0:0|0:0,0:0:0:0:
309,280,50885,2,0,L|317:344,3,47.9999985351563,4|0|0|0,0:0|0:0|0:0|0:0,0:0:0:0:
400,277,51210,5,8,0:0:0:0:
421,161,51372,1,8,0:0:0:0:
314,86,51534,1,8,0:0:0:0:
335,202,51696,1,8,0:0:0:0:
217,108,51858,2,0,L|121:100,1,95.9999970703126,4|0,0:0|0:0,0:0:0:0:
181,212,52182,2,0,L|133:208,1,47.9999985351563,4|0,0:0|0:0,0:0:0:0:
49,200,52345,2,0,L|1:196,1,47.9999985351563,4|0,0:0|0:0,0:0:0:0:
93,128,52507,6,0,B|69:196|69:196|85:266,1,143.999995605469,4|0,0:0|0:0,0:0:0:0:
89,288,52832,1,4,0:0:0:0:
197,352,52993,2,0,L|297:344,2,95.9999970703126,0|0|4,0:0|0:0|0:0,0:0:0:0:
229,248,53480,2,0,L|329:240,1,95.9999970703126,4|0,0:0|0:0,0:0:0:0:
429,304,53804,6,0,L|413:356,3,47.9999985351563,4|0|0|0,0:0|0:0|0:0|0:0,0:0:0:0:
417,176,54128,2,0,L|401:228,3,47.9999985351563,4|0|0|0,0:0|0:0|0:0|0:0,0:0:0:0:
481,84,54453,2,0,P|433:104|361:48,1,143.999995605469,4|0,0:0|0:0,0:0:0:0:
377,44,54777,2,0,L|281:56,1,95.9999970703126,4|0,0:0|0:0,0:0:0:0:
93,132,55101,6,0,B|185:112|185:112|281:144,1,191.999994140625,4|4,0:0|0:0,0:0:0:0:
165,208,55588,2,0,L|61:232,2,95.9999970703126,0|0|4,0:0|0:0|0:0,0:0:0:0:
153,316,56074,2,0,L|49:340,1,95.9999970703126,4|0,0:0|0:0,0:0:0:0:
297,280,56399,5,4,0:0:0:0:
265,204,56561,1,4,0:0:0:0:
273,356,56723,1,4,0:0:0:0:
289,128,56885,1,4,0:0:0:0:
273,356,57047,5,4,0:0:0:0:
285,316,57128,1,4,0:0:0:0:
297,280,57210,1,4,0:0:0:0:
281,240,57291,1,4,0:0:0:0:
265,204,57372,1,4,0:0:0:0:
289,36,57696,5,12,0:0:0:0:
356,312,68074,5,2,0:0:0:0:
444,336,68237,1,0,0:0:0:0:
468,248,68399,1,8,0:0:0:0:
380,224,68561,1,0,0:0:0:0:
240,140,68885,2,0,L|362:123,1,120,2|0,0:0|0:0,0:0:0:0:
384,119,69210,1,2,0:0:0:0:
204,329,69534,2,0,P|129:344|69:293,2,160,2|0|2,0:0|0:0|0:0,0:0:0:0:
131,232,70345,2,0,P|141:259|182:240,1,80
150,72,70669,5,2,0:0:0:0:
62,48,70832,1,0,0:0:0:0:
38,136,70994,1,2,0:0:0:0:
126,160,71156,1,0,0:0:0:0:
266,244,71480,2,0,L|159:262,1,80,2|0,0:0|0:0,0:0:0:0:
161,262,71723,1,0,0:0:0:0:
137,267,71805,1,2,0:0:0:0:
302,55,72129,2,0,P|377:40|437:91,2,160,2|0|2,0:0|0:0|0:0,0:0:0:0:
375,152,72940,2,0,P|365:125|324:144,1,80
310,263,73264,5,4,0:0:0:0:
199,84,73588,1,10,0:0:0:0:
87,221,74074,2,0,L|173:210,2,80,0|4|0,0:0|0:0|0:0,0:0:0:0:
205,272,74561,5,4,0:0:0:0:
307,84,74885,1,10,0:0:0:0:
419,221,75372,1,0,0:0:0:0:
419,221,75534,2,0,L|333:210,1,80,4|0,0:0|0:0,0:0:0:0:
189,126,75858,6,0,B|270:145|270:145|373:119,1,176.000005371094,4|0,0:0|0:0,0:0:0:0:
269,52,76345,1,0,0:0:0:0:
181,144,76507,6,0,B|269:164|269:164|367:133,1,191.999994140625,4|0,0:0|0:0,0:0:0:0:
271,31,76993,1,0,0:0:0:0:
175,160,77155,6,0,L|284:183,1,103.999995239258,4|0,0:0|0:0,0:0:0:0:
344,353,77480,1,0,0:0:0:0:
382,267,77642,6,0,L|228:299,1,155.999992858887,4|0,0:0|0:0,0:0:0:0:
209,300,77966,1,0,0:0:0:0:
92,234,78128,1,0,0:0:0:0:
100,368,78291,1,0,0:0:0:0:
184,203,78453,6,0,B|180:177|180:177|187:158|187:158|179:123|179:123|187:110|187:110|166:56|207:20|269:3|344:29|365:119|322:173|304:195|304:195|324:219|324:219|321:245|321:245|357:280|357:280|324:337|246:369|156:313,1,767.999976562501
45,180,80074,6,0,L|53:292,1,108.000000411987,4|0,0:0|0:0,0:0:0:0:
184,356,80399,2,0,B|236:336|236:336|292:344,1,108.000000411987
400,368,80723,2,0,P|376:320|384:268,1,108.000000411987,4|0,0:0|0:0,0:0:0:0:
468,308,81047,5,0,0:0:0:0:
486,164,81210,1,0,0:0:0:0:
428,227,81372,2,0,L|312:219,1,108.000000411987,4|0,0:0|0:0,0:0:0:0:
165,176,81696,2,0,P|221:184|289:112,1,162.000000617981
237,60,82020,2,0,L|125:52,1,108.000000411987,4|0,0:0|0:0,0:0:0:0:
45,124,82345,5,0,0:0:0:0:
149,160,82507,1,0,0:0:0:0:
97,264,82669,2,0,L|53:362,1,108.000000411987,4|0,0:0|0:0,0:0:0:0:
61,116,82993,5,0,0:0:0:0:
165,152,83155,1,0,0:0:0:0:
113,256,83317,2,0,L|69:354,1,108.000000411987,4|0,0:0|0:0,0:0:0:0:
273,360,83642,6,0,B|217:348|217:348|193:300,1,108.000000411987
391,298,83966,2,0,L|283:278,1,108.000000411987,4|0,0:0|0:0,0:0:0:0:
210,223,84291,2,0,B|248:190|248:190|305:200,1,108.000000411987
437,116,84615,2,0,B|405:140|405:140|285:112|285:112|337:84,1,216.000000823975,4|0,0:0|0:0,0:0:0:0:
125,100,85264,6,0,L|118:61,8,36.0000001373291
129,120,85750,1,0,0:0:0:0:
49,176,85912,2,0,P|89:216|105:272,1,108.000000411987,4|0,0:0|0:0,0:0:0:0:
192,360,86237,6,0,L|308:352,1,108.000000411987,4|0,0:0|0:0,0:0:0:0:
472,252,86561,2,0,L|356:260,1,108.000000411987,4|0,0:0|0:0,0:0:0:0:
196,248,86885,2,0,P|176:196|188:144,1,108.000000411987,4|0,0:0|0:0,0:0:0:0:
328,96,87210,2,0,P|348:148|336:200,1,108.000000411987,4|0,0:0|0:0,0:0:0:0:
219,340,87534,6,0,L|164:346,2,54.0000002059937,4|0|0,0:0|0:0|0:0,0:0:0:0:
69,260,87858,2,0,L|181:248,1,108.000000411987,4|0,0:0|0:0,0:0:0:0:
101,151,88182,6,0,L|156:157,2,54.0000002059937,4|0|0,0:0|0:0|0:0,0:0:0:0:
251,71,88506,2,0,L|139:59,1,108.000000411987,4|0,0:0|0:0,0:0:0:0:
277,32,88831,6,0,B|261:88|261:88|277:152,1,108.000000411987,4|0,0:0|0:0,0:0:0:0:
297,220,89155,1,4,0:0:0:0:
469,296,89318,6,0,B|428:255|428:255|365:237,1,108.000000411987
296,220,89642,1,4,0:0:0:0:
141,328,89804,6,0,B|197:314|197:314|244:268,1,108.000000411987,4|0,0:0|0:0,0:0:0:0:
185,156,90128,1,6,0:0:0:0:
425,36,90453,6,0,L|437:148,1,108.000000411987,4|0,0:0|0:0,0:0:0:0:
404,310,90777,1,0,0:0:0:0:
492,365,90939,1,4,0:0:0:0:
490,260,91101,2,0,P|459:225|401:217,1,108.000000411987,4|0,0:0|0:0,0:0:0:0:
284,176,91426,6,0,B|308:224|308:224|296:288,1,108.000000411987,4|0,0:0|0:0,0:0:0:0:
184,348,91750,2,0,L|208:240,1,108.000000411987,4|0,0:0|0:0,0:0:0:0:
153,116,92074,2,0,L|45:120,1,108.000000411987,0|4,0:0|0:0,0:0:0:0:
201,28,92399,2,0,L|93:32,1,108.000000411987,4|0,0:0|0:0,0:0:0:0:
249,112,92723,5,0,0:0:0:0:
297,24,92885,1,0,0:0:0:0:
389,72,93047,2,0,L|485:128,1,108.000000411987,4|0,0:0|0:0,0:0:0:0:
237,124,93372,5,0,0:0:0:0:
285,36,93534,1,0,0:0:0:0:
377,84,93696,2,0,L|473:140,1,108.000000411987,4|0,0:0|0:0,0:0:0:0:
381,268,94020,6,0,B|361:220|373:180|373:180|385:204,1,108.000000411987
421,340,94345,2,0,L|301:352,1,108.000000411987,4|0,0:0|0:0,0:0:0:0:
145,152,94669,2,0,L|265:164,1,108.000000411987,0|4,0:0|0:0,0:0:0:0:
273,304,94993,1,4,0:0:0:0:
149,256,95155,1,0,0:0:0:0:
329,191,95318,5,0,0:0:0:0:
113,68,95642,2,0,L|69:70,8,36.0000001373291
133,68,96128,1,0,0:0:0:0:
225,28,96291,2,0,L|337:44,1,108.000000411987,4|0,0:0|0:0,0:0:0:0:
460,128,96615,6,0,P|416:152|360:144,1,108.000000411987,4|0,0:0|0:0,0:0:0:0:
248,192,96939,2,0,B|260:140|260:140|248:84,1,108.000000411987,4|0,0:0|0:0,0:0:0:0:
136,180,97264,2,0,B|124:232|124:232|136:288,1,108.000000411987,4|0,0:0|0:0,0:0:0:0:
224,360,97588,2,0,L|336:356,1,108.000000411987,4|0,0:0|0:0,0:0:0:0:
486,242,97912,6,0,L|477:296,2,54.0000002059937,4|0|0,0:0|0:0|0:0,0:0:0:0:
405,192,98237,2,0,L|389:300,1,108.000000411987,4|0,0:0|0:0,0:0:0:0:
405,96,98561,6,0,L|396:42,2,54.0000002059937,4|0|0,0:0|0:0|0:0,0:0:0:0:
324,146,98886,2,0,L|308:38,1,108.000000411987,4|0,0:0|0:0,0:0:0:0:
166,209,99210,5,4,0:0:0:0:
201,125,99372,2,0,P|219:132|236:153,1,30.0000011444092,12|0,0:0|0:0,0:0:0:0:
208,282,99534,2,0,P|192:294|165:298,1,30.0000011444092,12|0,0:0|0:0,0:0:0:0:
79,231,99696,2,0,P|76:211|85:185,1,30.0000011444092,12|0,0:0|0:0,0:0:0:0:
280,203,99858,6,0,P|288:235|284:267,1,60.0000022888184,8|0,0:0|0:0,0:0:0:0:
237,347,100020,2,0,L|173:339,1,60.0000022888184,8|0,0:0|0:0,0:0:0:0:
323,338,100182,2,0,L|387:346,2,60.0000022888184,8|0|8,0:0|0:0|0:0,0:0:0:0:
469,28,100507,6,0,B|437:128|437:128|465:236,1,216.000000823975,4|4,0:0|0:0,0:0:0:0:
372,325,100993,1,0,0:0:0:0:
232,280,101155,1,0,0:0:0:0:
372,233,101318,1,0,0:0:0:0:
285,353,101480,1,0,0:0:0:0:
286,206,101642,1,0,0:0:0:0:
89,131,101804,6,0,L|144:98,3,54.0000002059937,4|0|0|0,0:0|0:0|0:0|0:0,0:0:0:0:
191,171,102128,2,0,L|261:168,3,54.0000002059937,4|0|0|4,0:0|0:0|0:0|0:0,0:0:0:0:
229,262,102453,2,0,B|253:303|254:342|237:374|237:374|231:352|217:328,1,162.000000617981
155,291,102777,2,0,L|47:298,1,108.000000411987,4|0,0:0|0:0,0:0:0:0:
25,167,103101,5,4,0:0:0:0:
90,67,103264,2,0,L|155:80,1,54.0000002059937
216,171,103426,2,0,L|151:184,3,54.0000002059937,4|0|0|0,0:0|0:0|0:0|0:0,0:0:0:0:
263,85,103750,2,4,L|250:20,2,54.0000002059937,0|0|0,0:0|0:0|0:0,0:0:0:0:
380,237,104074,2,0,L|393:302,1,54.0000002059937,4|0,0:0|0:0,0:0:0:0:
433,167,104237,2,0,L|498:154,1,54.0000002059937,0|0,0:0|0:0,0:0:0:0:
354,124,104399,6,0,L|344:79,1,27.0000001029968,8|0,0:0|0:0,0:0:0:0:
281,163,104561,2,0,L|250:130,1,27.0000001029968,8|0,0:0|0:0,0:0:0:0:
241,238,104723,2,0,L|198:225,1,27.0000001029968,8|0,0:0|0:0,0:0:0:0:
239,321,104885,2,0,L|194:331,1,27.0000001029968,8|0,0:0|0:0,0:0:0:0:
324,343,105047,2,0,L|445:348,1,108.000000411987
402,167,105372,2,0,L|338:169,1,54.0000002059937
262,172,105534,2,0,L|198:174,1,54.0000002059937
144,250,105696,6,0,B|226:257|226:257|266:291|266:291|346:299,1,216.000000823975,4|4,0:0|0:0,0:0:0:0:
489,352,106182,1,0,0:0:0:0:
437,276,106345,2,0,L|451:167,1,108.000000411987,0|4,0:0|0:0,0:0:0:0:
347,108,106669,2,0,B|331:160|331:160|343:215,1,108.000000411987,4|0,0:0|0:0,0:0:0:0:
480,32,106993,6,0,L|372:21,1,108.000000411987,4|0,0:0|0:0,0:0:0:0:
174,59,107318,2,0,L|282:48,1,108.000000411987,4|0,0:0|0:0,0:0:0:0:
246,182,107642,2,0,L|193:175,2,54.0000002059937,4|0|0,0:0|0:0|0:0,0:0:0:0:
114,118,107966,2,0,B|99:172|99:172|115:223,1,108.000000411987,4|0,0:0|0:0,0:0:0:0:
53,313,108291,5,4,0:0:0:0:
64,328,108615,5,4,0:0:0:0:
166,377,108777,2,0,B|196:321|164:275|164:275|135:231|170:168,1,216.000000823975,0|4,0:0|0:0,0:0:0:0:
225,35,109264,2,0,L|248:148,1,108.000000411987,4|0,0:0|0:0,0:0:0:0:
317,227,109588,5,4,0:0:0:0:
360,301,109750,1,0,0:0:0:0:
353,151,109912,1,4,0:0:0:0:
235,229,110074,1,0,0:0:0:0:
361,302,110237,2,0,B|394:316|428:310|454:291|454:291|406:276,1,120.000004577637,0|4,0:0|0:0,0:0:0:0:
235,229,110561,2,0,B|181:220|181:220|124:232,1,108.000000411987,4|0,0:0|0:0,0:0:0:0:
74,344,110885,6,0,B|182:326|182:326|289:349,1,216.000000823975,4|4,0:0|0:0,0:0:0:0:
382,278,111372,1,0,0:0:0:0:
406,139,111534,1,0,0:0:0:0:
272,190,111696,1,0,0:0:0:0:
434,215,111858,1,0,0:0:0:0:
324,126,112020,1,0,0:0:0:0:
301,266,112182,6,0,L|293:322,3,54.0000002059937,4|0|0|0,0:0|0:0|0:0|0:0,0:0:0:0:
206,202,112507,2,0,L|198:258,3,54.0000002059937,4|0|0|4,0:0|0:0|0:0|0:0,0:0:0:0:
126,131,112831,2,0,L|292:112,1,162.000000617981,4|0,0:0|0:0,0:0:0:0:
332,58,113155,2,0,B|317:111|317:111|330:166,1,108.000000411987,4|0,0:0|0:0,0:0:0:0:
349,296,113480,5,4,0:0:0:0:
452,257,113642,2,0,L|462:323,1,54.0000002059937
361,194,113804,2,0,L|371:128,3,54.0000002059937,4|0|0|0,0:0|0:0|0:0|0:0,0:0:0:0:
265,202,114128,2,4,L|199:192,2,54.0000002059937,0|0|0,0:0|0:0|0:0,0:0:0:0:
136,308,114453,2,0,L|202:318,1,54.0000002059937,4|0,0:0|0:0,0:0:0:0:
40,316,114615,2,0,L|30:382,1,54.0000002059937,0|0,0:0|0:0,0:0:0:0:
87,234,114777,6,0,L|95:195,1,27.0000001029968,8|0,0:0|0:0,0:0:0:0:
180,216,114939,2,0,L|168:179,1,27.0000001029968,8|0,0:0|0:0,0:0:0:0:
254,158,115101,2,0,L|225:132,1,27.0000001029968,8|0,0:0|0:0,0:0:0:0:
285,69,115263,2,0,L|247:61,1,27.0000001029968,8|0,0:0|0:0,0:0:0:0:
157,55,115426,2,0,L|147:164,1,108.000000411987
256,298,115750,2,0,L|250:234,1,54.0000002059937
243,163,115912,2,0,L|237:99,1,54.0000002059937
291,39,116074,6,0,B|364:29|364:29|398:57,1,108.000000411987,4|0,0:0|0:0,0:0:0:0:
408,140,116399,1,4,0:0:0:0:
475,38,116561,1,0,0:0:0:0:
496,126,116723,2,0,B|507:181|507:181|496:231,1,108.000000411987,0|4,0:0|0:0,0:0:0:0:
305,240,117047,2,0,L|413:249,1,108.000000411987
351,337,117372,2,0,L|275:343,3,54.0000002059937,4|0|0|0,0:0|0:0|0:0|0:0,0:0:0:0:
233,287,117696,2,0,L|157:293,3,54.0000002059937,4|0|0|4,0:0|0:0|0:0|0:0,0:0:0:0:
112,343,118020,6,0,B|88:296|88:296|112:241,1,108.000000411987,0|4,0:0|0:0,0:0:0:0:
159,119,118345,2,0,L|40:127,1,108.000000411987,4|0,0:0|0:0,0:0:0:0:
277,121,118669,6,0,B|366:106|366:106|401:122|401:122|487:109,1,216.000000823975,4|4,0:0|0:0,0:0:0:0:
460,24,119155,2,0,P|410:82|455:201,1,216.000000823975
380,306,119642,1,4,0:0:0:0:
106,226,119966,5,4,0:0:0:0:
129,151,120128,1,4,0:0:0:0:
129,296,120291,1,4,0:0:0:0:
106,81,120453,1,4,0:0:0:0:
129,296,120615,5,4,0:0:0:0:
117,265,120696,1,4,0:0:0:0:
106,226,120777,1,4,0:0:0:0:
114,194,120858,1,4,0:0:0:0:
129,151,120939,2,4,L|188:142,3,54.0000002059937,0|0|0|0,0:0|0:0|0:0|0:0,0:0:0:0:
158,72,121264,5,0,0:0:0:0:
256,192,121345,12,0,123858,0:0:0:0:
