osu file format v14

[General]
AudioFilename: Ginkiha - Oriens.mp3
AudioLeadIn: 2000
PreviewTime: 16507
Countdown: 0
SampleSet: Soft
StackLeniency: 0.7
Mode: 0
LetterboxInBreaks: 0
WidescreenStoryboard: 0

[Editor]
Bookmarks: 68074
DistanceSpacing: 0.9
BeatDivisor: 6
GridSize: 4
TimelineZoom: 5.699996

[Metadata]
Title:Oriens
TitleUnicode:Oriens
Artist:ginkiha
ArtistUnicode:ginkiha
Creator:Kloyd
Version:Expert
Source:BMS
Tags:cytus fighters 2012 bof2012 FREESTYLE ORIENTAL ELECTRO sionkotori IamKwaN EvilElvis EvilElvisV2
BeatmapID:437202
BeatmapSetID:182271

[Difficulty]
HPDrainRate:7
CircleSize:5
OverallDifficulty:8
ApproachRate:9
SliderMultiplier:1.6
SliderTickRate:1

[Events]
//Background and Video events
0,0,"BG.jpg",0,0
//Break Periods
2,57896,67474
//Storyboard Layer 0 (Background)
//Storyboard Layer 1 (Fail)
//Storyboard Layer 2 (Pass)
//Storyboard Layer 3 (Foreground)
//Storyboard Sound Samples

[TimingPoints]
754,428.571428571429,4,2,1,70,1,0
14469,-100,4,2,1,50,0,0
15754,-100,4,2,1,50,0,0
16183,324.324324324324,4,2,1,90,1,0
20561,-133.333333333333,4,2,1,90,0,0
21047,-100,4,2,1,90,0,0
21372,-200,4,2,1,90,0,0
21696,-100,4,2,1,90,0,0
21737,-100,4,2,1,35,0,0
22142,-100,4,2,1,90,0,0
24007,-100,4,2,1,35,0,0
24250,-100,4,2,1,90,0,0
24331,-100,4,2,1,35,0,0
24574,-100,4,2,1,90,0,0
30939,-133.333333333333,4,2,1,90,0,0
31750,-200,4,2,1,90,0,0
32074,-100,4,2,1,90,0,0
32115,-100,4,2,1,35,0,0
32520,-100,4,2,1,90,0,0
34385,-100,4,2,1,35,0,0
34628,-66.6666666666667,4,2,1,90,0,0
34710,-66.6666666666667,4,2,1,35,0,0
34953,-100,4,2,1,90,0,0
36615,-66.6666666666667,4,2,1,90,0,0
36939,-100,4,2,1,90,0,1
42128,-100,4,2,1,90,0,0
46669,-66.6666666666667,4,2,1,90,0,0
46993,-100,4,2,1,90,0,0
47318,-100,4,2,1,90,0,1
52507,-100,4,2,1,90,0,0
57372,-133.333333333333,4,2,1,90,0,0
57696,-100,4,2,1,90,0,0
68074,-133.333333333333,4,2,1,40,0,0
73264,-100,4,1,1,60,0,0
75534,-200,4,1,1,60,0,0
75858,-100,4,1,1,60,0,0
76507,-100,4,1,1,65,0,0
77155,-80,4,1,1,70,0,0
77480,-80,4,1,1,80,0,0
77642,-100,4,1,1,80,0,0
78453,-100,4,2,1,50,0,0
79750,-100,4,2,1,90,0,0
85304,-100,4,2,1,35,0,0
85710,-100,4,2,1,90,0,0
87574,-100,4,2,1,35,0,0
87818,-100,4,2,1,90,0,0
87899,-100,4,2,1,35,0,0
88142,-100,4,2,1,90,0,0
95682,-100,4,2,1,35,0,0
96088,-100,4,2,1,90,0,0
97953,-100,4,2,1,35,0,0
98196,-100,4,2,1,90,0,0
98277,-100,4,2,1,35,0,0
98520,-100,4,2,1,90,0,0
100182,-66.6666666666667,4,2,1,90,0,0
100507,-100,4,2,1,90,0,1
105696,-100,4,2,1,90,0,0
107966,-100,4,2,1,90,0,0
108291,-100,4,2,1,90,0,0
108615,-100,4,2,1,90,0,0
110237,-66.6666666666667,4,2,1,90,0,0
110561,-100,4,2,1,90,0,0
110885,-100,4,2,1,90,0,1
116074,-100,4,2,1,90,0,0
121345,-100,4,2,1,70,0,0
123858,-100,4,1,1,35,0,0

[Colours]
Combo1 : 0,0,244
Combo2 : 244,150,238
Combo3 : 244,0,244
Combo4 : 15,231,255

[HitObjects]
64,76,754,5,6,0:0:0:0:
90,57,862,1,0,0:0:0:0:
121,58,969,1,0,0:0:0:0:
148,73,1076,1,0,0:0:0:0:
157,103,1183,1,0,0:0:0:0:
157,103,1290,2,0,P|188:84|237:89,1,80,0|0,0:0|0:0,0:0:0:0:
284,120,1612,6,0,L|280:212,1,80,8|0,0:0|0:0,0:0:0:0:
219,283,2040,2,0,P|210:265|206:245,1,40,0|2,0:0|0:0,0:0:0:0:
395,360,2361,2,0,P|408:339|414:308,1,40,2|2,0:0|0:0,0:0:0:0:
442,250,2683,1,0,0:0:0:0:
442,250,2790,1,0,0:0:0:0:
442,250,2897,2,0,L|432:194,2,40,0|0|2,0:0|0:0|0:0,0:0:0:0:
395,360,3326,6,0,P|333:377|276:357,1,120,8|0,0:0|0:0,0:0:0:0:
221,338,3754,2,0,L|179:344,1,40,2|0,0:0|0:0,0:0:0:0:
57,372,4076,1,0,0:0:0:0:
57,372,4183,6,0,L|31:372,3,26.6666666666667,2|0|0|0,0:0|0:0|0:0|0:0,0:0:0:0:
129,308,4612,1,0,0:0:0:0:
142,279,4719,1,0,0:0:0:0:
135,247,4826,1,0,0:0:0:0:
116,220,4933,1,0,0:0:0:0:
87,206,5040,2,0,L|176:216,1,80,8|0,0:0|0:0,0:0:0:0:
282,158,5469,2,0,P|283:133|274:106,1,40,0|0,0:0|0:0,0:0:0:0:
163,62,5790,6,0,P|162:87|171:114,1,40,0|2,0:0|0:0,0:0:0:0:
88,208,6112,1,0,0:0:0:0:
88,208,6219,1,0,0:0:0:0:
88,208,6326,2,0,P|67:206|44:193,2,40,0|0|2,0:0|0:0|0:0,0:0:0:0:
64,19,6754,1,8,0:0:0:0:
64,19,6862,6,0,L|162:28,1,80,0|0,0:0|0:0,0:0:0:0:
207,26,7183,2,0,P|228:25|257:10,2,40,8|0|2,0:0|0:0|0:0,0:0:0:0:
176,83,7504,6,0,L|184:130,1,40,0|0,0:0|0:0,0:0:0:0:
236,181,7826,1,0,0:0:0:0:
313,201,8040,1,0,0:0:0:0:
313,201,8147,2,0,P|362:203|390:184,1,80,0|2,0:0|0:0,0:0:0:0:
428,92,8469,2,0,B|395:70|352:99,1,80,8|0,0:0|0:0,0:0:0:0:
309,212,8897,5,0,0:0:0:0:
309,212,9004,2,0,P|358:214|386:195,1,80,2|0,0:0|0:0,0:0:0:0:
426,106,9326,2,0,P|382:100|345:114,1,80,2|0,0:0|0:0,0:0:0:0:
339,125,9647,5,0,0:0:0:0:
324,131,9754,1,0,0:0:0:0:
307,132,9862,1,0,0:0:0:0:
291,130,9969,2,0,L|302:84,1,40,2|0,0:0|0:0,0:0:0:0:
328,33,10183,2,0,P|388:40|437:88,1,120,8|0,0:0|0:0,0:0:0:0:
455,138,10612,1,2,0:0:0:0:
454,153,10719,1,0,0:0:0:0:
508,268,10933,1,0,0:0:0:0:
508,268,11040,6,0,L|505:303,3,26.6666666666667,2|0|0|0,0:0|0:0|0:0|0:0,0:0:0:0:
429,249,11469,1,2,0:0:0:0:
397,243,11576,1,0,0:0:0:0:
366,251,11683,1,2,0:0:0:0:
346,276,11790,1,0,0:0:0:0:
344,307,11897,2,0,L|315:223,1,80,8|0,0:0|0:0,0:0:0:0:
247,293,12326,1,8,0:0:0:0:
246,293,12433,2,0,L|273:369,1,80,0|0,0:0|0:0,0:0:0:0:
180,344,12754,6,0,L|151:260,1,80,2|0,0:0|0:0,0:0:0:0:
175,207,13076,1,0,0:0:0:0:
175,207,13183,2,0,L|159:163,3,40,0|0|0|0,0:0|0:0|0:0|0:0,0:0:0:0:
186,107,13612,5,8,0:0:0:0:
101,202,13826,1,0,0:0:0:0:
237,245,14040,1,0,0:0:0:0:
237,245,14147,2,0,P|273:241|311:204,1,80,4|0,0:0|0:0,0:0:0:0:
327,144,14468,5,0,0:0:0:0:
416,158,14682,1,0,0:0:0:0:
479,223,14896,1,0,0:0:0:0:
497,308,15111,1,0,0:0:0:0:
434,378,15326,5,2,0:0:0:0:
393,328,15433,1,0,0:0:0:0:
332,307,15540,1,2,0:0:0:0:
269,322,15647,1,0,0:0:0:0:
212,352,15754,2,0,L|196:331,7,20,2|0|0|0|2|0|0|0,0:0|0:0|0:0|0:0|0:0|0:0|0:0|0:0,0:0:0:0:
232,376,16183,5,6,2:1:0:0:
227,357,16507,2,0,P|186:369|142:356,1,80,6|0,0:0|0:0,0:0:0:0:
84,315,16831,1,0,0:0:0:0:
77,384,16993,1,2,0:0:0:0:
150,291,17155,2,0,B|161:257|161:257|134:158,1,120,2|0,0:0|0:0,0:0:0:0:
151,165,17480,6,0,L|71:169,1,80,2|2,0:0|0:0,0:0:0:0:
4,216,17804,1,2,0:0:0:0:
52,96,17966,1,0,0:0:0:0:
52,96,18047,1,0,0:0:0:0:
52,96,18128,1,0,0:0:0:0:
202,72,18291,1,2,0:0:0:0:
279,202,18453,2,0,B|239:210|239:210|202:196|202:196|163:205,1,120,2|0,0:0|0:0,0:0:0:0:
153,217,18777,6,0,B|150:260|150:260|172:306,1,80,2|0,0:0|0:0,0:0:0:0:
324,148,19101,1,2,0:0:0:0:
439,315,19264,1,0,0:0:0:0:
439,315,19345,1,0,0:0:0:0:
439,315,19426,2,0,B|462:286|462:286|471:244,1,80,2|0,0:0|0:0,0:0:0:0:
445,71,19750,1,2,0:0:0:0:
397,187,19912,2,0,L|389:148,1,40,0|0,0:0|0:0,0:0:0:0:
304,51,20074,5,2,0:0:0:0:
175,133,20237,1,2,0:0:0:0:
159,129,20318,1,0,0:0:0:0:
143,125,20399,1,2,0:0:0:0:
220,323,20561,6,0,B|251:272|251:272|205:231,1,120.000004577637,2|0,0:0|0:0,0:0:0:0:
209,219,21047,6,0,L|169:223,1,40,2|0,0:0|0:0,0:0:0:0:
88,284,21210,2,0,L|46:289,1,40,0|0,0:0|0:0,0:0:0:0:
34,302,21372,6,0,L|45:365,1,60,6|0,0:1|0:0,0:0:0:0:
31,370,21696,6,0,P|19:370|2:364,8,26.6666666666667,2|0|0|0|0|0|0|0|0,0:0|0:0|0:0|0:0|0:0|0:0|0:0|0:0|0:0,0:0:0:0:
123,340,22182,1,2,0:0:0:0:
207,364,22345,2,0,B|247:367|247:367|284:354|284:354|335:361,1,120,2|0,0:0|0:0,0:0:0:0:
336,349,22669,6,0,L|415:361,1,80,2|2,0:0|0:0,0:0:0:0:
259,359,22993,2,0,P|258:320|282:289,1,80,2|0,0:0|0:0,0:0:0:0:
487,345,23318,2,0,P|454:366|415:362,1,80,0|2,0:0|0:0,0:0:0:0:
365,131,23642,2,0,P|400:150|415:185,1,80,2|0,0:0|0:0,0:0:0:0:
375,264,23966,6,0,L|372:286,6,20,2|0|0|0|0|0|0,0:0|0:0|0:0|0:0|0:0|0:0|0:0,0:0:0:0:
398,264,24291,2,0,B|435:277|435:277|477:273,1,80,10|0,0:0|0:0,0:0:0:0:
359,270,24615,2,0,B|322:257|322:257|280:261,1,80,8|2,0:0|0:0,0:0:0:0:
219,228,24939,2,0,B|204:168|204:168|235:107,1,120,2|0,0:0|0:0,0:0:0:0:
239,103,25264,6,0,L|318:112,1,80,6|0,0:0|0:0,0:0:0:0:
384,156,25588,1,2,0:0:0:0:
461,135,25750,1,6,0:0:0:0:
461,135,25831,1,0,0:0:0:0:
461,135,25912,1,0,0:0:0:0:
328,29,26074,1,2,0:0:0:0:
471,51,26236,1,10,0:0:0:0:
319,112,26399,1,2,0:0:0:0:
405,8,26561,5,6,0:1:0:0:
419,1,26885,2,0,P|431:42|418:86,1,80,2|0,0:0|0:0,0:0:0:0:
418,205,27209,1,0,0:0:0:0:
372,139,27371,1,2,0:0:0:0:
327,72,27533,2,0,B|292:60|292:60|193:87,1,120,2|0,0:0|0:0,0:0:0:0:
195,80,27858,2,0,B|188:119|188:119|207:157,1,80,2|2,0:0|0:0,0:0:0:0:
317,304,28182,2,0,B|324:265|324:265|305:227,1,80,2|0,0:0|0:0,0:0:0:0:
293,218,28426,1,0,0:0:0:0:
282,205,28507,2,0,L|370:213,1,80,0|2,0:0|0:0,0:0:0:0:
186,226,28831,2,0,B|145:223|145:223|110:242|110:242|71:238,1,120,2|0,0:0|0:0,0:0:0:0:
56,245,29155,6,0,B|44:203|44:203|62:162,1,80,2|0,0:0|0:0,0:0:0:0:
141,50,29480,1,2,0:0:0:0:
307,200,29642,1,0,0:0:0:0:
307,200,29723,1,0,0:0:0:0:
307,200,29804,2,0,B|296:157|296:157|260:131,1,80,2|0,0:0|0:0,0:0:0:0:
153,117,30128,1,2,0:0:0:0:
329,139,30290,2,0,L|322:178,1,40,0|0,0:0|0:0,0:0:0:0:
306,284,30452,5,2,0:0:0:0:
234,348,30615,1,2,0:0:0:0:
224,335,30696,1,0,0:0:0:0:
218,319,30777,2,0,L|233:266,1,40
305,117,30939,6,0,B|265:161|265:161|205:153,1,120.000004577637
208,166,31425,6,0,L|166:161,1,40,2|0,0:0|0:0,0:0:0:0:
88,100,31588,2,0,L|46:95,1,40,0|0,0:0|0:0,0:0:0:0:
34,82,31750,6,0,L|45:19,1,60,6|0,0:1|0:0,0:0:0:0:
31,14,32074,6,0,P|19:14|6:21,8,26.6666666666667,2|0|0|0|0|0|0|0|0,0:0|0:0|0:0|0:0|0:0|0:0|0:0|0:0|0:0,0:0:0:0:
123,44,32560,1,2,0:0:0:0:
207,20,32723,2,0,B|247:16|247:16|284:30|284:30|335:23,1,120,2|0,0:0|0:0,0:0:0:0:
339,24,33047,6,0,L|331:105,1,80,2|2,0:0|0:0,0:0:0:0:
392,274,33372,2,0,L|399:194,1,80,2|0,0:0|0:0,0:0:0:0:
239,176,33696,2,0,L|319:184,1,80,0|2,0:0|0:0,0:0:0:0:
495,122,34020,2,0,L|416:115,1,80,2|0,0:0|0:0,0:0:0:0:
331,104,34345,6,0,L|311:102,7,20,2|0|0|0|0|0|0|0,0:0|0:0|0:0|0:0|0:0|0:0|0:0|0:0,0:0:0:0:
291,85,34669,6,0,B|249:78|249:78|219:93|219:93|176:88,1,120.000004577637,10|0,0:0|0:0,0:0:0:0:
97,96,34993,5,8,0:0:0:0:
193,11,35155,1,2,0:0:0:0:
220,159,35318,2,0,P|165:183|109:163,1,120,2|0,0:0|0:0,0:0:0:0:
97,96,35642,6,0,L|105:57,1,40,2|0,0:0|0:0,0:0:0:0:
19,155,35804,2,0,L|11:116,1,40,2|0,0:0|0:0,0:0:0:0:
95,209,35966,2,0,L|103:170,1,40,2|0,0:0|0:0,0:0:0:0:
12,270,36128,2,0,L|4:231,1,40,4|0,0:0|0:0,0:0:0:0:
154,350,36291,1,0,0:0:0:0:
154,350,36372,1,4,0:0:0:0:
154,350,36453,2,0,L|105:343,1,40,0|0,0:0|0:0,0:0:0:0:
48,270,36615,6,0,L|179:286,1,120.000004577637,4|6,0:0|0:0,0:0:0:0:
256,272,36858,1,2,0:0:0:0:
240,252,36939,6,0,L|325:262,1,80,12|0,0:1|0:0,0:0:0:0:
494,292,37264,1,2,0:0:0:0:
487,296,37426,1,0,0:0:0:0:
480,300,37588,1,0,0:0:0:0:
426,240,37750,1,2,0:0:0:0:
412,161,37912,1,2,0:0:0:0:
433,84,38074,1,0,0:0:0:0:
493,31,38237,5,2,0:0:0:0:
508,58,38318,1,0,0:0:0:0:
510,89,38399,1,2,0:0:0:0:
505,120,38480,1,0,0:0:0:0:
484,144,38561,5,2,0:0:0:0:
471,154,38642,1,0,0:0:0:0:
458,163,38723,1,0,0:0:0:0:
445,172,38804,1,0,0:0:0:0:
431,180,38885,6,0,P|410:140|422:100,1,80,0|2,0:0|0:0,0:0:0:0:
412,20,39210,2,0,B|345:15|364:42|288:30,1,120,2|0,0:0|0:0,0:0:0:0:
182,14,39534,5,2,0:0:0:0:
150,17,39615,1,0,0:0:0:0:
118,20,39696,1,0,0:0:0:0:
86,24,39777,1,0,0:0:0:0:
54,30,39858,5,2,0:0:0:0:
64,42,39939,1,0,0:0:0:0:
75,52,40020,1,0,0:0:0:0:
86,62,40101,1,0,0:0:0:0:
97,73,40182,5,0,0:0:0:0:
82,80,40264,1,0,0:0:0:0:
68,88,40345,1,2,0:0:0:0:
54,96,40426,1,0,0:0:0:0:
26,113,40507,5,2,0:0:0:0:
57,111,40588,1,0,0:0:0:0:
92,118,40669,1,0,0:0:0:0:
118,142,40750,1,0,0:0:0:0:
137,172,40831,5,2,0:0:0:0:
41,214,40993,1,2,0:0:0:0:
33,211,41155,1,2,0:0:0:0:
25,208,41318,1,0,0:0:0:0:
94,297,41480,5,0,0:0:0:0:
176,246,41642,1,2,0:0:0:0:
206,358,41804,1,2,0:0:0:0:
199,355,41885,1,0,0:0:0:0:
192,352,41966,1,0,0:0:0:0:
185,349,42047,1,0,0:0:0:0:
177,346,42128,6,0,B|235:351|235:351|263:374|263:374|346:377,1,160,6|2,0:1|0:0,0:0:0:0:
478,337,42615,2,0,B|420:346|420:346|394:371|394:371|311:379,1,160,0|2,0:0|0:0,0:0:0:0:
261,263,43101,2,0,B|256:221|256:221|281:183,1,80,2|0,0:0|0:0,0:0:0:0:
356,180,43426,5,2,0:0:0:0:
328,307,43588,1,2,0:0:0:0:
191,236,43750,2,0,P|177:195|188:153,1,80,2|0,0:0|0:0,0:0:0:0:
253,62,44074,5,0,0:0:0:0:
281,189,44236,1,2,0:0:0:0:
418,118,44398,2,0,P|432:77|421:35,1,80,2|0,0:0|0:0,0:0:0:0:
130,11,44723,6,0,P|124:97|167:172,1,160,2|2,0:0|0:0,0:0:0:0:
81,324,45210,2,0,P|88:245|54:173,1,160,0|2,0:0|0:0,0:0:0:0:
11,31,45696,2,0,L|4:111,1,80,10|0,0:0|0:0,0:0:0:0:
0,191,46020,1,2,0:0:0:0:
90,146,46182,1,2,0:0:0:0:
173,213,46345,2,0,L|166:293,1,80,10|0,0:0|0:0,0:0:0:0:
0,191,46669,6,0,B|91:193|91:193|64:162,1,120.000004577637,2|2,0:3|0:0,0:0:0:0:
223,113,46993,6,0,P|166:98|112:122,1,120,0|0,0:0|0:0,0:0:0:0:
0,191,47318,5,10,0:1:0:0:
0,191,47642,5,2,0:0:0:0:
4,193,47804,1,0,0:0:0:0:
11,195,47966,1,0,0:0:0:0:
88,175,48128,1,2,0:0:0:0:
161,207,48291,1,2,0:0:0:0:
238,187,48453,1,0,0:0:0:0:
317,194,48615,5,2,0:0:0:0:
308,224,48696,1,0,0:0:0:0:
288,248,48777,1,2,0:0:0:0:
260,264,48858,1,0,0:0:0:0:
228,266,48939,5,2,0:0:0:0:
219,252,49020,1,0,0:0:0:0:
212,237,49101,1,0,0:0:0:0:
205,222,49182,1,0,0:0:0:0:
201,206,49264,6,0,L|219:121,1,80,0|2,0:0|0:0,0:0:0:0:
228,266,49588,2,0,B|233:362|233:362|249:340,1,120,2|0,0:0|0:0,0:0:0:0:
365,338,49912,5,2,0:0:0:0:
395,329,49993,1,0,0:0:0:0:
426,334,50074,1,0,0:0:0:0:
454,349,50155,1,0,0:0:0:0:
480,368,50237,5,2,0:0:0:0:
471,338,50318,1,0,0:0:0:0:
476,307,50399,1,0,0:0:0:0:
491,279,50480,1,0,0:0:0:0:
504,249,50561,5,0,0:0:0:0:
474,258,50642,1,0,0:0:0:0:
443,253,50723,1,2,0:0:0:0:
415,238,50804,1,0,0:0:0:0:
395,212,50885,5,2,0:0:0:0:
414,186,50966,1,0,0:0:0:0:
382,178,51047,1,0,0:0:0:0:
401,152,51128,1,0,0:0:0:0:
371,139,51210,5,2,0:0:0:0:
453,88,51372,1,2,0:0:0:0:
461,91,51534,1,2,0:0:0:0:
469,94,51697,1,0,0:0:0:0:
280,92,51859,5,0,0:0:0:0:
362,41,52021,1,2,0:0:0:0:
219,25,52183,1,2,0:0:0:0:
212,28,52264,1,0,0:0:0:0:
205,31,52345,1,0,0:0:0:0:
198,34,52426,1,0,0:0:0:0:
191,38,52507,6,0,L|275:30,2,80,6|0|2,0:1|0:0|0:0,0:0:0:0:
201,117,52993,2,0,B|162:127|135:88|135:88|97:120|58:109,1,160,0|2,0:0|0:0,0:0:0:0:
0,27,53480,2,0,L|79:43,1,80,2|0,0:0|0:0,0:0:0:0:
129,170,53804,1,2,0:0:0:0:
116,199,53885,1,0,0:0:0:0:
88,215,53966,1,2,0:0:0:0:
56,218,54047,1,0,0:0:0:0:
27,202,54128,5,2,0:0:0:0:
30,217,54210,1,0,0:0:0:0:
32,232,54291,1,0,0:0:0:0:
35,247,54372,1,0,0:0:0:0:
38,262,54453,1,0,0:0:0:0:
12,337,54615,1,2,0:0:0:0:
142,353,54777,2,0,L|127:268,1,80,2|0,0:0|0:0,0:0:0:0:
236,204,55101,6,0,L|221:364,1,160,2|2,0:0|0:0,0:0:0:0:
388,371,55588,2,0,B|428:297|428:297|397:220,1,160,0|2,0:0|0:0,0:0:0:0:
319,264,56074,2,0,B|312:326|312:326|330:302,1,80,10|0,0:0|0:0,0:0:0:0:
495,300,56399,5,2,0:0:0:0:
425,148,56561,1,2,0:0:0:0:
319,264,56723,1,6,0:0:0:0:
418,231,56885,2,0,L|461:231,1,40,0|0,0:0|0:0,0:0:0:0:
465,231,57047,1,0,0:0:0:0:
472,231,57128,1,0,0:0:0:0:
480,231,57210,1,2,0:0:0:0:
487,231,57291,1,0,0:0:0:0:
494,231,57372,2,0,P|523:190|523:142,1,90.0000034332277,6|0,0:0|0:0,0:0:0:0:
495,300,57696,5,4,0:1:0:0:
460,106,68074,5,10,0:1:0:0:
380,97,68237,1,0,0:0:0:0:
459,89,68399,1,4,0:0:0:0:
382,111,68561,2,0,P|322:134|253:131,1,120.000004577637,0|0,0:0|0:0,0:0:0:0:
209,90,69047,1,4,0:0:0:0:
214,72,69128,1,0,0:0:0:0:
220,54,69210,5,0,0:0:0:0:
256,168,69534,1,4,0:0:0:0:
262,151,69858,1,4,0:0:0:0:
267,133,70182,1,0,0:0:0:0:
115,66,70345,2,0,P|69:72|39:112,1,90.0000034332277,6|0,0:0|0:0,0:0:0:0:
63,175,70669,5,6,0:0:0:0:
137,204,70832,1,0,0:0:0:0:
59,191,70994,1,6,0:0:0:0:
139,190,71155,2,0,P|202:183|268:204,1,120.000004577637,4|4,0:0|0:0,0:0:0:0:
308,253,71642,2,0,L|302:289,1,30.0000011444092,4|0,0:0|0:0,0:0:0:0:
300,300,71804,1,4,0:0:0:0:
374,222,71966,5,0,0:0:0:0:
228,336,72128,1,4,0:0:0:0:
256,197,72291,1,2,0:0:0:0:
368,345,72453,2,0,P|420:371|480:370,1,120.000004577637,4|0,0:0|0:0,0:0:0:0:
480,370,72939,6,0,L|462:345,1,30.0000011444092,6|0,0:0|0:0,0:0:0:0:
491,285,73101,2,4,L|468:254,1,30.0000011444092,4|0,0:0|0:0,0:0:0:0:
500,198,73264,5,4,0:0:0:0:
432,129,73426,1,0,0:0:0:0:
337,147,73588,1,0,0:0:0:0:
315,240,73750,2,0,P|259:263|197:251,1,120,0|0,0:0|0:0,0:0:0:0:
189,242,74074,2,0,L|99:258,1,80,0|0,0:0|0:0,0:0:0:0:
95,248,74318,1,0,0:0:0:0:
80,240,74399,1,0,0:0:0:0:
14,174,74561,5,4,0:0:0:0:
38,80,74723,1,0,0:0:0:0:
130,48,74885,1,0,0:0:0:0:
219,82,75047,2,0,P|255:130|260:193,1,120,0|0,0:0|0:0,0:0:0:0:
252,201,75372,1,0,0:0:0:0:
237,206,75453,1,0,0:0:0:0:
221,211,75534,6,0,P|187:204|167:181,1,60,0|0,0:0|0:0,0:0:0:0:
123,234,75858,6,0,P|75:227|34:232,1,80,4|0,0:0|0:0,0:0:0:0:
181,279,76182,1,0,0:0:0:0:
1,321,76345,1,0,0:0:0:0:
141,370,76507,6,0,P|188:376|230:372,1,80,4|0,0:0|0:0,0:0:0:0:
283,253,76831,1,0,0:0:0:0:
278,263,76912,1,0,0:0:0:0:
272,272,76993,2,0,L|269:223,1,40,0|0,0:0|0:0,0:0:0:0:
389,162,77155,6,0,P|446:160|505:206,1,100,4|0,0:0|0:0,0:0:0:0:
482,179,77399,1,0,0:0:0:0:
482,179,77480,1,4,0:0:0:0:
462,363,77642,6,0,P|408:364|353:321,1,120,4|0,0:0|0:0,0:0:0:0:
292,331,77966,1,0,0:0:0:0:
288,345,78047,1,0,0:0:0:0:
281,353,78128,2,0,L|194:357,1,80,0|0,0:0|0:0,0:0:0:0:
139,324,78453,5,8,0:1:0:0:
64,353,78615,2,0,L|27:330,1,40,0|0,0:0|0:0,0:0:0:0:
32,298,78777,1,0,0:0:0:0:
39,266,78858,1,0,0:0:0:0:
55,238,78939,1,0,0:0:0:0:
83,223,79020,1,0,0:0:0:0:
114,225,79101,5,0,0:0:0:0:
110,209,79182,1,0,0:0:0:0:
106,193,79264,1,0,0:0:0:0:
102,177,79345,1,0,0:0:0:0:
99,161,79426,6,0,L|148:167,3,40,0|0|0|0,0:0|0:0|0:0|0:0,0:0:0:0:
216,132,79750,5,4,0:1:0:0:
225,119,80074,6,0,P|225:163|201:203,1,80,6|0,0:0|0:0,0:0:0:0:
83,165,80399,2,0,P|121:143|167:143,1,80,0|2,0:0|0:0,0:0:0:0:
196,262,80723,2,0,P|157:240|135:199,1,80,2|0,0:0|0:0,0:0:0:0:
163,85,80966,1,0,0:0:0:0:
173,71,81047,6,0,P|211:48|258:49,1,80,2|2,0:0|0:0,0:0:0:0:
340,156,81372,2,0,P|340:200|315:240,1,80,2|0,0:0|0:0,0:0:0:0:
313,242,81615,1,0,0:0:0:0:
299,250,81696,1,0,0:0:0:0:
427,282,81858,1,0,0:0:0:0:
508,307,82020,2,0,P|484:360|429:376,1,120,2|0,0:0|0:0,0:0:0:0:
486,246,82345,5,2,0:0:0:0:
362,347,82507,1,0,0:0:0:0:
427,210,82669,1,2,0:0:0:0:
333,285,82831,1,0,0:0:0:0:
427,210,82993,5,0,0:0:0:0:
362,347,83155,1,2,0:0:0:0:
486,246,83317,1,2,0:0:0:0:
333,285,83479,1,0,0:0:0:0:
491,312,83642,5,2,0:0:0:0:
295,341,83804,1,2,0:0:0:0:
295,341,83885,1,0,0:0:0:0:
295,341,83966,1,2,0:0:0:0:
343,147,84128,1,0,0:0:0:0:
327,142,84210,1,0,0:0:0:0:
311,138,84291,1,0,0:0:0:0:
251,251,84453,1,2,0:0:0:0:
120,253,84615,6,0,L|129:205,1,40,2|0,0:0|0:0,0:0:0:0:
63,150,84777,2,0,L|72:102,1,40,2|0,0:0|0:0,0:0:0:0:
88,24,84939,5,6,0:1:0:0:
88,24,85264,6,0,L|113:34,8,26.6666666666667,2|0|0|0|0|0|0|0|0,0:0|0:0|0:0|0:0|0:0|0:0|0:0|0:0|0:0,0:0:0:0:
161,86,85750,1,2,0:0:0:0:
238,105,85912,2,0,P|277:100|311:66,1,80,2|0,0:0|0:0,0:0:0:0:
377,36,86237,6,0,L|460:29,1,80,2|2,0:0|0:0,0:0:0:0:
509,145,86561,2,0,L|429:151,1,80,2|0,0:0|0:0,0:0:0:0:
333,147,86885,2,0,P|295:156|267:197,1,80,0|2,0:0|0:0,0:0:0:0:
157,277,87210,2,0,P|117:278|80:245,1,80,2|0,0:0|0:0,0:0:0:0:
62,113,87534,6,0,L|66:92,6,20,2|0|0|0|0|0|0,0:0|0:0|0:0|0:0|0:0|0:0|0:0,0:0:0:0:
1,152,87858,2,0,P|-12:188|-2:226,1,80,10|0,0:0|0:0,0:0:0:0:
34,374,88182,2,0,P|47:336|36:299,1,80,8|2,0:0|0:0,0:0:0:0:
81,233,88507,2,0,B|126:235|126:235|148:255|148:255|201:257,1,120,10|0,0:0|0:0,0:0:0:0:
262,216,88831,5,6,0:0:0:0:
294,306,88993,1,0,0:0:0:0:
362,197,89155,1,2,0:0:0:0:
444,295,89318,1,6,0:0:0:0:
459,293,89399,1,0,0:0:0:0:
474,291,89480,1,0,0:0:0:0:
489,289,89561,1,0,0:0:0:0:
504,287,89642,1,2,0:0:0:0:
377,356,89804,1,14,0:0:0:0:
369,277,89966,1,2,0:0:0:0:
299,381,90128,5,6,0:1:0:0:
314,375,90453,2,0,P|332:342|329:296,1,80,2|0,0:0|0:0,0:0:0:0:
351,223,90777,2,0,P|313:223|275:249,1,80,0|2,0:0|0:0,0:0:0:0:
199,260,91101,2,0,P|218:292|259:312,1,80,2|0,0:0|0:0,0:0:0:0:
398,280,91345,1,0,0:0:0:0:
411,273,91426,6,0,P|429:239|426:193,1,80,2|2,0:0|0:0,0:0:0:0:
309,90,91750,2,0,P|271:90|233:116,1,80,2|0,0:0|0:0,0:0:0:0:
232,128,91993,1,0,0:0:0:0:
234,143,92074,1,0,0:0:0:0:
27,38,92237,1,0,0:0:0:0:
29,133,92399,2,0,P|39:80|97:46,1,120,2|0,0:0|0:0,0:0:0:0:
168,68,92723,5,2,0:0:0:0:
178,198,92885,1,0,0:0:0:0:
225,186,93047,1,2,0:0:0:0:
190,152,93210,1,0,0:0:0:0:
116,261,93372,5,0,0:0:0:0:
222,154,93534,1,2,0:0:0:0:
207,213,93696,1,2,0:0:0:0:
165,170,93858,1,0,0:0:0:0:
310,210,94020,5,2,0:0:0:0:
116,261,94182,1,2,0:0:0:0:
116,261,94264,1,0,0:0:0:0:
116,261,94345,1,2,0:0:0:0:
227,351,94507,1,0,0:0:0:0:
242,347,94588,1,0,0:0:0:0:
257,343,94669,1,0,0:0:0:0:
310,210,94831,5,2,0:0:0:0:
479,136,94993,2,0,L|465:181,1,40,2|0,0:0|0:0,0:0:0:0:
411,253,95155,2,0,L|397:298,1,40,2|0,0:0|0:0,0:0:0:0:
339,376,95318,5,6,0:1:0:0:
339,376,95642,6,0,L|333:347,8,26.6666666666667,2|0|0|0|0|0|0|0|0,0:0|0:0|0:0|0:0|0:0|0:0|0:0|0:0|0:0,0:0:0:0:
355,292,96128,1,2,0:0:0:0:
288,246,96291,2,0,P|246:246|212:278,1,80,2|0,0:0|0:0,0:0:0:0:
143,299,96615,2,0,P|104:293|76:264,1,80,2|2,0:0|0:0,0:0:0:0:
92,137,96939,2,0,P|128:122|166:133,1,80,2|0,0:0|0:0,0:0:0:0:
135,208,97264,2,0,L|46:201,1,80,0|2,0:0|0:0,0:0:0:0:
19,78,97588,2,0,P|51:48|95:44,1,80,2|0,0:0|0:0,0:0:0:0:
204,149,97912,6,0,L|201:182,6,20,2|0|0|0|0|0|0,0:0|0:0|0:0|0:0|0:0|0:0|0:0,0:0:0:0:
241,220,98237,2,0,P|282:227|323:200,1,80,10|0,0:0|0:0,0:0:0:0:
455,152,98561,2,0,P|414:145|373:172,1,80,8|2,0:0|0:0,0:0:0:0:
307,132,98885,2,0,B|312:40|312:40|328:68,1,120,10|0,0:0|0:0,0:0:0:0:
404,84,99210,6,0,L|392:32,1,40,2|0,0:0|0:0,0:0:0:0:
488,144,99372,2,0,L|500:92,1,40,2|0,0:0|0:0,0:0:0:0:
408,208,99534,2,0,L|396:156,1,40,2|0,0:0|0:0,0:0:0:0:
492,268,99696,2,0,L|504:216,1,40,6|0,0:0|0:0,0:0:0:0:
460,350,99858,1,0,0:0:0:0:
460,349,99939,2,0,P|430:374|391:371,1,80,4|0,0:0|0:0,0:0:0:0:
346,259,100182,6,0,L|466:271,1,120.000004577637,12|6,0:0|0:0,0:0:0:0:
478,338,100426,1,2,0:0:0:0:
475,356,100507,6,0,P|445:381|406:378,1,80,6|0,0:1|0:0,0:0:0:0:
256,338,100831,1,2,0:0:0:0:
248,335,100993,1,0,0:0:0:0:
240,332,101155,1,0,0:0:0:0:
161,350,101318,1,2,0:0:0:0:
102,295,101480,1,2,0:0:0:0:
29,328,101642,1,0,0:0:0:0:
62,204,101804,5,2,0:0:0:0:
90,190,101885,1,0,0:0:0:0:
121,192,101966,1,2,0:0:0:0:
149,206,102047,1,0,0:0:0:0:
168,231,102128,1,2,0:0:0:0:
198,243,102210,1,0,0:0:0:0:
229,243,102291,1,0,0:0:0:0:
255,224,102372,1,0,0:0:0:0:
260,192,102453,6,0,L|243:108,1,80,0|2,0:0|0:0,0:0:0:0:
41,238,102777,2,0,P|21:301|46:350,1,120,2|0,0:0|0:0,0:0:0:0:
120,367,103101,5,2,0:0:0:0:
151,366,103182,1,0,0:0:0:0:
183,365,103264,1,0,0:0:0:0:
214,364,103345,1,0,0:0:0:0:
196,337,103426,5,2,0:0:0:0:
196,305,103507,1,0,0:0:0:0:
213,277,103588,1,0,0:0:0:0:
242,265,103669,1,0,0:0:0:0:
273,265,103750,5,0,0:0:0:0:
300,281,103831,1,0,0:0:0:0:
315,308,103912,1,2,0:0:0:0:
314,339,103993,1,0,0:0:0:0:
344,329,104074,5,2,0:0:0:0:
374,320,104155,1,0,0:0:0:0:
405,311,104237,1,0,0:0:0:0:
436,304,104318,1,0,0:0:0:0:
416,278,104399,5,2,0:0:0:0:
498,180,104561,1,2,0:0:0:0:
497,172,104723,1,2,0:0:0:0:
496,164,104885,1,0,0:0:0:0:
416,278,105047,5,0,0:0:0:0:
350,207,105210,1,2,0:0:0:0:
409,131,105372,1,2,0:0:0:0:
408,127,105453,1,0,0:0:0:0:
407,123,105534,1,0,0:0:0:0:
406,119,105615,1,0,0:0:0:0:
405,115,105696,6,0,B|356:88|296:108|296:108|344:120,1,160,6|2,0:1|0:0,0:0:0:0:
216,275,106182,2,0,B|189:226|209:166|209:166|221:214,1,160,0|2,0:0|0:0,0:0:0:0:
154,322,106669,2,0,P|117:325|77:297,1,80,2|0,0:0|0:0,0:0:0:0:
14,234,106993,5,2,0:0:0:0:
0,139,107155,1,2,0:0:0:0:
70,72,107318,2,0,B|88:65|88:65|156:82,1,80,2|0,0:0|0:0,0:0:0:0:
0,139,107642,5,0,0:0:0:0:
69,72,107804,1,2,0:0:0:0:
171,22,107967,2,0,B|189:16|189:16|255:39,1,80,10|0,0:0|0:0,0:0:0:0:
387,18,108291,6,0,B|328:64|328:64|247:36,1,160,2|10,0:0|0:0,0:0:0:0:
97,160,108777,2,0,B|156:114|156:114|236:142,1,160,0|2,0:0|0:0,0:0:0:0:
288,203,109264,1,10,0:0:0:0:
273,281,109426,1,0,0:0:0:0:
262,360,109588,1,2,0:0:0:0:
262,360,109750,1,2,0:0:0:0:
186,335,109912,2,0,P|145:329|105:293,1,80,10|0,0:0|0:0,0:0:0:0:
262,360,110237,6,0,B|392:344|392:344|338:380,1,180.000006866455,0|0,0:0|0:0,0:0:0:0:
186,335,110561,6,0,P|192:294|228:254,1,80,10|0,0:0|0:0,0:0:0:0:
320,191,110885,5,14,0:1:0:0:
320,191,111210,1,2,0:0:0:0:
323,183,111372,1,0,0:0:0:0:
326,175,111534,1,0,0:0:0:0:
327,95,111696,1,2,0:0:0:0:
277,32,111858,1,2,0:0:0:0:
197,29,112020,1,0,0:0:0:0:
146,90,112182,5,2,0:0:0:0:
119,109,112264,1,0,0:0:0:0:
89,121,112345,1,2,0:0:0:0:
57,116,112426,1,0,0:0:0:0:
30,98,112507,5,2,0:0:0:0:
28,113,112588,1,0,0:0:0:0:
26,128,112669,1,0,0:0:0:0:
23,143,112750,1,0,0:0:0:0:
21,158,112831,6,0,P|49:184|107:185,1,80,0|2,0:0|0:0,0:0:0:0:
179,247,113155,2,0,B|222:243|222:243|252:259|252:259|299:256,1,120,2|0,0:0|0:0,0:0:0:0:
366,293,113480,1,2,0:0:0:0:
393,276,113561,1,0,0:0:0:0:
424,271,113642,1,0,0:0:0:0:
453,284,113723,1,0,0:0:0:0:
477,304,113804,5,2,0:0:0:0:
466,273,113885,1,0,0:0:0:0:
464,241,113966,1,0,0:0:0:0:
472,210,114047,1,0,0:0:0:0:
498,192,114128,5,0,0:0:0:0:
493,160,114210,1,0,0:0:0:0:
488,128,114291,1,2,0:0:0:0:
483,96,114372,1,0,0:0:0:0:
479,64,114453,5,2,0:0:0:0:
460,89,114534,1,0,0:0:0:0:
434,108,114615,1,0,0:0:0:0:
402,108,114696,1,0,0:0:0:0:
374,92,114777,5,2,0:0:0:0:
296,35,114939,1,2,0:0:0:0:
297,25,115101,1,2,0:0:0:0:
298,18,115264,1,0,0:0:0:0:
315,144,115426,1,0,0:0:0:0:
364,26,115588,1,2,0:0:0:0:
261,102,115750,1,2,0:0:0:0:
257,101,115831,1,0,0:0:0:0:
253,100,115912,1,0,0:0:0:0:
249,99,115993,1,0,0:0:0:0:
245,98,116074,6,0,P|236:171|297:237,1,160,6|2,0:1|0:0,0:0:0:0:
384,276,116561,2,0,P|311:267|245:328,1,160,0|2,0:0|0:0,0:0:0:0:
337,354,117047,1,2,0:0:0:0:
462,324,117210,1,0,0:0:0:0:
374,230,117372,1,2,0:0:0:0:
346,214,117453,1,0,0:0:0:0:
316,202,117534,1,2,0:0:0:0:
284,204,117615,1,0,0:0:0:0:
257,222,117696,5,2,0:0:0:0:
241,221,117777,1,0,0:0:0:0:
225,220,117858,1,0,0:0:0:0:
209,220,117939,1,0,0:0:0:0:
193,219,118020,2,0,L|181:301,1,80,0|2,0:0|0:0,0:0:0:0:
104,243,118345,2,0,L|116:161,1,80,10|0,0:0|0:0,0:0:0:0:
52,114,118669,5,2,0:0:0:0:
0,230,118831,2,0,L|9:276,2,40,0|0|10,0:0|0:0|0:0,0:0:0:0:
115,163,119155,2,0,P|132:86|80:33,1,160,0|2,0:0|0:0,0:0:0:0:
103,229,119642,2,0,P|146:222|178:186,1,80,10|0,0:0|0:0,0:0:0:0:
250,97,119966,6,0,L|240:55,1,40,2|0,0:0|0:0,0:0:0:0:
335,118,120128,2,0,L|325:76,1,40,10|0,0:0|0:0,0:0:0:0:
480,189,120291,2,0,L|490:147,1,40,2|0,0:0|0:0,0:0:0:0:
395,210,120453,2,0,L|405:168,1,40,12|0,0:0|0:0,0:0:0:0:
254,287,120615,6,0,L|244:245,1,40,0|4,0:0|0:0,0:0:0:0:
184,195,120777,1,0,0:0:0:0:
184,195,120858,1,0,0:0:0:0:
184,195,120939,6,0,L|142:205,1,40,12|0,0:0|0:0,0:0:0:0:
107,294,121101,2,0,L|65:304,1,40,10|0,0:0|0:0,0:0:0:0:
21,384,121264,5,14,0:1:0:0:
256,192,121345,12,4,123858,0:0:0:0:
