osu file format v14

[General]
AudioFilename: Ginkiha - Oriens.mp3
AudioLeadIn: 2000
PreviewTime: 16507
Countdown: 0
SampleSet: Soft
StackLeniency: 0.7
Mode: 0
LetterboxInBreaks: 0
WidescreenStoryboard: 0

[Editor]
Bookmarks: 68074
DistanceSpacing: 0.5
BeatDivisor: 4
GridSize: 4
TimelineZoom: 4.199998

[Metadata]
Title:Oriens
TitleUnicode:Oriens
Artist:ginkiha
ArtistUnicode:ginkiha
Creator:Kloyd
Version:Elvis' Extreme
Source:BMS
Tags:cytus fighters 2012 bof2012 FREESTYLE ORIENTAL ELECTRO sionkotori IamKwaN EvilElvis EvilElvisV2
BeatmapID:438922
BeatmapSetID:182271

[Difficulty]
HPDrainRate:7.5
CircleSize:4
OverallDifficulty:8.5
ApproachRate:9
SliderMultiplier:1.6
SliderTickRate:1

[Events]
//Background and Video events
0,0,"BG.jpg",0,0
//Break Periods
//Storyboard Layer 0 (Background)
//Storyboard Layer 1 (Fail)
//Storyboard Layer 2 (Pass)
//Storyboard Layer 3 (Foreground)
//Storyboard Sound Samples

[TimingPoints]
754.960185239278,428.571428571429,4,2,1,70,1,0
1183,-133.333333333333,4,2,1,40,0,0
4183,-133.333333333333,4,1,1,40,0,0
4397,-133.333333333333,4,2,1,40,0,0
11040,-133.333333333333,4,1,1,40,0,0
11254,-133.333333333333,4,2,1,40,0,0
12326,-66.6666666666667,4,2,1,70,0,0
12754,-133.333333333333,4,2,1,40,0,0
14040,-100,4,2,1,40,0,0
14254,-100,4,2,1,50,0,0
15326,-100,4,1,1,60,0,0
16183,324.324324324324,4,2,1,90,1,0
16183,-200,4,2,1,40,0,0
16507,-76.9230769230769,4,2,1,70,0,0
16831,-100,4,2,1,70,0,0
21372,-200,4,2,1,70,0,0
21696,-76.9230769230769,4,2,1,70,0,0
22182,-100,4,2,1,70,0,0
22669,-200,4,2,1,70,0,0
22993,-133.333333333333,4,2,1,70,0,0
23318,-100,4,2,1,70,0,0
23642,-76.9230769230769,4,2,1,70,0,0
23966,-66.6666666666667,4,2,1,70,0,0
24291,-100,4,2,1,70,0,0
26237,-133.333333333333,4,2,1,70,0,0
26561,-76.9230769230769,4,2,1,70,0,0
26885,-100,4,2,1,70,0,0
31750,-200,4,2,1,70,0,0
32074,-76.9230769230769,4,2,1,70,0,0
32399,-100,4,2,1,70,0,0
33047,-200,4,2,1,70,0,0
33372,-133.333333333333,4,2,1,70,0,0
33696,-100,4,2,1,70,0,0
34020,-76.9230769230769,4,2,1,70,0,0
34345,-66.6666666666667,4,2,1,70,0,0
34831,-100,4,2,1,70,0,0
36939,-100,4,2,1,70,0,1
42128,-100,4,2,1,70,0,0
46993,-200,4,2,1,70,0,0
47318,-76.9230769230769,4,2,1,70,0,1
47804,-100,4,2,1,70,0,1
52507,-100,4,2,1,70,0,1
57372,-200,4,2,1,70,0,0
58020,-133.333333333333,4,2,1,70,0,0
68074,-100,4,2,1,70,0,0
79750,-200,4,2,1,70,0,0
80074,-76.9230769230769,4,2,1,70,0,0
80561,-100,4,2,1,70,0,0
84939,-200,4,2,1,70,0,0
85264,-76.9230769230769,4,2,1,70,0,0
85750,-100,4,2,1,70,0,0
86237,-200,4,2,1,70,0,0
86561,-133.333333333333,4,2,1,70,0,0
86885,-100,4,2,1,70,0,0
87210,-76.9230769230769,4,2,1,70,0,0
87534,-66.6666666666667,4,2,1,70,0,0
87858,-100,4,2,1,70,0,0
88831,-76.9230769230769,4,2,1,70,0,0
89318,-100,4,2,1,70,0,0
89804,-200,4,2,1,70,0,0
90128,-76.9230769230769,4,2,1,70,0,0
90453,-100,4,2,1,70,0,0
91426,-76.9230769230769,4,2,1,70,0,0
91750,-100,4,2,1,70,0,0
95318,-200,4,2,1,70,0,0
95642,-76.9230769230769,4,2,1,70,0,0
95966,-100,4,2,1,70,0,0
96615,-200,4,2,1,70,0,0
96939,-133.333333333333,4,2,1,70,0,0
97264,-100,4,2,1,70,0,0
97588,-76.9230769230769,4,2,1,70,0,0
97912,-66.6666666666667,4,2,1,70,0,0
98399,-100,4,2,1,70,0,0
100507,-100,4,2,1,70,0,1
107966,-200,4,2,1,70,0,1
108291,-76.9230769230769,4,2,1,70,0,1
108777,-100,4,2,1,70,0,1
110885,-76.9230769230769,4,2,1,70,0,1
111372,-100,4,2,1,70,0,1
113155,-200,4,2,1,70,0,1
113480,-76.9230769230769,4,2,1,70,0,1
113804,-100,4,2,1,70,0,1
115750,-200,4,2,1,70,0,1
116074,-76.9230769230769,4,2,1,70,0,1
116399,-100,4,2,1,70,0,1
118669,-76.9230769230769,4,2,1,70,0,1
118993,-100,4,2,1,70,0,1
121264,-100,4,2,1,70,0,0

[Colours]
Combo1 : 0,0,244
Combo2 : 244,150,238
Combo3 : 244,0,244
Combo4 : 15,231,255

[HitObjects]
28,305,754,5,6,0:0:0:0:
28,305,1504,1,0,0:0:0:0:
37,314,1612,2,0,L|159:302,1,120.000004577637,8|0,0:0|0:0,0:0:0:0:
161,304,2147,1,2,0:0:0:0:
165,306,2254,1,0,0:0:0:0:
169,308,2362,1,2,0:0:0:0:
173,310,2469,5,2,0:0:0:0:
266,290,2683,1,0,0:0:0:0:
359,279,2897,1,0,0:0:0:0:
371,283,3004,1,0,0:0:0:0:
383,286,3112,1,2,0:0:0:0:
465,269,3326,2,0,P|479:230|454:161,1,90.0000034332277,8|0,0:0|0:0,0:0:0:0:
451,164,3754,1,2,0:0:0:0:
70,185,4183,6,0,L|94:177,2,20.0000007629395,2|0|0,0:0|0:0|0:0,0:0:0:0:
70,185,4397,2,0,L|196:204,1,120.000004577637,0|0,0:0|0:0,0:0:0:0:
268,342,5040,2,0,L|141:356,1,120.000004577637,8|0,0:0|0:0,0:0:0:0:
145,352,5575,1,0,0:0:0:0:
141,350,5682,1,0,0:0:0:0:
137,348,5790,1,0,0:0:0:0:
133,346,5897,1,2,0:0:0:0:
70,293,6112,1,0,0:0:0:0:
64,285,6540,5,2,0:0:0:0:
40,198,6754,2,0,L|30:160,1,30.0000011444092,8|0,0:0|0:0,0:0:0:0:
102,58,7076,1,0,0:0:0:0:
106,78,7183,1,8,0:0:0:0:
110,98,7290,1,0,0:0:0:0:
114,118,7397,1,2,0:0:0:0:
118,138,7504,1,0,0:0:0:0:
123,155,7612,6,0,L|249:168,1,120.000004577637,0|0,0:0|0:0,0:0:0:0:
397,80,8362,1,2,0:0:0:0:
389,91,8469,2,0,L|263:78,1,120.000004577637,8|0,0:0|0:0,0:0:0:0:
266,76,9004,1,2,0:0:0:0:
263,74,9112,1,0,0:0:0:0:
260,72,9219,1,0,0:0:0:0:
257,70,9326,5,2,0:0:0:0:
154,59,9540,1,0,0:0:0:0:
161,68,9647,1,0,0:0:0:0:
44,50,9862,1,0,0:0:0:0:
51,59,9969,1,2,0:0:0:0:
57,68,10076,1,0,0:0:0:0:
63,77,10183,2,0,L|50:184,1,90.0000034332277,8|0,0:0|0:0,0:0:0:0:
38,175,10612,1,2,0:0:0:0:
1,339,11040,6,0,L|18:348,3,15.0000005722046,2|0|0|0,0:0|0:0|0:0|0:0,0:0:0:0:
11,358,11254,2,0,L|148:346,1,120.000004577637,2|2,0:0|0:0,0:0:0:0:
287,263,11897,2,0,L|191:274,1,90.0000034332277,8|0,0:0|0:0,0:0:0:0:
207,262,12326,6,0,L|138:271,1,60.0000022888184,8|0,0:0|0:0,0:0:0:0:
376,227,12754,6,0,L|482:215,2,90.0000034332277,2|0|0,0:0|0:0|0:0,0:0:0:0:
257,252,13612,1,8,0:0:0:0:
257,252,13826,1,0,0:0:0:0:
140,273,14040,1,0,0:0:0:0:
140,273,14147,1,4,0:0:0:0:
140,273,14254,1,0,0:0:0:0:
140,273,14362,1,0,0:0:0:0:
140,273,14469,1,6,2:1:0:0:
309,369,14683,5,0,0:0:0:0:
209,350,14897,1,2,0:0:0:0:
512,276,15112,1,0,0:0:0:0:
456,332,15326,2,0,L|404:324,1,40,2|0,0:0|0:0,0:0:0:0:
404,297,15540,2,0,L|454:304,1,40,2|0,0:0|0:0,0:0:0:0:
395,250,15754,6,0,L|373:259,1,20
373,221,15862,2,0,L|364:247,1,20
339,229,15969,2,0,L|350:254,1,20
322,261,16076,2,0,L|349:261,1,20
324,304,16183,6,0,L|255:293,1,60,6|0,2:1|0:0,0:0:0:0:
265,294,16507,6,0,B|97:310,1,155.999992858887,6|0,0:0|0:0,0:0:0:0:
26,281,16831,2,0,P|44:248|88:230,1,80,0|2,0:0|0:0,0:0:0:0:
428,347,17155,1,2,0:0:0:0:
401,352,17236,1,0,0:0:0:0:
375,357,17317,1,0,0:0:0:0:
349,362,17398,1,0,0:0:0:0:
329,367,17480,6,0,L|492:378,1,160,2|2,0:0|0:0,0:0:0:0:
245,321,17966,1,0,0:0:0:0:
148,351,18128,2,0,P|150:309|129:272,1,80,0|2,0:0|0:0,0:0:0:0:
0,309,18453,2,0,P|-2:351|19:388,1,80,2|0,0:0|0:0,0:0:0:0:
74,326,18777,5,2,0:0:0:0:
163,209,18939,1,0,0:0:0:0:
100,77,19101,1,2,0:0:0:0:
0,195,19263,1,0,0:0:0:0:
67,235,19426,1,2,0:0:0:0:
76,208,19507,1,0,0:0:0:0:
76,179,19588,1,0,0:0:0:0:
64,152,19669,1,0,0:0:0:0:
43,132,19750,1,2,0:0:0:0:
0,195,19912,1,0,0:0:0:0:
143,235,20074,5,2,0:0:0:0:
140,246,20155,1,0,0:0:0:0:
137,257,20237,1,2,0:0:0:0:
134,271,20318,1,0,0:0:0:0:
140,289,20399,5,2,0:0:0:0:
145,308,20480,1,0,0:0:0:0:
151,326,20561,1,2,0:0:0:0:
156,345,20642,1,0,0:0:0:0:
163,363,20723,2,0,L|267:375,1,80,0|0,0:0|0:0,0:0:0:0:
428,360,21047,2,0,L|324:348,1,80,2|0,0:0|0:0,0:0:0:0:
28,230,21372,6,0,P|38:261|41:298,1,60,6|0,0:1|0:0,0:0:0:0:
28,230,21696,6,0,L|239:207,1,207.999990478516,2|0,0:0|0:0,0:0:0:0:
192,303,22182,1,2,0:0:0:0:
60,133,22345,2,0,P|54:94|81:48,1,80,2|0,0:0|0:0,0:0:0:0:
384,193,22669,6,0,L|314:211,1,60,2|0,0:0|0:0,0:0:0:0:
412,233,22993,6,0,L|301:202,1,90.0000034332277,2|0,0:0|0:0,0:0:0:0:
416,287,23318,6,0,L|314:199,1,120,0|0,0:0|0:0,0:0:0:0:
401,344,23642,6,0,L|322:203,1,155.999992858887,2|0,0:0|0:0,0:0:0:0:
310,360,23966,6,0,L|336:97,1,240.000009155274,2|10,0:0|0:0,0:0:0:0:
505,278,24453,1,0,0:0:0:0:
505,278,24534,1,0,0:0:0:0:
505,278,24615,6,0,P|520:317|498:372,1,80,8|2,0:0|0:0,0:0:0:0:
186,226,24939,2,0,P|179:187|194:151,1,80,10|0,0:0|0:0,0:0:0:0:
359,344,25264,2,0,L|219:364,1,120,2|0,0:0|0:0,0:0:0:0:
226,356,25588,1,2,0:0:0:0:
26,277,25750,1,2,0:0:0:0:
125,290,25912,5,0,0:0:0:0:
120,309,25993,1,0,0:0:0:0:
116,328,26074,1,2,0:0:0:0:
26,277,26237,2,0,L|12:174,1,90.0000034332277,10|0,0:0|0:0,0:0:0:0:
24,296,26561,6,0,L|42:74,1,207.999990478516,6|2,0:1|0:0,0:0:0:0:
233,235,27047,1,0,0:0:0:0:
240,253,27128,1,0,0:0:0:0:
245,272,27210,2,0,L|238:353,1,80,0|0,0:0|0:0,0:0:0:0:
135,225,27534,1,2,0:0:0:0:
122,199,27615,1,0,0:0:0:0:
122,171,27696,1,0,0:0:0:0:
130,144,27777,1,0,0:0:0:0:
148,123,27858,6,0,B|238:98|208:141|310:118,1,160,2|2,0:0|0:0,0:0:0:0:
264,12,28345,1,0,0:0:0:0:
183,198,28507,1,0,0:0:0:0:
177,217,28588,1,0,0:0:0:0:
173,236,28669,2,0,B|191:326,1,80,2|2,0:0|0:0,0:0:0:0:
297,208,28993,1,0,0:0:0:0:
18,216,29155,5,2,0:0:0:0:
34,243,29318,1,0,0:0:0:0:
111,194,29480,1,2,0:0:0:0:
195,238,29642,1,0,0:0:0:0:
218,144,29804,1,2,0:0:0:0:
342,174,29966,1,0,0:0:0:0:
312,79,30128,1,2,0:0:0:0:
456,74,30291,1,0,0:0:0:0:
416,2,30453,5,2,0:0:0:0:
397,17,30534,1,0,0:0:0:0:
386,38,30615,1,2,0:0:0:0:
486,246,30777,1,0,0:0:0:0:
492,218,30858,1,0,0:0:0:0:
496,190,30939,1,0,0:0:0:0:
501,162,31020,1,0,0:0:0:0:
506,134,31101,1,0,0:0:0:0:
394,266,31264,1,0,0:0:0:0:
307,311,31426,2,0,L|207:334,1,80,2|0,0:0|0:0,0:0:0:0:
6,211,31750,6,0,L|28:266,1,60,6|0,0:1|0:0,0:0:0:0:
31,311,32074,6,0,L|49:98,1,207.999990478516,2|0,0:0|0:0,0:0:0:0:
0,35,32561,1,2,0:0:0:0:
112,294,32723,2,0,L|132:397,1,80,2|0,0:0|0:0,0:0:0:0:
250,350,33047,6,0,P|277:341|323:356,1,60,2|0,0:0|0:0,0:0:0:0:
481,325,33372,6,0,P|435:318|382:341,1,90.0000034332277,2|0,0:0|0:0,0:0:0:0:
197,329,33696,6,0,P|257:319|319:359,1,120,0|0,0:0|0:0,0:0:0:0:
512,259,34020,6,0,P|436:270|393:349,1,155.999992858887,2|0,0:0|0:0,0:0:0:0:
352,384,34345,6,0,B|364:139,1,240.000009155274,2|10,0:0|0:0,0:0:0:0:
408,60,34831,1,0,0:0:0:0:
408,60,34912,1,0,0:0:0:0:
408,60,34993,2,0,P|438:90|444:154,1,80,8|2,0:0|0:0,0:0:0:0:
273,380,35318,2,0,P|254:350|248:303,1,80,10|0,0:0|0:0,0:0:0:0:
441,263,35642,5,2,0:0:0:0:
321,250,35804,1,2,0:0:0:0:
201,239,35966,1,2,0:0:0:0:
81,225,36128,1,4,0:0:0:0:
86,242,36210,1,0,0:0:0:0:
140,346,36372,1,4,0:0:0:0:
145,325,36453,1,0,0:0:0:0:
0,30,36615,1,4,0:0:0:0:
6,54,36696,1,0,0:0:0:0:
2,81,36777,1,6,0:0:0:0:
6,107,36858,1,2,0:0:0:0:
12,131,36939,6,0,B|67:121|67:121|110:131|110:131|190:113,1,160,12|2,0:1|0:0,0:0:0:0:
390,54,37426,1,0,0:0:0:0:
237,177,37588,5,0,0:0:0:0:
368,143,37750,1,2,0:0:0:0:
283,263,37912,5,2,0:0:0:0:
367,244,38074,1,0,0:0:0:0:
354,340,38237,5,2,0:0:0:0:
354,340,38318,1,0,0:0:0:0:
354,340,38399,1,2,0:0:0:0:
380,330,38480,1,0,0:0:0:0:
407,331,38561,1,2,0:0:0:0:
432,342,38642,1,0,0:0:0:0:
459,347,38723,1,0,0:0:0:0:
486,346,38804,1,0,0:0:0:0:
511,334,38885,1,0,0:0:0:0:
476,250,39047,5,2,0:0:0:0:
190,351,39210,1,2,0:0:0:0:
282,371,39372,1,0,0:0:0:0:
18,243,39534,1,2,0:0:0:0:
54,323,39696,1,0,0:0:0:0:
54,323,39777,1,0,0:0:0:0:
54,323,39858,1,2,0:0:0:0:
82,301,39939,1,0,0:0:0:0:
98,269,40020,1,0,0:0:0:0:
100,233,40101,1,0,0:0:0:0:
89,198,40182,1,0,0:0:0:0:
66,169,40264,1,0,0:0:0:0:
31,158,40345,1,2,0:0:0:0:
18,243,40507,5,2,0:0:0:0:
57,236,40588,1,0,0:0:0:0:
100,232,40669,1,0,0:0:0:0:
143,223,40750,1,0,0:0:0:0:
186,220,40831,2,0,L|280:200,1,80,2|2,0:0|0:0,0:0:0:0:
379,174,41155,1,2,0:0:0:0:
491,145,41318,1,0,0:0:0:0:
499,91,41480,5,0,0:0:0:0:
495,118,41561,1,0,0:0:0:0:
491,145,41642,1,2,0:0:0:0:
485,172,41723,1,0,0:0:0:0:
431,221,41804,5,2,0:0:0:0:
427,248,41885,1,0,0:0:0:0:
423,275,41966,1,0,0:0:0:0:
417,302,42047,1,0,0:0:0:0:
411,329,42128,6,0,L|243:350,1,160,6|2,0:1|0:0,0:0:0:0:
54,182,42615,2,0,L|222:161,1,160,0|2,0:0|0:0,0:0:0:0:
242,8,43101,2,0,P|263:39|249:99,1,80,2|0,0:0|0:0,0:0:0:0:
124,341,43426,2,0,P|103:310|117:250,1,80,2|2,0:0|0:0,0:0:0:0:
355,359,43750,2,0,L|260:372,1,80,2|0,0:0|0:0,0:0:0:0:
199,280,44074,2,0,L|377:256,2,160,0|2|2,0:0|0:0|0:0,0:0:0:0:
114,233,44885,5,0,0:0:0:0:
423,306,45047,1,10,0:0:0:0:
279,350,45210,1,0,0:0:0:0:
251,355,45291,1,0,0:0:0:0:
223,359,45372,1,0,0:0:0:0:
195,362,45453,1,0,0:0:0:0:
167,365,45534,1,2,0:0:0:0:
3,329,45696,2,0,L|86:318,1,80,10|0,0:0|0:0,0:0:0:0:
363,376,46020,2,0,L|446:365,1,80,2|2,0:0|0:0,0:0:0:0:
509,253,46345,2,0,L|423:267,1,80,10|0,0:0|0:0,0:0:0:0:
317,183,46669,2,0,L|403:169,1,80,0|2,0:0|0:0,0:0:0:0:
495,88,46993,6,0,P|514:117|512:157,1,60,0|0,0:0|0:0,0:0:0:0:
430,191,47318,6,0,L|201:174,1,207.999990478516,10|2,0:1|0:0,0:0:0:0:
190,49,47804,1,0,0:0:0:0:
283,27,47966,1,0,0:0:0:0:
166,254,48128,1,2,0:0:0:0:
9,291,48290,1,2,0:0:0:0:
54,132,48453,1,0,0:0:0:0:
82,210,48615,5,2,0:0:0:0:
77,225,48696,1,0,0:0:0:0:
73,240,48777,1,2,0:0:0:0:
34,235,48858,1,0,0:0:0:0:
39,262,48939,1,2,0:0:0:0:
44,289,49020,1,0,0:0:0:0:
88,298,49101,1,0,0:0:0:0:
79,336,49182,1,0,0:0:0:0:
71,375,49264,6,0,L|-22:388,1,80,0|2,0:0|0:0,0:0:0:0:
4,80,49588,2,0,L|147:100,1,120,2|0,0:0|0:0,0:0:0:0:
138,104,49912,2,0,P|149:78|135:22,1,80,2|0,0:0|0:0,0:0:0:0:
39,169,50237,1,2,0:0:0:0:
39,169,50318,1,0,0:0:0:0:
39,169,50399,1,0,0:0:0:0:
39,169,50480,1,0,0:0:0:0:
34,200,50561,1,0,0:0:0:0:
29,231,50642,1,0,0:0:0:0:
58,231,50723,1,2,0:0:0:0:
54,254,50804,1,0,0:0:0:0:
51,277,50885,1,2,0:0:0:0:
48,300,50966,1,0,0:0:0:0:
44,323,51047,1,0,0:0:0:0:
172,321,51210,6,0,B|206:311|206:311|259:325,1,80,2|2,0:0|0:0,0:0:0:0:
491,340,51534,2,0,L|352:355,1,120,2|0,0:0|0:0,0:0:0:0:
357,365,51858,2,0,P|343:333|354:289,1,80,0|2,0:0|0:0,0:0:0:0:
474,39,52182,1,2,0:0:0:0:
479,66,52264,1,0,0:0:0:0:
483,89,52345,1,0,0:0:0:0:
487,112,52426,1,0,0:0:0:0:
490,134,52507,6,0,L|474:317,1,160,6|2,0:1|0:0,0:0:0:0:
256,193,52993,1,0,0:0:0:0:
270,93,53155,2,0,L|281:3,1,80,0|2,0:0|0:0,0:0:0:0:
321,271,53480,2,0,L|364:342,1,80,2|0,0:0|0:0,0:0:0:0:
166,229,53804,2,0,L|59:252,1,80,2|2,0:0|0:0,0:0:0:0:
1,129,54128,1,2,0:0:0:0:
12,133,54210,1,0,0:0:0:0:
23,137,54291,1,0,0:0:0:0:
34,140,54372,1,0,0:0:0:0:
45,144,54453,2,0,L|136:133,1,80,0|2,0:0|0:0,0:0:0:0:
271,28,54777,2,0,L|128:43,1,120,2|0,0:0|0:0,0:0:0:0:
133,47,55101,6,0,L|297:60,1,160,2|10,0:0|0:0,0:0:0:0:
394,69,55588,1,0,0:0:0:0:
495,51,55750,2,0,P|488:32|443:-8,1,80,0|2,0:0|0:0,0:0:0:0:
373,169,56074,2,0,L|505:184,1,120,10|0,0:0|0:0,0:0:0:0:
510,177,56399,1,2,0:0:0:0:
445,352,56561,1,2,0:0:0:0:
482,83,56723,5,10,0:0:0:0:
432,369,56885,1,0,0:0:0:0:
511,176,57047,5,0,0:0:0:0:
506,207,57128,1,0,0:0:0:0:
501,239,57210,1,2,0:0:0:0:
507,266,57291,1,0,0:0:0:0:
503,297,57372,2,0,L|427:314,1,60,10|0,0:0|0:0,0:0:0:0:
419,294,57696,1,4,0:1:0:0:
419,294,58020,5,0,0:0:0:0:
325,314,58182,1,0,0:0:0:0:
325,314,58507,1,0,0:0:0:0:
231,335,58669,1,0,0:0:0:0:
137,357,58831,1,0,0:0:0:0:
137,357,59155,1,0,0:0:0:0:
137,357,59480,1,0,0:0:0:0:
107,264,59642,1,0,0:0:0:0:
203,238,59804,1,0,0:0:0:0:
231,335,59966,1,0,0:0:0:0:
169,299,60128,1,0,0:0:0:0:
251,159,60291,6,0,P|270:181|281:234,1,60.0000022888184,0|0,0:0|0:0,0:0:0:0:
57,341,60615,2,0,P|38:319|27:266,1,60.0000022888184,0|0,0:0|0:0,0:0:0:0:
27,290,61101,1,0,0:0:0:0:
123,294,61264,1,0,0:0:0:0:
218,300,61426,1,0,0:0:0:0:
218,300,61750,1,0,0:0:0:0:
218,300,62074,1,0,0:0:0:0:
152,368,62237,1,0,0:0:0:0:
196,219,62399,1,0,0:0:0:0:
306,347,62561,1,0,0:0:0:0:
218,300,62723,1,0,0:0:0:0:
62,359,62885,6,0,P|53:331|56:297,1,60.0000022888184,0|0,0:0|0:0,0:0:0:0:
327,138,63210,2,0,P|336:166|333:200,1,60.0000022888184,0|0,0:0|0:0,0:0:0:0:
333,196,63696,1,0,0:0:0:0:
239,178,63858,1,0,0:0:0:0:
145,157,64020,1,0,0:0:0:0:
145,157,64345,1,0,0:0:0:0:
145,157,64669,5,0,0:0:0:0:
354,99,64831,1,0,0:0:0:0:
216,117,64993,5,0,0:0:0:0:
297,151,65155,1,0,0:0:0:0:
257,41,65318,5,0,0:0:0:0:
256,233,65480,2,0,L|263:303,1,60.0000022888184,0|0,0:0|0:0,0:0:0:0:
244,369,65804,1,0,0:0:0:0:
297,151,65966,1,0,0:0:0:0:
297,151,66291,5,0,0:0:0:0:
261,81,66453,1,0,0:0:0:0:
227,10,66615,1,0,0:0:0:0:
221,18,66939,5,0,0:0:0:0:
215,28,67264,1,0,0:0:0:0:
348,87,67426,2,0,L|423:72,1,60.0000022888184,0|0,0:0|0:0,0:0:0:0:
506,199,67750,2,0,L|433:189,1,60.0000022888184,0|0,0:0|0:0,0:0:0:0:
295,249,68074,6,0,L|204:237,1,80,10|0,0:1|0:0,0:0:0:0:
132,267,68399,1,4,0:0:0:0:
49,296,68561,1,0,0:0:0:0:
80,380,68723,1,0,0:0:0:0:
80,380,68804,1,0,0:0:0:0:
80,380,68885,1,0,0:0:0:0:
163,351,69047,1,4,0:0:0:0:
103,172,69210,5,0,0:0:0:0:
20,141,69372,1,0,0:0:0:0:
0,230,69534,1,0,0:0:0:0:
87,251,69696,1,0,0:0:0:0:
52,198,69858,5,4,0:0:0:0:
35,13,70020,1,0,0:0:0:0:
44,107,70182,1,0,0:0:0:0:
52,198,70345,2,0,L|35:291,1,80,6|0,0:0|0:0,0:0:0:0:
205,357,70669,6,0,L|225:267,1,80,14|0,0:0|0:0,0:0:0:0:
166,162,70993,1,6,0:0:0:0:
139,245,71155,1,4,0:0:0:0:
114,330,71318,1,0,0:0:0:0:
114,330,71399,1,0,0:0:0:0:
114,330,71480,1,0,0:0:0:0:
139,245,71642,1,4,0:0:0:0:
166,162,71804,1,4,0:0:0:0:
34,186,71966,6,0,L|55:288,1,80,4|2,0:0|0:0,0:0:0:0:
271,172,72291,2,0,L|250:70,1,80,2|4,0:0|0:0,0:0:0:0:
255,94,72534,1,0,0:0:0:0:
255,94,72615,1,0,0:0:0:0:
106,63,72777,5,0,0:0:0:0:
154,181,72939,1,6,0:0:0:0:
210,295,73101,1,4,0:0:0:0:
355,354,73264,6,0,L|452:338,1,80,14|0,0:0|0:0,0:0:0:0:
508,289,73588,1,0,0:0:0:0:
307,286,73750,2,0,L|146:273,1,160,0|0,0:0|0:0,0:0:0:0:
74,265,74237,1,0,0:0:0:0:
0,259,74399,1,0,0:0:0:0:
207,198,74561,5,6,0:0:0:0:
100,227,74723,1,0,0:0:0:0:
0,259,74885,1,0,0:0:0:0:
215,100,75047,5,0,0:0:0:0:
102,186,75210,1,0,0:0:0:0:
0,259,75372,1,0,0:0:0:0:
32,352,75534,6,0,L|12:180,1,160,0|4,0:0|0:0,0:0:0:0:
126,260,76020,1,0,0:0:0:0:
32,352,76182,1,0,0:0:0:0:
96,122,76345,5,0,0:0:0:0:
281,155,76507,1,4,0:0:0:0:
400,348,76669,5,0,0:0:0:0:
368,353,76750,1,0,0:0:0:0:
336,359,76831,1,0,0:0:0:0:
200,377,76993,1,0,0:0:0:0:
281,237,77155,1,4,0:0:0:0:
200,377,77318,1,0,0:0:0:0:
166,160,77480,5,4,0:0:0:0:
200,276,77642,1,4,0:0:0:0:
200,276,77723,1,0,0:0:0:0:
200,276,77804,1,0,0:0:0:0:
351,152,77966,5,0,0:0:0:0:
309,13,78128,1,0,0:0:0:0:
215,101,78291,1,0,0:0:0:0:
296,96,78453,5,8,0:1:0:0:
367,84,78615,1,0,0:0:0:0:
438,74,78777,1,0,0:0:0:0:
215,18,78939,5,0,0:0:0:0:
187,24,79020,1,0,0:0:0:0:
159,29,79101,1,0,0:0:0:0:
131,35,79182,1,0,0:0:0:0:
103,41,79264,1,0,0:0:0:0:
132,166,79426,1,0,0:0:0:0:
202,117,79588,1,0,0:0:0:0:
8,106,79750,6,0,L|-1:167,1,60,4|0,0:1|0:0,0:0:0:0:
0,71,80074,6,0,L|21:302,1,207.999990478516,6|0,0:0|0:0,0:0:0:0:
93,127,80561,1,2,0:0:0:0:
135,298,80723,1,2,0:0:0:0:
141,313,80804,1,0,0:0:0:0:
148,327,80885,1,0,0:0:0:0:
155,342,80966,1,0,0:0:0:0:
162,357,81047,6,0,L|147:181,1,160,2|2,0:0|0:0,0:0:0:0:
148,197,81534,1,0,0:0:0:0:
82,293,81696,2,0,L|73:378,1,80,0|0,0:0|0:0,0:0:0:0:
220,126,82020,2,0,L|211:41,1,80,2|0,0:0|0:0,0:0:0:0:
211,46,82264,1,0,0:0:0:0:
211,46,82345,5,2,0:0:0:0:
147,197,82507,1,0,0:0:0:0:
257,315,82669,1,2,0:0:0:0:
332,167,82831,1,0,0:0:0:0:
237,206,82993,1,0,0:0:0:0:
230,224,83074,1,0,0:0:0:0:
226,243,83155,1,2,0:0:0:0:
344,339,83318,1,2,0:0:0:0:
472,285,83480,1,0,0:0:0:0:
358,206,83642,1,2,0:0:0:0:
392,277,83804,1,2,0:0:0:0:
387,300,83885,1,0,0:0:0:0:
382,323,83966,1,2,0:0:0:0:
392,339,84047,5,0,0:0:0:0:
397,319,84128,1,0,0:0:0:0:
389,300,84210,1,0,0:0:0:0:
376,284,84291,1,0,0:0:0:0:
367,265,84372,1,0,0:0:0:0:
365,245,84453,1,2,0:0:0:0:
373,226,84534,1,0,0:0:0:0:
384,200,84615,1,2,0:0:0:0:
390,172,84696,1,0,0:0:0:0:
391,144,84777,1,2,0:0:0:0:
387,116,84858,1,0,0:0:0:0:
376,92,84939,6,0,P|356:60|339:43,1,60,6|0,0:1|0:0,0:0:0:0:
314,68,85264,6,0,L|524:81,1,207.999990478516,2|0,0:0|0:0,0:0:0:0:
305,159,85750,1,2,0:0:0:0:
305,159,85912,2,0,L|201:150,1,80,2|0,0:0|0:0,0:0:0:0:
114,308,86237,6,0,L|178:312,1,60,2|0,0:0|0:0,0:0:0:0:
203,294,86561,6,0,L|113:309,1,90.0000034332277,2|0,0:0|0:0,0:0:0:0:
84,277,86885,6,0,L|226:298,1,120,0|0,0:0|0:0,0:0:0:0:
239,256,87210,6,0,L|75:278,1,155.999992858887,2|0,0:0|0:0,0:0:0:0:
0,230,87534,6,0,L|239:257,1,240.000009155274,2|10,0:0|0:0,0:0:0:0:
405,333,88020,1,0,0:0:0:0:
322,375,88182,1,8,0:0:0:0:
322,375,88264,1,0,0:0:0:0:
322,375,88345,2,0,P|311:347|317:298,1,80,2|10,0:0|0:0,0:0:0:0:
495,286,88669,1,0,0:0:0:0:
405,333,88831,6,0,B|347:317|347:317|265:331|265:331|190:304,1,207.999990478516,2|2,0:0|0:0,0:0:0:0:
121,240,89318,2,0,P|176:213|277:245,1,160,2|2,0:0|0:0,0:0:0:0:
0,330,89804,2,0,L|11:254,1,60,10|0,0:0|0:0,0:0:0:0:
18,352,90128,6,0,L|-16:136,1,207.999990478516,6|2,0:1|0:0,0:0:0:0:
123,317,90615,1,0,0:0:0:0:
149,335,90696,1,0,0:0:0:0:
173,354,90777,2,0,L|280:335,1,80,0|2,0:0|0:0,0:0:0:0:
453,259,91101,1,2,0:0:0:0:
427,270,91182,1,0,0:0:0:0:
398,273,91264,1,0,0:0:0:0:
370,271,91345,1,0,0:0:0:0:
345,259,91426,6,0,L|323:53,1,207.999990478516,2|2,0:0|0:0,0:0:0:0:
420,107,91912,1,0,0:0:0:0:
423,130,91993,1,0,0:0:0:0:
425,153,92074,1,0,0:0:0:0:
281,345,92237,1,0,0:0:0:0:
190,288,92399,2,0,P|216:267|267:258,1,80,2|0,0:0|0:0,0:0:0:0:
495,361,92723,5,2,0:0:0:0:
495,361,92804,1,0,0:0:0:0:
495,361,92885,2,0,P|460:375|398:369,1,80,0|2,0:0|0:0,0:0:0:0:
435,268,93210,1,0,0:0:0:0:
446,157,93372,1,0,0:0:0:0:
446,157,93453,1,0,0:0:0:0:
446,157,93534,2,0,P|481:170|522:217,1,80,2|2,0:0|0:0,0:0:0:0:
435,268,93858,1,0,0:0:0:0:
335,304,94020,1,2,0:0:0:0:
335,304,94101,1,0,0:0:0:0:
335,304,94182,2,0,P|327:266|343:217,1,80,2|2,0:0|0:0,0:0:0:0:
450,251,94507,5,0,0:0:0:0:
456,275,94588,1,0,0:0:0:0:
435,287,94669,1,0,0:0:0:0:
413,274,94750,1,0,0:0:0:0:
422,251,94831,1,2,0:0:0:0:
435,269,94912,5,0,0:0:0:0:
435,287,94993,2,0,L|425:384,1,80,2|2,0:0|0:0,0:0:0:0:
301,175,95318,6,0,P|291:154|292:103,1,60,6|0,0:1|0:0,0:0:0:0:
301,175,95642,6,0,B|232:166|232:166|165:188|165:188|93:172,1,207.999990478516,2|0,0:0|0:0,0:0:0:0:
166,73,96128,1,2,0:0:0:0:
267,20,96291,2,0,P|273:37|259:112,1,80,2|0,0:0|0:0,0:0:0:0:
76,95,96615,6,0,L|70:22,1,60,2|0,0:0|0:0,0:0:0:0:
95,63,96939,6,0,L|85:170,1,90.0000034332277,2|0,0:0|0:0,0:0:0:0:
66,185,97264,6,0,L|48:57,1,120,0|0,0:0|0:0,0:0:0:0:
24,132,97588,6,0,L|8:304,1,155.999992858887,2|0,0:0|0:0,0:0:0:0:
27,331,97912,6,0,L|6:83,1,240.000009155274,2|10,0:0|0:0,0:0:0:0:
137,337,98399,1,0,0:0:0:0:
133,356,98480,1,0,0:0:0:0:
128,375,98561,1,8,0:0:0:0:
27,331,98723,1,2,0:0:0:0:
20,243,98885,1,10,0:0:0:0:
12,155,99047,1,0,0:0:0:0:
32,64,99210,5,2,0:0:0:0:
24,194,99372,1,2,0:0:0:0:
21,291,99534,1,2,0:0:0:0:
16,381,99696,1,6,0:0:0:0:
12,374,99777,1,0,0:0:0:0:
6,368,99858,1,0,0:0:0:0:
111,370,100020,1,0,0:0:0:0:
186,309,100182,1,12,0:0:0:0:
192,323,100264,1,0,0:0:0:0:
198,337,100345,1,6,0:0:0:0:
204,351,100426,1,2,0:0:0:0:
211,364,100507,6,0,L|379:354,1,160,6|2,0:1|0:0,0:0:0:0:
446,371,100993,1,0,0:0:0:0:
111,298,101155,2,0,L|22:286,1,80,0|2,0:0|0:0,0:0:0:0:
17,360,101480,1,2,0:0:0:0:
313,210,101642,1,0,0:0:0:0:
295,117,101804,5,2,0:0:0:0:
265,129,101885,1,0,0:0:0:0:
244,154,101966,1,2,0:0:0:0:
230,183,102047,1,0,0:0:0:0:
225,214,102128,1,2,0:0:0:0:
232,245,102210,1,0,0:0:0:0:
250,271,102291,1,0,0:0:0:0:
273,292,102372,1,0,0:0:0:0:
303,301,102453,2,0,L|388:314,1,80,0|2,0:0|0:0,0:0:0:0:
492,213,102777,2,0,L|393:229,1,80,2|0,0:0|0:0,0:0:0:0:
262,377,103101,5,2,0:0:0:0:
307,214,103264,1,0,0:0:0:0:
304,198,103345,1,0,0:0:0:0:
301,182,103426,1,2,0:0:0:0:
275,293,103588,5,0,0:0:0:0:
378,136,103750,1,0,0:0:0:0:
372,108,103831,1,0,0:0:0:0:
366,80,103912,1,2,0:0:0:0:
457,4,104074,1,2,0:0:0:0:
454,23,104155,1,0,0:0:0:0:
452,43,104237,5,0,0:0:0:0:
244,103,104399,1,2,0:0:0:0:
453,163,104561,5,2,0:0:0:0:
302,27,104723,1,2,0:0:0:0:
427,66,104885,5,0,0:0:0:0:
277,109,105047,1,0,0:0:0:0:
427,153,105210,5,2,0:0:0:0:
333,41,105372,1,2,0:0:0:0:
331,44,105453,1,0,0:0:0:0:
329,47,105534,1,0,0:0:0:0:
327,50,105615,1,0,0:0:0:0:
324,53,105696,6,0,L|142:46,1,160,6|2,0:1|0:0,0:0:0:0:
6,161,106182,2,0,L|188:154,1,160,0|2,0:0|0:0,0:0:0:0:
42,239,106669,2,0,P|31:268|50:317,1,80,2|0,0:0|0:0,0:0:0:0:
114,83,106993,2,0,P|116:58|92:9,1,80,2|2,0:0|0:0,0:0:0:0:
26,73,107318,1,2,0:0:0:0:
283,24,107480,1,0,0:0:0:0:
259,29,107561,1,0,0:0:0:0:
235,33,107642,1,0,0:0:0:0:
211,39,107723,1,0,0:0:0:0:
187,45,107804,1,2,0:0:0:0:
371,139,107966,6,0,P|400:133|438:122,1,60,10|0,0:0|0:0,0:0:0:0:
502,130,108291,6,0,L|284:103,1,207.999990478516,2|10,0:0|0:0,0:0:0:0:
220,211,108777,1,0,0:0:0:0:
290,295,108939,2,0,P|297:290|320:218,1,80,0|2,0:0|0:0,0:0:0:0:
156,119,109264,2,0,P|127:154|128:254,1,120,10|0,0:0|0:0,0:0:0:0:
128,241,109588,5,2,0:0:0:0:
220,211,109750,1,2,0:0:0:0:
312,78,109912,5,10,0:0:0:0:
220,108,110074,1,0,0:0:0:0:
437,123,110237,5,0,0:0:0:0:
492,61,110399,1,0,0:0:0:0:
408,43,110561,1,10,0:0:0:0:
461,233,110723,1,0,0:0:0:0:
512,150,110885,6,0,L|502:372,1,207.999990478516,10|2,0:1|0:0,0:0:0:0:
503,358,111372,1,0,0:0:0:0:
437,123,111534,2,0,L|426:27,1,80,0|2,0:0|0:0,0:0:0:0:
341,265,111858,2,0,L|330:361,1,80,2|0,0:0|0:0,0:0:0:0:
423,301,112182,5,2,0:0:0:0:
423,301,112264,1,0,0:0:0:0:
423,301,112345,1,2,0:0:0:0:
423,301,112426,1,0,0:0:0:0:
433,266,112507,1,2,0:0:0:0:
424,230,112588,1,0,0:0:0:0:
404,199,112669,1,0,0:0:0:0:
371,183,112750,1,0,0:0:0:0:
335,181,112831,1,0,0:0:0:0:
341,265,112993,1,2,0:0:0:0:
507,108,113155,6,0,L|442:132,1,60,2|0,0:0|0:0,0:0:0:0:
510,146,113480,6,0,L|280:126,1,207.999990478516,2|2,0:0|0:0,0:0:0:0:
303,128,113885,1,0,0:0:0:0:
303,128,113966,1,0,0:0:0:0:
237,20,114128,1,0,0:0:0:0:
231,55,114210,1,0,0:0:0:0:
225,90,114291,1,2,0:0:0:0:
123,21,114453,1,2,0:0:0:0:
127,36,114534,1,0,0:0:0:0:
130,51,114615,1,0,0:0:0:0:
166,234,114777,5,2,0:0:0:0:
83,351,114939,1,2,0:0:0:0:
0,252,115101,1,2,0:0:0:0:
75,141,115264,1,0,0:0:0:0:
95,239,115426,1,0,0:0:0:0:
91,254,115507,1,0,0:0:0:0:
88,269,115588,1,2,0:0:0:0:
8,344,115750,6,0,P|8:320|-2:277,1,60,2|0,0:0|0:0,0:0:0:0:
8,344,116074,6,0,L|238:367,1,207.999990478516,6|2,0:1|0:0,0:0:0:0:
303,324,116561,1,0,0:0:0:0:
330,328,116642,1,0,0:0:0:0:
357,332,116723,1,0,0:0:0:0:
384,337,116804,1,0,0:0:0:0:
411,342,116885,5,2,0:0:0:0:
500,359,117047,1,2,0:0:0:0:
226,204,117210,5,0,0:0:0:0:
315,221,117372,1,2,0:0:0:0:
188,292,117534,1,2,0:0:0:0:
160,285,117615,1,0,0:0:0:0:
133,277,117696,1,2,0:0:0:0:
106,269,117777,1,0,0:0:0:0:
79,263,117858,1,0,0:0:0:0:
52,256,117939,1,0,0:0:0:0:
25,246,118020,2,0,P|9:214|-1:153,1,80,0|2,0:0|0:0,0:0:0:0:
173,37,118345,2,0,P|193:78|199:130,1,80,10|0,0:0|0:0,0:0:0:0:
99,317,118669,6,0,L|108:100,1,207.999990478516,2|10,0:0|0:0,0:0:0:0:
107,109,119155,1,0,0:0:0:0:
183,313,119318,2,0,P|173:350|144:389,1,80,0|2,0:0|0:0,0:0:0:0:
26,105,119642,2,0,P|36:68|65:29,1,80,10|0,0:0|0:0,0:0:0:0:
169,11,119966,5,2,0:0:0:0:
354,98,120128,1,10,0:0:0:0:
184,181,120291,1,2,0:0:0:0:
326,240,120453,1,12,0:0:0:0:
249,352,120615,1,0,0:0:0:0:
243,328,120696,1,4,0:0:0:0:
237,304,120777,1,0,0:0:0:0:
258,16,120939,5,12,0:0:0:0:
264,40,121020,1,0,0:0:0:0:
270,64,121101,1,10,0:0:0:0:
276,87,121182,1,0,0:0:0:0:
282,110,121264,1,14,0:1:0:0:
256,192,121345,12,0,123858,0:0:0:0:
