osu file format v14

[General]
AudioFilename: Ginkiha - Oriens.mp3
AudioLeadIn: 2000
PreviewTime: 16507
Countdown: 0
SampleSet: Soft
StackLeniency: 0.7
Mode: 0
LetterboxInBreaks: 0
WidescreenStoryboard: 0

[Editor]
Bookmarks: 30291,68074,77642
DistanceSpacing: 1
BeatDivisor: 2
GridSize: 4
TimelineZoom: 1

[Metadata]
Title:Oriens
TitleUnicode:Oriens
Artist:ginkiha
ArtistUnicode:ginkiha
Creator:Kloyd
Version:Normal
Source:BMS
Tags:cytus fighters 2012 bof2012 FREESTYLE ORIENTAL ELECTRO sionkotori IamKwaN EvilElvis EvilElvisV2
BeatmapID:456704
BeatmapSetID:182271

[Difficulty]
HPDrainRate:4
CircleSize:3
OverallDifficulty:4
ApproachRate:5
SliderMultiplier:1
SliderTickRate:1

[Events]
//Background and Video events
0,0,"BG.jpg",0,0
//Break Periods
2,57896,66874
//Storyboard Layer 0 (Background)
//Storyboard Layer 1 (Fail)
//Storyboard Layer 2 (Pass)
//Storyboard Layer 3 (Foreground)
//Storyboard Sound Samples

[TimingPoints]
754,428.571428571429,4,2,50,70,1,0
1611,-100,4,2,51,50,0,0
2468,-100,4,2,50,50,0,0
3325,-100,4,2,51,50,0,0
3754,-100,4,2,50,50,0,0
5039,-100,4,2,51,50,0,0
5896,-100,4,2,50,50,0,0
6754,-100,4,2,51,50,0,0
7396,-100,4,2,50,50,0,0
8468,-100,4,2,51,50,0,0
8896,-100,4,2,50,50,0,0
10182,-100,4,2,51,50,0,0
10611,-100,4,2,50,50,0,0
11896,-100,4,2,51,50,0,0
12754,-100,4,2,50,50,0,0
13611,-100,4,2,51,50,0,0
14468,-100,4,2,50,50,0,0
15325,-100,4,2,50,50,0,0
16183,324.324324324324,4,2,50,70,1,0
16669,-100,4,2,50,70,0,0
24291,-100,4,2,51,70,0,0
24615,-100,4,2,50,70,0,0
24939,-100,4,2,51,70,0,0
25264,-100,4,2,51,70,0,0
25750,-100,4,2,50,70,0,0
26237,-100,4,2,51,70,0,0
26399,-100,4,2,50,70,0,0
34669,-100,4,2,51,70,0,0
34993,-100,4,2,50,70,0,0
35318,-100,4,2,51,70,0,0
35642,-100,4,2,50,70,0,0
36939,-100,4,2,50,70,0,1
42128,-100,4,2,50,70,0,0
47318,-100,4,2,50,70,0,1
52507,-100,4,2,50,70,0,0
56399,-100,4,2,50,50,0,0
88182,-100,4,2,50,70,0,0
89155,-100,4,2,51,70,0,0
89480,-100,4,2,50,70,0,0
89804,-100,4,2,51,70,0,0
90128,-100,4,2,50,70,0,0
98237,-100,4,2,51,70,0,0
98561,-100,4,2,50,70,0,0
98885,-100,4,2,51,70,0,0
99372,-100,4,2,50,70,0,0
100507,-100,4,2,50,70,0,1
105696,-100,4,2,50,70,0,0
110885,-100,4,2,50,70,0,1
116074,-100,4,2,50,70,0,0
119966,-100,4,2,50,70,0,0
120615,-100,4,2,50,70,0,0
120939,-100,4,2,50,70,0,0
121345,-100,4,2,50,20,0,0

[Colours]
Combo1 : 0,0,244
Combo2 : 244,150,238
Combo3 : 244,0,244
Combo4 : 15,231,255

[HitObjects]
92,333,754,6,0,L|76:120,1,200,12|4,0:0|0:0,0:0:0:0:
110,39,2039,1,0,0:0:0:0:
208,18,2468,2,0,P|255:12|302:54,2,100,0|0|4,0:0|0:0|0:0,0:0:0:0:
234,114,3754,1,12,0:0:0:0:
327,149,4182,6,0,B|337:202|337:202|316:253,1,100,12|0,0:0|0:0,0:0:0:0:
257,323,5039,2,0,B|321:324|321:324|381:357|381:357|455:362,1,200,4|0,0:0|0:0,0:0:0:0:
493,272,6325,1,0,0:0:0:0:
466,175,6754,2,0,P|425:166|370:190,1,100,4|4,0:0|0:0,0:0:0:0:
384,235,7396,1,0,0:0:0:0:
400,283,7611,6,0,B|287:301|312:246|195:268,1,200,4|4,0:0|0:0,0:0:0:0:
107,291,8896,1,0,0:0:0:0:
87,191,9325,2,0,P|83:141|118:83,1,100,8|0,0:0|0:0,0:0:0:0:
196,58,10182,2,0,P|200:108|165:166,2,100,4|4|12,0:0|0:0|0:0,0:0:0:0:
197,58,11896,6,0,B|257:42|257:42|302:94|396:66,1,200,4|4,0:0|0:0,0:0:0:0:
477,33,13182,1,8,0:0:0:0:
464,132,13611,2,0,L|474:190,1,50,4|0,0:0|0:0,0:0:0:0:
434,213,14039,2,0,L|444:271,1,50,4|0,0:0|0:0,0:0:0:0:
256,192,14468,12,0,16182,0:0:0:0:
141,276,17155,5,0,0:0:0:0:
57,329,17480,1,4,0:0:0:0:
6,242,17804,1,4,0:0:0:0:
92,191,18128,1,0,0:0:0:0:
142,277,18453,1,4,0:0:0:0:
235,305,18777,6,0,L|331:265,1,100,4|0,0:0|0:0,0:0:0:0:
353,363,19426,2,0,L|449:323,1,100,4|0,0:0|0:0,0:0:0:0:
489,234,20074,2,0,B|509:183|509:183|467:143,1,100
465,102,20561,2,0,L|350:116,1,100
317,100,21047,2,0,L|261:110,1,50
230,139,21372,5,0,0:0:0:0:
230,139,21696,2,0,B|185:174|136:144|136:144|81:168|35:124,1,200,0|4,0:0|0:0,0:0:0:0:
10,36,22669,2,0,L|-6:147,1,100,4|4,0:0|0:0,0:0:0:0:
22,235,23318,1,4,0:0:0:0:
95,302,23642,1,4,0:0:0:0:
188,265,23966,6,0,P|239:267|282:297,1,100,4|4,0:0|0:0,0:0:0:0:
358,353,24615,2,0,P|407:355|450:332,1,100,0|4,0:0|0:0,0:0:0:0:
478,289,25101,1,0,0:0:0:0:
506,248,25264,2,0,B|492:133,1,100,4|4,0:0|0:0,0:0:0:0:
461,110,25750,2,0,L|351:128,1,100
350,175,26237,2,0,L|361:241,1,50,4|0,0:0|0:0,0:0:0:0:
366,273,26561,5,2,0:0:0:0:
283,329,26885,1,4,0:0:0:0:
182,329,27210,2,0,P|150:287|152:232,1,100,4|4,0:0|0:0,0:0:0:0:
196,153,27858,1,4,0:0:0:0:
187,53,28182,2,0,P|141:28|90:35,2,100,4|0|4,0:0|0:0|0:0,0:0:0:0:
276,100,29155,6,0,L|380:58,1,100,4|0,0:0|0:0,0:0:0:0:
462,97,29804,2,0,P|471:151|447:201,1,100
468,293,30453,2,0,P|427:264|378:260,1,100
328,261,30939,2,0,P|283:281|255:322,1,100
241,371,31426,2,0,L|172:361,1,50
155,329,31750,5,0,0:0:0:0:
155,329,32074,2,0,B|139:367|97:351|97:351|68:371|31:381|4:298,1,200,0|4,0:0|0:0,0:0:0:0:
0,206,33047,2,0,P|44:189|73:143,1,100,4|4,0:0|0:0,0:0:0:0:
13,64,33696,1,4,0:0:0:0:
102,20,34020,1,4,0:0:0:0:
202,21,34345,6,0,P|246:53|266:97,1,100,4|4,0:0|0:0,0:0:0:0:
256,142,34831,1,0,0:0:0:0:
275,187,34993,2,0,L|346:193,1,50,4|0,0:0|0:0,0:0:0:0:
352,233,35318,2,0,L|347:301,1,50,4|0,0:0|0:0,0:0:0:0:
325,327,35642,2,0,B|449:339|449:339|421:359,2,150,4|12|4,0:0|0:0|0:0,0:0:0:0:
230,281,36939,5,4,0:0:0:0:
83,145,37588,1,8,0:0:0:0:
171,98,37912,1,12,0:0:0:0:
252,160,38237,2,0,B|364:192|336:128|468:152,1,200,4|4,0:0|0:0,0:0:0:0:
512,228,39210,1,4,0:0:0:0:
455,310,39534,6,0,B|344:314,1,100,4|0,0:0|0:0,0:0:0:0:
256,300,40182,2,0,L|268:361,2,50,0|0|0,0:0|0:0|0:0,0:0:0:0:
158,323,40831,1,0,0:0:0:0:
205,235,41155,1,0,0:0:0:0:
304,225,41480,2,0,L|358:260,2,50,0|0|0,0:0|0:0|0:0,0:0:0:0:
264,136,42128,6,0,L|132:63,2,150,4|0|4,0:0|0:0|0:0,0:0:0:0:
348,84,43426,2,0,P|320:52|256:40,2,100,4|4|0,0:0|0:0|0:0,0:0:0:0:
352,180,44399,1,4,0:0:0:0:
432,120,44723,6,0,P|450:159|438:235,1,100
426,260,45210,2,0,L|318:285,1,100
299,323,45696,1,0,0:0:0:0:
257,232,46020,1,0,0:0:0:0:
199,314,46345,2,0,L|133:319,1,50
112,272,46669,6,0,P|62:264|12:267,2,100,0|4|4,0:0|0:0|0:1,0:0:0:0:
292,356,47966,1,8,0:0:0:0:
220,288,48291,1,12,0:0:0:0:
236,188,48615,2,0,P|284:112|392:100,1,200,4|4,0:0|0:0,0:0:0:0:
476,140,49588,1,4,0:0:0:0:
424,224,49912,6,0,B|404:304|456:364|456:364|404:344,2,200,4|0|8,0:0|0:0|0:0,0:0:0:0:
476,140,51534,1,8,0:0:0:0:
400,76,51858,1,4,0:0:0:0:
300,84,52182,1,4,0:0:0:0:
236,164,52507,6,0,L|260:328,2,150,4|0|4,0:0|0:0|0:0,0:0:0:0:
152,112,53804,2,0,L|163:45,2,50,4|4|0,0:0|0:0|0:0,0:0:0:0:
68,167,54453,2,0,L|35:123,2,50,0|0|0,0:0|0:0|0:0,0:0:0:0:
35,265,55101,6,0,P|83:275|128:257,1,100,4|0,0:0|0:0,0:0:0:0:
178,264,55588,2,0,P|223:282|271:271,1,100,4|0,0:0|0:0,0:0:0:0:
311,241,56074,1,0,0:0:0:0:
256,192,56399,12,4,57696,0:1:0:0:
88,76,68074,6,0,B|33:69,2,50,2|0|0,0:0|0:0|0:0,0:0:0:0:
129,103,68561,2,0,L|118:208,1,100
18,206,69210,2,0,L|28:305,1,100
117,350,69858,1,0,0:0:0:0:
216,360,70182,2,0,P|247:363|280:344,1,50
363,343,70669,6,0,B|418:350,2,50,2|0|0,0:0|0:0|0:0,0:0:0:0:
343,296,71156,2,0,L|354:191,1,100
397,173,71642,2,0,P|402:145|398:113,1,50
326,56,72128,5,0,0:0:0:0:
232,20,72453,2,0,P|224:72|252:123,1,100
278,148,72939,2,0,L|252:208,1,50
233,237,73264,5,0,0:0:0:0:
415,319,74561,5,4,0:1:0:0:
386,121,75858,5,4,0:1:0:0:
188,92,76507,1,4,0:1:0:0:
204,292,77155,5,4,0:1:0:0:
300,316,77480,1,0,0:0:0:0:
300,316,77642,1,4,0:1:0:0:
271,220,77966,2,0,L|288:159,2,50,0|0|0,0:0|0:0|0:0,0:0:0:0:
256,192,78453,12,0,79750,0:0:0:0:
64,150,80723,5,0,0:0:0:0:
143,208,81047,2,0,L|242:197,1,100,0|4,0:0|0:0,0:0:0:0:
340,224,81696,2,0,P|384:236|428:272,1,100,0|4,0:0|0:0,0:0:0:0:
444,368,82345,6,0,L|232:372,2,200,4|4|4,0:0|0:0|0:0,0:0:0:0:
492,280,83966,2,0,P|504:192|432:84,1,200,4|4,0:0|0:0,0:0:0:0:
356,68,84939,5,4,0:1:0:0:
296,148,85264,2,0,P|280:208|304:256,2,100,4|0|4,0:0|0:0|0:0,0:0:0:0:
232,72,86237,2,0,P|156:56|72:144,1,200,4|4,0:0|0:0,0:0:0:0:
64,236,87210,1,4,0:0:0:0:
120,320,87534,6,0,B|168:340|236:320|236:320|256:276|328:296,2,200,4|4|4,0:0|0:0|0:0,0:0:0:0:
20,328,89155,1,4,0:0:0:0:
64,236,89480,1,4,0:0:0:0:
48,136,89804,1,4,0:0:0:0:
0,48,90128,5,6,0:0:0:0:
199,85,90777,2,0,L|156:176,1,100,0|4,0:0|0:0,0:0:0:0:
105,262,91426,2,0,P|122:310|174:329,1,100,4|4,0:0|0:0,0:0:0:0:
264,320,92074,2,0,L|372:308,1,100,0|4,0:0|0:0,0:0:0:0:
440,244,92723,6,0,B|464:120|412:160|432:28,2,200,4|4|4,0:0|0:0|0:0,0:0:0:0:
508,316,94345,2,0,P|418:348|352:276,1,200,4|4,0:0|0:0,0:0:0:0:
316,192,95318,5,4,0:1:0:0:
236,252,95642,2,0,B|232:304|232:304|256:348,2,100,4|0|4,0:0|0:0|0:0,0:0:0:0:
192,164,96615,2,0,B|140:136|140:136|0:156,1,200,4|4,0:0|0:0,0:0:0:0:
36,252,97588,1,4,0:0:0:0:
2,346,97912,6,0,L|104:369,1,100,4|4,0:0|0:0,0:0:0:0:
180,309,98561,2,0,L|282:332,1,100,4|4,0:0|0:0,0:0:0:0:
368,289,99210,1,4,0:0:0:0:
464,262,99534,1,12,0:0:0:0:
465,162,99858,1,4,0:1:0:0:
371,125,100182,1,4,0:0:0:0:
306,201,100507,5,4,0:1:0:0:
336,4,101155,1,0,0:0:0:0:
258,66,101480,1,4,0:0:0:0:
176,124,101804,2,0,P|146:135|120:136,1,50,4|4,0:0|0:0,0:0:0:0:
79,127,102128,2,0,P|54:106|40:84,1,50,4|4,0:0|0:0,0:0:0:0:
25,45,102453,1,0,0:0:0:0:
124,36,102777,1,4,0:0:0:0:
226,27,103101,6,0,P|265:61|270:116,1,100,4|0,0:0|0:0,0:0:0:0:
237,200,103750,2,0,L|255:260,2,50,0|0|0,0:0|0:0|0:0,0:0:0:0:
146,243,104399,2,0,B|141:296|141:296|169:341,1,100,8|8,0:0|0:0,0:0:0:0:
261,363,105047,2,0,L|333:368,1,50,0|0,0:0|0:0,0:0:0:0:
346,330,105372,2,0,L|418:335,1,50,0|0,0:0|0:0,0:0:0:0:
436,303,105696,6,0,P|473:244|464:164,1,150,4|0,0:0|0:0,0:0:0:0:
378,115,106507,1,0,0:0:0:0:
378,115,106669,1,0,0:0:0:0:
371,214,106993,2,0,L|278:159,1,100
264,58,107642,1,0,0:0:0:0:
190,125,107966,1,4,0:0:0:0:
93,96,108291,6,0,P|51:167|63:235,1,150,4|0,0:0|0:0,0:0:0:0:
117,312,109101,1,0,0:0:0:0:
117,312,109264,1,0,0:0:0:0:
216,316,109588,1,0,0:0:0:0:
256,284,109750,2,0,L|261:221,1,50
300,204,110074,1,0,0:0:0:0:
340,175,110237,2,0,L|455:186,2,100,0|4|4,0:0|0:0|0:0,0:0:0:0:
189,57,111534,5,8,0:0:0:0:
281,94,111858,1,12,0:0:0:0:
340,175,112182,2,0,P|355:203|364:242,1,50,4|4,0:0|0:0,0:0:0:0:
371,269,112507,2,0,P|369:300|358:339,1,50,4|4,0:0|0:0,0:0:0:0:
337,359,112831,1,0,0:0:0:0:
255,301,113155,1,4,0:0:0:0:
163,342,113480,6,0,B|122:372|53:348,1,100,4|0,0:0|0:0,0:0:0:0:
16,266,114128,2,0,L|24:213,2,50,0|0|0,0:0|0:0|0:0,0:0:0:0:
115,252,114777,2,0,L|129:139,1,100,8|8,0:0|0:0,0:0:0:0:
178,66,115426,2,0,L|243:57,1,50
272,81,115750,2,0,L|337:72,1,50
364,99,116074,6,0,B|398:35|398:35|469:15|469:15|464:77|497:129|497:129|457:129,1,300,4|12,0:0|0:0,0:0:0:0:
405,211,117372,2,0,L|411:268,2,50,4|4|0,0:0|0:0|0:0,0:0:0:0:
361,185,117858,1,4,0:0:0:0:
313,169,118020,2,0,L|278:121,1,50
261,83,118345,1,0,0:0:0:0:
167,64,118669,6,0,P|120:61|69:97,1,100,4|4,0:0|0:0,0:0:0:0:
26,81,119155,2,0,L|51:187,1,100
29,224,119642,2,0,L|45:288,1,50
26,320,119966,6,0,L|-15:365,2,50,4|0|4,0:0|0:0|0:0,0:0:0:0:
74,308,120453,1,4,0:1:0:0:
74,308,120615,2,0,L|200:310,2,100,4|4|4,0:1|0:1|0:1,0:0:0:0:
256,192,121426,12,0,123858,0:0:0:0:
