osu file format v14

[General]
AudioFilename: Ginkiha - Oriens.mp3
AudioLeadIn: 2000
PreviewTime: 16507
Countdown: 0
SampleSet: Soft
StackLeniency: 0.7
Mode: 0
LetterboxInBreaks: 0
WidescreenStoryboard: 0

[Editor]
Bookmarks: 68074,77642
DistanceSpacing: 1.4
BeatDivisor: 4
GridSize: 4
TimelineZoom: 2.2

[Metadata]
Title:Oriens
TitleUnicode:Oriens
Artist:ginkiha
ArtistUnicode:ginkiha
Creator:Kloyd
Version:Hard
Source:BMS
Tags:cytus fighters 2012 bof2012 FREESTYLE ORIENTAL ELECTRO sionkotori IamKwaN EvilElvis EvilElvisV2
BeatmapID:456703
BeatmapSetID:182271

[Difficulty]
HPDrainRate:5
CircleSize:4
OverallDifficulty:6.5
ApproachRate:7
SliderMultiplier:1.4
SliderTickRate:1

[Events]
//Background and Video events
0,0,"BG.jpg",0,0
//Break Periods
2,57896,67174
//Storyboard Layer 0 (Background)
//Storyboard Layer 1 (Fail)
//Storyboard Layer 2 (Pass)
//Storyboard Layer 3 (Foreground)
//Storyboard Sound Samples

[TimingPoints]
754,428.571428571429,4,2,50,70,1,0
1611,-100,4,2,51,50,0,0
2468,-100,4,2,50,50,0,0
3325,-100,4,2,51,50,0,0
3754,-100,4,2,50,50,0,0
5039,-100,4,2,51,50,0,0
5896,-100,4,2,50,50,0,0
6754,-100,4,2,51,50,0,0
7396,-100,4,2,50,50,0,0
8468,-100,4,2,51,50,0,0
9004,-100,4,2,50,50,0,0
10182,-100,4,2,51,50,0,0
10611,-100,4,2,50,50,0,0
11896,-100,4,2,51,50,0,0
12754,-100,4,2,50,50,0,0
13611,-100,4,2,51,50,0,0
14468,-100,4,2,50,50,0,0
16183,324.324324324324,4,2,50,70,1,0
16507,-100,4,2,51,70,0,0
16669,-100,4,2,50,70,0,0
24291,-100,4,2,51,70,0,0
24615,-100,4,2,50,70,0,0
24939,-100,4,2,51,70,0,0
25264,-100,4,2,50,70,0,0
25588,-100,4,2,51,70,0,0
25750,-100,4,2,50,70,0,0
26237,-100,4,2,51,70,0,0
26399,-100,4,2,50,70,0,0
34669,-100,4,2,51,70,0,0
34993,-100,4,2,50,70,0,0
35318,-100,4,2,51,70,0,0
35642,-100,4,2,50,70,0,0
36939,-100,4,2,50,70,0,1
42128,-100,4,2,50,70,0,0
47318,-100,4,2,50,70,0,1
52507,-100,4,2,50,70,0,0
56399,-100,4,2,50,50,0,0
87858,-100,4,2,51,70,0,0
88182,-100,4,2,50,70,0,0
88507,-100,4,2,51,70,0,0
88831,-100,4,2,50,70,0,0
89155,-100,4,2,51,70,0,0
89642,-100,4,2,50,70,0,0
89804,-100,4,2,51,70,0,0
90128,-100,4,2,50,70,0,0
98237,-100,4,2,51,70,0,0
98561,-100,4,2,50,70,0,0
98885,-100,4,2,51,70,0,0
99372,-100,4,2,50,70,0,0
100507,-100,4,2,50,70,0,1
105696,-100,4,2,50,70,0,0
110885,-100,4,2,50,70,0,1
116074,-100,4,2,50,70,0,0
119966,-100,4,2,50,50,0,0
120615,-100,4,2,50,40,0,0
120939,-100,4,2,50,30,0,0
121345,-100,4,2,50,20,0,0
123858,-100,4,2,50,20,0,0

[Colours]
Combo1 : 0,0,244
Combo2 : 244,150,238
Combo3 : 244,0,244
Combo4 : 15,231,255

[HitObjects]
388,308,754,6,0,L|436:320,2,35,12|0|8,0:0|0:0|0:0,0:0:0:0:
192,228,1504,1,0,0:0:0:0:
180,244,1612,6,0,L|36:256,2,140,4|0|0,0:0|0:0|0:0,0:0:0:0:
252,288,2683,1,8,0:0:0:0:
320,336,2897,2,0,P|320:352|316:376,2,35,0|0|8,0:0|0:0|0:0,0:0:0:0:
400,308,3326,2,0,P|416:240|372:168,1,140,4|12,0:0|0:0,0:0:0:0:
448,20,4183,6,0,L|480:29,3,23.3333333333333,12|0|0|0,0:0|0:0|0:0|0:0,0:0:0:0:
368,68,4612,1,0,0:0:0:0:
284,64,4826,1,0,0:0:0:0:
212,24,5040,2,0,L|68:16,2,140,4|0|0,0:0|0:0|0:0,0:0:0:0:
216,108,6112,5,0,0:0:0:0:
144,156,6326,2,0,P|112:156|76:136,1,70,0|0,0:0|0:0,0:0:0:0:
20,80,6754,2,0,L|36:224,1,140,4|4,0:0|0:0,0:0:0:0:
76,292,7397,1,4,0:0:0:0:
148,336,7612,6,0,P|190:332|220:312,1,70,4|0,0:0|0:0,0:0:0:0:
107,360,8362,1,0,0:0:0:0:
132,348,8469,2,0,L|280:360,1,140,4|0,0:0|0:0,0:0:0:0:
336,304,9112,1,0,0:0:0:0:
352,384,9326,5,8,0:0:0:0:
272,360,9540,1,8,0:0:0:0:
408,260,9969,1,8,0:0:0:0:
458,329,10183,2,0,P|391:343|336:304,1,140,4|4,0:0|0:0,0:0:0:0:
284,236,10826,1,0,0:0:0:0:
216,288,11040,6,0,L|220:319,3,23.3333333333333,12|0|0|0,0:0|0:0|0:0|0:0,0:0:0:0:
148,228,11469,1,0,0:0:0:0:
160,144,11683,1,0,0:0:0:0:
220,84,11897,2,0,B|304:68|284:116|380:100,2,140,4|4|4,0:0|0:0|0:0,0:0:0:0:
160,144,12969,5,0,0:0:0:0:
212,212,13183,2,0,P|244:224|288:220,1,70,8|0,0:0|0:0,0:0:0:0:
356,260,13612,2,0,B|408:252|408:252|440:268|440:268|504:260,1,140,4|0,0:0|0:0,0:0:0:0:
468,180,14254,1,0,0:0:0:0:
444,100,14469,5,4,0:0:0:0:
435,214,16183,5,4,0:0:0:0:
416,192,16507,6,0,L|408:348,1,140,4|0,0:0|0:0,0:0:0:0:
332,364,16993,1,4,0:0:0:0:
260,320,17155,2,0,P|252:288|264:240,1,70,4|0,0:0|0:0,0:0:0:0:
328,204,17480,6,0,L|172:216,2,140,4|4|0,0:0|0:0|0:0,0:0:0:0:
396,156,18291,1,4,0:0:0:0:
320,120,18453,1,4,0:0:0:0:
328,204,18615,1,0,0:0:0:0:
404,236,18777,6,0,P|460:212|476:136,1,140,4|4,0:0|0:0,0:0:0:0:
440,64,19264,2,0,B|384:72|384:72|352:32|308:40,1,140,0|4,0:0|0:0,0:0:0:0:
228,36,19750,2,0,P|194:49|152:52,1,70,4|0,0:0|0:0,0:0:0:0:
80,36,20074,5,4,0:0:0:0:
8,84,20237,1,0,0:0:0:0:
24,168,20399,1,4,0:0:0:0:
104,192,20561,2,0,B|184:200|168:156|252:168,1,140,4|4,0:0|0:0,0:0:0:0:
312,208,21047,2,0,P|316:248|300:292,1,70,4|0,0:0|0:0,0:0:0:0:
252,340,21372,5,0,0:0:0:0:
252,340,21696,6,0,L|287:370,3,46.6666666666667,0|0|0|0,0:0|0:0|0:0|0:0,0:0:0:0:
184,292,22182,1,4,0:0:0:0:
100,288,22345,2,0,P|64:300|40:328,1,70,4|0,0:0|0:0,0:0:0:0:
0,252,22669,2,0,L|16:108,2,140,4|4|4,0:0|0:0|0:0,0:0:0:0:
44,324,23480,1,0,0:0:0:0:
120,284,23642,1,4,0:0:0:0:
176,348,23804,1,0,0:0:0:0:
248,300,23966,6,0,P|288:304|320:320,1,70,4|0,0:0|0:0,0:0:0:0:
392,348,24291,2,0,P|426:345|458:331,1,70,4|0,0:0|0:0,0:0:0:0:
484,252,24615,1,0,0:0:0:0:
404,232,24777,1,0,0:0:0:0:
324,208,24939,2,0,L|240:212,1,70,4|0,0:0|0:0,0:0:0:0:
336,132,25264,6,0,B|384:136|384:136|420:120|420:120|480:124,1,140,4|4,0:0|0:0,0:0:0:0:
384,52,25750,2,0,P|320:44|256:84,1,140,4|0,0:0|0:0,0:0:0:0:
176,160,26237,2,0,P|152:132|148:96,1,70,4|0,0:0|0:0,0:0:0:0:
188,24,26561,5,2,0:0:0:0:
188,24,26885,6,0,B|144:20|144:20|32:48,1,140,4|0,0:0|0:0,0:0:0:0:
16,120,27372,1,4,0:0:0:0:
60,192,27534,2,0,L|140:200,1,70,4|0,0:0|0:0,0:0:0:0:
212,180,27858,6,0,B|236:184|248:204|248:204|224:252|240:300,2,140,4|4|0,0:0|0:0|0:0,0:0:0:0:
164,112,28669,1,4,0:0:0:0:
224,52,28831,1,4,0:0:0:0:
308,64,28993,1,0,0:0:0:0:
356,132,29155,6,0,P|424:140|484:96,1,140,4|4,0:0|0:0,0:0:0:0:
504,20,29642,2,0,L|536:176,1,140,0|4,0:0|0:0,0:0:0:0:
484,224,30128,2,0,P|484:262|472:300,1,70,4|0,0:0|0:0,0:0:0:0:
408,340,30453,5,4,0:0:0:0:
324,344,30615,1,0,0:0:0:0:
276,276,30777,1,4,0:0:0:0:
312,200,30939,2,0,B|328:132|328:132|296:60,1,140,0|4,0:0|0:0,0:0:0:0:
216,48,31426,2,0,L|144:64,1,70,4|0,0:0|0:0,0:0:0:0:
64,48,31750,5,0,0:0:0:0:
64,48,32074,6,0,L|11:54,3,46.6666666666667,0|0|0|0,0:0|0:0|0:0|0:0,0:0:0:0:
148,64,32561,1,4,0:0:0:0:
92,128,32723,2,0,P|88:164|100:200,1,70,4|0,0:0|0:0,0:0:0:0:
168,240,33047,6,0,B|152:348|152:348|136:316,2,140,4|4|4,0:0|0:0|0:0,0:0:0:0:
228,180,33858,1,0,0:0:0:0:
312,192,34020,1,4,0:0:0:0:
352,264,34182,1,0,0:0:0:0:
300,332,34345,6,0,B|224:352|240:300|152:332,1,140,4|4,0:0|0:0,0:0:0:0:
88,360,34831,1,0,0:0:0:0:
28,300,34993,2,0,P|24:268|36:228,1,70,4|0,0:0|0:0,0:0:0:0:
100,180,35318,2,0,P|104:148|92:108,1,70,4|0,0:0|0:0,0:0:0:0:
44,44,35642,5,4,0:0:0:0:
44,44,35804,1,12,0:0:0:0:
156,56,35966,1,12,0:0:0:0:
156,56,36128,1,12,0:0:0:0:
268,72,36291,2,0,L|260:16,2,35,4|0|4,0:0|0:0|0:0,0:0:0:0:
156,56,36615,1,4,0:0:0:0:
216,152,36777,6,0,P|232:164|260:172,2,35,4|0|4,0:1|0:0|0:0,0:0:0:0:
44,44,37264,5,4,0:0:0:0:
68,124,37426,1,0,0:0:0:0:
68,124,37588,2,0,L|56:204,1,70,8|12,0:0|0:0,0:0:0:0:
104,264,37912,2,0,L|116:344,1,70,12|8,0:0|0:0,0:0:0:0:
192,368,38237,5,4,0:0:0:0:
236,296,38399,1,0,0:0:0:0:
252,212,38561,2,0,P|248:176|232:140,1,70,4|0,0:0|0:0,0:0:0:0:
200,68,38885,2,0,L|344:76,1,140,4|4,0:0|0:0,0:0:0:0:
420,56,39372,1,0,0:0:0:0:
420,56,39534,6,0,P|452:44|484:16,2,70,4|0|4,0:0|0:0|0:0,0:0:0:0:
340,76,40020,1,0,0:0:0:0:
388,144,40182,2,0,P|419:158|461:160,1,70,0|4,0:0|0:0,0:0:0:0:
508,228,40507,2,0,P|476:242|434:244,1,70,4|0,0:0|0:0,0:0:0:0:
360,224,40831,5,8,0:0:0:0:
360,224,40993,1,8,0:0:0:0:
380,304,41155,1,8,0:0:0:0:
380,304,41317,1,8,0:0:0:0:
316,360,41480,5,8,0:0:0:0:
316,360,41642,1,12,0:0:0:0:
296,280,41804,1,12,0:0:0:0:
216,252,41966,1,8,0:0:0:0:
168,320,42128,6,0,B|160:356|177:376|177:376|132:368|80:376,1,140,4|4,0:0|0:0,0:0:0:0:
24,328,42615,2,0,B|16:272|40:224|40:224|60:264,1,140,0|4,0:0|0:0,0:0:0:0:
128,212,43101,2,0,P|136:184|128:140,1,70,4|0,0:0|0:0,0:0:0:0:
168,68,43426,5,4,0:0:0:0:
168,68,43750,2,0,B|280:72|280:72|256:44,2,140,4|0|4,0:0|0:0|0:0,0:0:0:0:
12,136,44723,6,0,B|68:136|68:136|92:152|92:152|152:156,1,140,4|4,0:0|0:0,0:0:0:0:
232,156,45210,2,0,B|260:144|260:144|252:204|252:204|272:256,1,140,0|4,0:0|0:0,0:0:0:0:
328,312,45696,2,0,P|360:324|400:320,1,70,4|0,0:0|0:0,0:0:0:0:
476,296,46020,5,4,0:0:0:0:
476,296,46182,2,0,L|472:376,2,70,0|4|0,0:0|0:0|0:0,0:0:0:0:
416,236,46669,6,0,P|412:204|424:160,1,70,0|4,0:0|0:0,0:0:0:0:
500,144,46993,2,0,P|504:112|492:68,1,70,4|0,0:0|0:0,0:0:0:0:
432,20,47318,5,4,0:1:0:0:
264,44,47642,1,4,0:0:0:0:
224,120,47804,1,8,0:0:0:0:
224,120,47966,2,0,L|232:192,1,70,8|12,0:0|0:0,0:0:0:0:
308,247,48291,2,0,L|315:177,1,70,12|8,0:0|0:0,0:0:0:0:
388,140,48615,5,4,0:0:0:0:
448,196,48777,1,0,0:0:0:0:
480,272,48939,2,0,P|480:316|464:360,1,70,4|0,0:0|0:0,0:0:0:0:
392,364,49264,2,0,L|240:352,1,140,4|4,0:0|0:0,0:0:0:0:
172,328,49750,1,0,0:0:0:0:
172,328,49912,6,0,P|137:330|96:352,2,70,4|0|4,0:0|0:0|0:0,0:0:0:0:
252,352,50399,1,0,0:0:0:0:
232,272,50561,2,0,P|199:249|156:244,1,70,0|4,0:0|0:0,0:0:0:0:
104,192,50885,2,0,P|136:169|180:164,1,70,4|0,0:0|0:0,0:0:0:0:
248,176,51210,5,8,0:0:0:0:
248,176,51372,1,8,0:0:0:0:
216,100,51534,1,8,0:0:0:0:
216,100,51696,1,8,0:0:0:0:
272,36,51858,5,4,0:0:0:0:
272,36,52020,1,0,0:0:0:0:
304,112,52182,1,4,0:0:0:0:
356,44,52345,1,4,0:0:0:0:
388,120,52507,6,0,B|377:231|377:231|404:208,1,140,4|4,0:0|0:0,0:0:0:0:
464,160,52993,2,0,P|480:224|436:288,1,140,0|4,0:0|0:0,0:0:0:0:
380,340,53480,2,0,P|345:346|312:364,1,70,4|0,0:0|0:0,0:0:0:0:
236,336,53804,6,0,L|192:336,4,35,4|0|0|0|4,0:0|0:0|0:0|0:0|0:0,0:0:0:0:
316,364,54291,1,0,0:0:0:0:
304,280,54453,2,0,P|303:241|312:196,2,70,4|0|4,0:0|0:0|0:0,0:0:0:0:
140,316,55101,6,0,P|138:239|156:148,1,140,4|4,0:0|0:0,0:0:0:0:
208,116,55588,2,0,B|260:96|312:120|312:120|300:72,1,140,0|4,0:0|0:0,0:0:0:0:
356,24,56074,2,0,P|392:28|428:52,1,70,4|0,0:0|0:0,0:0:0:0:
472,112,56399,5,4,0:0:0:0:
472,112,56561,1,4,0:0:0:0:
444,192,56723,1,4,0:0:0:0:
480,268,56885,1,4,0:0:0:0:
440,340,57047,2,0,L|448:388,4,35,4|4|4|4|4,0:0|0:0|0:0|0:0|0:0,0:0:0:0:
472,112,57696,5,4,1:0:0:0:
60,68,68074,5,2,0:0:0:0:
141,44,68237,1,0,0:0:0:0:
118,124,68399,1,8,0:0:0:0:
174,185,68561,2,0,P|241:197|319:170,2,140,0|2|2,0:0|0:0|0:0,0:0:0:0:
60,68,69534,2,0,L|66:213,1,140,2|0,0:0|0:0,0:0:0:0:
46,289,70020,1,0,0:0:0:0:
112,340,70182,1,2,0:0:0:0:
190,308,70345,2,0,L|187:232,1,70,0|0,0:0|0:0,0:0:0:0:
215,159,70669,5,2,0:0:0:0:
273,220,70832,1,0,0:0:0:0:
293,139,70994,1,2,0:0:0:0:
372,115,71156,2,0,P|436:138|490:200,2,140,0|2|2,0:0|0:0|0:0,0:0:0:0:
307,61,71966,2,0,P|330:34|370:24,2,70,0|2|0,0:0|0:0|0:0,0:0:0:0:
293,139,72453,2,0,B|316:211|270:196|306:292,1,140,0|2,0:0|0:0,0:0:0:0:
352,342,72939,2,0,P|390:344|420:327,1,70,0|0,0:0|0:0,0:0:0:0:
466,260,73264,5,4,0:1:0:0:
29,196,74399,5,0,0:0:0:0:
29,196,74561,1,4,0:1:0:0:
462,114,75696,5,0,0:0:0:0:
462,114,75858,1,4,0:1:0:0:
256,260,76507,6,0,B|296:152|224:168|256:56,1,210,4|0,0:1|0:0,0:0:0:0:
276,36,77155,6,0,L|136:39,1,140,4|0,0:1|0:0,0:0:0:0:
28,68,77642,2,0,L|167:71,1,140,4|4,0:1|0:0,0:0:0:0:
276,100,78128,2,0,L|348:96,1,70,4|0,0:1|0:0,0:0:0:0:
456,116,78453,5,4,0:1:0:0:
256,192,78615,12,0,79750,0:0:0:0:
272,272,80074,6,0,B|324:264|324:264|360:284|360:284|416:276,1,140,4|0,0:0|0:0,0:0:0:0:
484,308,80561,1,0,0:0:0:0:
492,224,80723,2,0,P|492:184|484:148,1,70,4|0,0:0|0:0,0:0:0:0:
436,88,81047,6,0,B|400:72|400:72|296:88,1,140,0|4,0:0|0:0,0:0:0:0:
220,68,81534,2,0,L|224:24,2,35,0|0|0,0:0|0:0|0:0,0:0:0:0:
148,112,81858,1,0,0:0:0:0:
68,136,82020,2,0,P|32:132|-4:112,1,70,4|0,0:0|0:0,0:0:0:0:
56,52,82345,5,0,0:0:0:0:
68,136,82507,1,0,0:0:0:0:
80,220,82669,2,0,L|72:300,1,70,4|0,0:0|0:0,0:0:0:0:
168,352,82993,2,0,L|161:282,1,70,0|0,0:0|0:0,0:0:0:0:
256,224,83318,2,0,L|248:304,1,70,4|0,0:0|0:0,0:0:0:0:
340,360,83642,5,0,0:0:0:0:
448,328,83804,2,0,L|488:332,2,35,0|0|4,0:0|0:0|0:0,0:0:0:0:
364,256,84128,2,0,B|288:244|300:280|216:264,1,140,0|0,0:0|0:0,0:0:0:0:
160,360,84615,2,0,P|128:336|112:296,1,70,4|0,0:0|0:0,0:0:0:0:
136,200,84939,5,0,0:0:0:0:
136,200,85264,2,0,L|137:148,3,46.6666666666667,0|0|0|0,0:0|0:0|0:0|0:0,0:0:0:0:
60,236,85750,1,0,0:0:0:0:
0,176,85912,2,0,P|-4:140|16:96,1,70,4|0,0:0|0:0,0:0:0:0:
68,48,86237,6,0,L|152:60,1,70,4|0,0:0|0:0,0:0:0:0:
212,96,86561,2,0,B|216:132|216:132|204:168,1,70,4|0,0:0|0:0,0:0:0:0:
284,244,86885,2,0,B|280:208|280:208|292:172,1,70,4|0,0:0|0:0,0:0:0:0:
344,112,87210,2,0,L|413:102,1,70,4|0,0:0|0:0,0:0:0:0:
464,36,87534,6,0,P|444:104|480:164,2,140,4|4|0,0:0|0:0|0:0,0:0:0:0:
384,8,88345,1,4,0:0:0:0:
304,28,88507,2,0,P|272:40|240:76,1,70,4|0,0:0|0:0,0:0:0:0:
281,151,88831,6,0,B|288:116|328:100|328:100|324:132|328:168,1,140,4|4,0:0|0:0,0:0:0:0:
244,256,89318,2,0,B|232:316|256:356|256:356|224:336,1,140,0|4,0:0|0:0,0:0:0:0:
105,295,89804,2,0,P|90:261|99:220,1,70,4|0,0:0|0:0,0:0:0:0:
150,132,90128,5,6,0:0:0:0:
150,132,90453,6,0,B|100:128|100:128|74:103|74:103|10:98,1,140,4|0,0:0|0:0,0:0:0:0:
0,12,90939,1,4,0:0:0:0:
78,29,91101,2,0,L|154:34,1,70,4|0,0:0|0:0,0:0:0:0:
225,66,91426,6,0,B|288:90|288:90|374:71,1,140,4|4,0:0|0:0,0:0:0:0:
435,39,91912,2,0,L|430:3,2,35,0|0|0,0:0|0:0|0:0,0:0:0:0:
504,86,92237,1,0,0:0:0:0:
456,155,92399,2,0,P|423:170|375:162,1,70,4|0,0:0|0:0,0:0:0:0:
337,102,92723,5,0,0:0:0:0:
391,168,92885,1,0,0:0:0:0:
446,230,93047,2,0,L|443:312,1,70,4|0,0:0|0:0,0:0:0:0:
350,363,93372,2,0,L|347:293,1,70,0|0,0:0|0:0,0:0:0:0:
256,227,93696,2,0,L|253:309,1,70,4|0,0:0|0:0,0:0:0:0:
155,350,94020,5,0,0:0:0:0:
55,299,94182,2,0,L|9:302,2,35,0|0|4,0:0|0:0|0:0,0:0:0:0:
129,214,94507,2,0,B|206:195|194:240|269:225,1,140,0|0,0:0|0:0,0:0:0:0:
334,137,94993,2,0,P|306:118|256:116,1,70,4|0,0:0|0:0,0:0:0:0:
159,128,95318,5,0,0:0:0:0:
159,128,95642,2,0,L|165:176,3,46.6666666666667,0|0|0|0,0:0|0:0|0:0|0:0,0:0:0:0:
93,74,96128,1,0,0:0:0:0:
74,156,96291,2,0,L|83:238,1,70,4|0,0:0|0:0,0:0:0:0:
117,301,96615,6,0,P|154:315|194:312,1,70,4|0,0:0|0:0,0:0:0:0:
251,264,96939,2,0,L|261:188,1,70,4|0,0:0|0:0,0:0:0:0:
348,236,97264,2,0,L|357:305,1,70,4|0,0:0|0:0,0:0:0:0:
442,327,97588,2,0,P|476:326|509:313,1,70,4|0,0:0|0:0,0:0:0:0:
459,245,97912,6,0,L|438:92,1,140,4|4,0:0|0:0,0:0:0:0:
372,55,98399,1,0,0:0:0:0:
372,55,98561,2,0,P|337:62|314:89,1,70,4|0,0:0|0:0,0:0:0:0:
300,169,98885,1,4,0:0:0:0:
217,156,99047,6,0,L|204:110,2,35,0|0|4,0:0|0:0|0:0,0:0:0:0:
158,216,99372,1,12,0:0:0:0:
80,183,99534,1,12,0:0:0:0:
28,249,99696,1,12,0:0:0:0:
67,323,99858,6,0,L|59:359,2,35,8|0|4,0:0|0:0|0:1,0:0:0:0:
156,316,100182,1,4,0:1:0:0:
156,316,100345,2,0,L|175:348,2,35,8|0|4,0:0|0:0|0:1,0:0:0:0:
28,249,100831,5,4,0:0:0:0:
110,235,100993,1,0,0:0:0:0:
192,222,101155,2,0,L|186:144,1,70,0|4,0:0|0:0,0:0:0:0:
102,147,101480,2,0,L|96:69,1,70,4|0,0:0|0:0,0:0:0:0:
155,17,101804,5,4,0:0:0:0:
236,35,101966,1,0,0:0:0:0:
283,103,102128,1,4,0:0:0:0:
303,184,102291,2,0,L|292:224,2,35,0|4|4,0:0|0:0|0:0,0:0:0:0:
373,138,102615,1,0,0:0:0:0:
456,137,102777,2,0,P|493:137|526:155,1,70,4|0,0:0|0:0,0:0:0:0:
473,220,103101,5,4,0:0:0:0:
417,283,103264,1,0,0:0:0:0:
417,283,103426,2,0,L|345:278,1,70,4|0,0:0|0:0,0:0:0:0:
294,343,103750,1,0,0:0:0:0:
238,280,103913,1,0,0:0:0:0:
238,280,104075,2,0,L|166:285,1,70,4|0,0:0|0:0,0:0:0:0:
95,243,104399,5,8,0:0:0:0:
95,243,104561,1,8,0:0:0:0:
52,315,104723,1,8,0:0:0:0:
52,315,104885,1,8,0:0:0:0:
124,357,105047,1,8,0:0:0:0:
124,357,105209,1,12,0:0:0:0:
169,285,105372,1,12,0:0:0:0:
95,243,105534,1,8,0:0:0:0:
21,201,105696,6,0,P|14:131|48:71,1,140,4|4,0:0|0:0,0:0:0:0:
104,10,106182,2,0,B|142:59|117:106|117:106|167:91,1,140,0|4,0:0|0:0,0:0:0:0:
230,126,106669,2,0,P|234:164|220:202,1,70,4|0,0:0|0:0,0:0:0:0:
178,263,106993,1,4,0:0:0:0:
178,263,107318,2,0,B|65:249|65:249|96:226,2,140,4|0|4,0:0|0:0|0:0,0:0:0:0:
314,361,108291,6,0,P|306:307|364:246,1,140,4|4,0:0|0:0,0:0:0:0:
390,325,108777,2,0,B|449:322|449:322|483:333|483:333|528:313,1,140,0|4,0:0|0:0,0:0:0:0:
490,237,109264,2,0,P|475:204|477:155,1,70,4|0,0:0|0:0,0:0:0:0:
490,88,109588,1,4,0:0:0:0:
490,88,109750,2,0,L|498:11,2,70,0|4|0,0:0|0:0|0:0,0:0:0:0:
406,77,110237,6,0,P|370:75|337:97,1,70,0|4,0:0|0:0,0:0:0:0:
370,199,110561,2,0,P|406:201|439:179,1,70,4|0,0:0|0:0,0:0:0:0:
490,88,110885,5,4,0:0:0:0:
490,88,111210,1,4,0:0:0:0:
409,110,111372,1,8,0:0:0:0:
328,133,111534,2,0,L|339:212,1,70,8|12,0:0|0:0,0:0:0:0:
421,202,111858,2,0,L|432:281,1,70,12|8,0:0|0:0,0:0:0:0:
397,348,112182,5,4,0:0:0:0:
314,351,112344,1,0,0:0:0:0:
251,298,112506,1,4,0:0:0:0:
211,225,112669,2,0,L|211:183,2,35,0|4|4,0:0|0:0|0:0,0:0:0:0:
155,287,112993,1,0,0:0:0:0:
75,310,113155,2,0,P|39:319|2:310,1,70,4|0,0:0|0:0,0:0:0:0:
41,235,113480,5,4,0:0:0:0:
81,161,113642,1,0,0:0:0:0:
81,161,113804,2,0,L|158:168,1,70,4|0,0:0|0:0,0:0:0:0:
210,108,114128,1,0,0:0:0:0:
266,45,114291,1,0,0:0:0:0:
266,45,114453,2,0,L|343:38,1,70,4|0,0:0|0:0,0:0:0:0:
417,19,114777,5,8,0:0:0:0:
417,19,114939,1,8,0:0:0:0:
437,100,115101,1,8,0:0:0:0:
437,100,115263,1,8,0:0:0:0:
355,120,115426,1,8,0:0:0:0:
355,120,115588,1,12,0:0:0:0:
337,38,115750,1,12,0:0:0:0:
417,19,115912,1,8,0:0:0:0:
487,64,116074,6,0,B|513:123|484:177|484:177|468:144,1,140,4|4,0:0|0:0,0:0:0:0:
395,127,116561,2,0,B|365:180|414:227|414:227|385:220|359:228,1,140,0|4,0:0|0:0,0:0:0:0:
302,233,117047,2,0,P|260:240|237:260,1,70,12|8,0:0|0:0,0:0:0:0:
184,321,117372,6,0,L|192:364,4,35,4|0|0|0|4,0:0|0:0|0:0|0:0|0:0,0:0:0:0:
184,321,118020,2,0,L|261:331,1,70,0|4,0:0|0:0,0:0:0:0:
318,278,118345,2,0,P|324:243|313:204,1,70,4|0,0:0|0:0,0:0:0:0:
251,160,118669,6,0,B|217:163|217:163|198:180|198:180|107:188,1,140,4|4,0:0|0:0,0:0:0:0:
36,206,119155,2,0,B|8:217|8:217|20:142|20:142|56:118,1,140,0|4,0:0|0:0,0:0:0:0:
117,75,119642,2,0,B|150:64|150:64|194:69,1,70,4|0,0:0|0:0,0:0:0:0:
256,111,119966,5,4,0:0:0:0:
256,111,120128,1,4,0:0:0:0:
286,219,120291,1,4,0:0:0:0:
286,219,120453,1,4,0:0:0:0:
366,140,120615,2,0,L|401:116,2,35,4|4|4,0:0|0:0|0:0,0:0:0:0:
398,247,120939,1,4,0:1:0:0:
435,352,121101,1,4,0:1:0:0:
448,353,121182,1,0,0:0:0:0:
461,355,121264,5,4,0:1:0:0:
256,192,121345,12,0,123858,0:0:0:0:
