osu file format v14

[General]
AudioFilename: Oriens.mp3
AudioLeadIn: 0
PreviewTime: -1
Countdown: 1
SampleSet: Soft
StackLeniency: 0.7
Mode: 3
LetterboxInBreaks: 1
SpecialStyle: 0
WidescreenStoryboard: 0

[Editor]
DistanceSpacing: 2
BeatDivisor: 4
GridSize: 16
TimelineZoom: 1.8

[Metadata]
Title:Oriens
TitleUnicode:Oriens
Artist:ginkiha
ArtistUnicode:ginkiha
Creator:[ M o m o ]
Version:Insane
Source:BMS
Tags:cytus fighters 2012 bof2012
BeatmapID:846876
BeatmapSetID:388126

[Difficulty]
HPDrainRate:8
CircleSize:4
OverallDifficulty:8
ApproachRate:5
SliderMultiplier:1.4
SliderTickRate:1

[Events]
//Background and Video events
0,0,"maxresdefault.jpg",0,0
//Break Periods
//Storyboard Layer 0 (Background)
//Storyboard Layer 1 (Fail)
//Storyboard Layer 2 (Pass)
//Storyboard Layer 3 (Foreground)
//Storyboard Sound Samples
Sample,1714,0,"140introhihat_bip.ogg",70
Sample,1714,0,"140koto_bip.ogg",70
Sample,1714,0,"140kick_bip_0000.ogg",70
Sample,1714,0,"140synth1_bip.ogg",70
Sample,1714,0,"140FX_bip.ogg",70
Sample,1714,0,"140up_bip.ogg",70
Sample,2464,0,"140kick_bip_0001.ogg",70
Sample,2571,0,"140snr_bip_0000.ogg",70
Sample,3107,0,"140kick_bip_0002.ogg",70
Sample,3321,0,"140kick_bip_0003.ogg",70
Sample,3428,0,"140kick_bip_0004.ogg",70
Sample,3750,0,"140kick_bip_0004.ogg",70
Sample,4071,0,"140kick_bip_0006.ogg",70
Sample,4285,0,"140snr_bip_0001.ogg",70
Sample,4714,0,"140kick_bip_0007.ogg",70
Sample,5142,0,"140snr_bip_0002.ogg",70
Sample,5196,0,"140kick_bip_0008.ogg",70
Sample,5250,0,"140snr_bip_0003.ogg",70
Sample,5303,0,"140kick_bip_0009.ogg",70
Sample,5785,0,"140kick_bip_0010.ogg",70
Sample,6000,0,"140snr_bip_0004.ogg",70
Sample,6535,0,"140kick_bip_0001.ogg",70
Sample,6750,0,"140kick_bip_0012.ogg",70
Sample,6857,0,"140kick_bip_0004.ogg",70
Sample,7178,0,"140kick_bip_0004.ogg",70
Sample,7500,0,"140kick_bip_0017.ogg",70
Sample,7714,0,"140snr_bip_0005.ogg",70
Sample,7821,0,"140kick_bip_0018.ogg",70
Sample,8035,0,"140kick_bip_0018.ogg",70
Sample,8142,0,"140snr_bip_0006.ogg",70
Sample,8357,0,"140kick_bip_0018.ogg",70
Sample,8464,0,"Audio 47_bip_0035.ogg",70
Sample,8571,0,"140kick_bip_0000.ogg",70
Sample,9321,0,"140kick_bip_0000.ogg",70
Sample,9428,0,"140snr_bip_0000.ogg",70
Sample,9964,0,"140kick_bip_0012.ogg",70
Sample,10178,0,"140kick_bip_0003.ogg",70
Sample,10285,0,"140c2.ogg",70
Sample,10285,0,"140kick_bip_0004.ogg",70
Sample,10607,0,"140kick_bip_0004.ogg",70
Sample,10928,0,"140kick_bip_0006.ogg",70
Sample,11142,0,"140snr_bip_0001.ogg",70
Sample,11571,0,"140kick_bip_0007.ogg",70
Sample,12000,0,"140snr_bip_0002.ogg",70
Sample,12053,0,"140kick_bip_0008.ogg",70
Sample,12107,0,"140snr_bip_0003.ogg",70
Sample,12160,0,"140kick_bip_0009.ogg",70
Sample,12642,0,"140kick_bip_0007.ogg",70
Sample,12857,0,"140snr_bip_0011.ogg",70
Sample,13285,0,"140snr_bip_0006.ogg",70
Sample,13392,0,"140kick_bip_0004.ogg",70
Sample,13714,0,"140kick_bip_0032.ogg",70
Sample,14571,0,"140snr_bip_0013.ogg",70
Sample,15000,0,"140kick_bip_0033.ogg",70
Sample,15107,0,"140snr_bip_0014.ogg",70
Sample,15214,0,"140kick_bip_0033.ogg",70
Sample,15428,0,"140kick_bip_0035.ogg",70
Sample,15428,0,"140synth1-2_bip.ogg",70
Sample,15642,0,"140kick_bip_0035.ogg",70
Sample,15857,0,"140kick_bip_0035.ogg",70
Sample,16071,0,"140kick_bip_0035.ogg",70
Sample,16285,0,"140kick_bip_0039.ogg",70
Sample,16392,0,"140kick_bip_0039.ogg",70
Sample,16500,0,"140kick_bip_0039.ogg",70
Sample,16607,0,"140kick_bip_0039.ogg",70
Sample,16714,0,"140kick_bip_0043.ogg",70
Sample,16767,0,"140kick_bip_0043.ogg",70
Sample,16821,0,"140kick_bip_0043.ogg",70
Sample,16875,0,"140kick_bip_0043.ogg",70
Sample,16928,0,"140kick_bip_0043.ogg",70
Sample,16982,0,"140kick_bip_0043.ogg",70
Sample,17035,0,"140kick_bip_0043.ogg",70
Sample,17089,0,"140kick_bip_0043.ogg",70
Sample,17142,0,"A10FX.ogg",70
Sample,17142,0,"A10hihat.ogg",70
Sample,17142,0,"A10bass.ogg",70
Sample,17142,0,"A10Piano.ogg",70
Sample,36602,0,"A25synth.ogg",70
Sample,48277,0,"A34bcsss.ogg",70
Sample,52169,0,"A37FX.ogg",70
Sample,58656,0,"A42PAD.ogg",70
Sample,58656,0,"A42BB.ogg",70
Sample,58656,0,"42pianolow.ogg",70
Sample,67737,0,"Audio 44_bip_0001.ogg",70
Sample,69034,0,"42pianolow.ogg",70
Sample,72926,0,"Audio 44_bip_0001.ogg",70
Sample,80710,0,"A59PAD.ogg",70
Sample,80710,0,"A59bcsss.ogg",70
Sample,80710,0,"A59bass.ogg",70
Sample,80710,0,"A59hihat.ogg",70
Sample,80710,0,"A59Piano.ogg",70
Sample,96277,0,"A72FX.ogg",70
Sample,101467,0,"A75synth.ogg",70
Sample,113142,0,"Audio 47_bip_0039.ogg",70
Sample,113305,0,"Audio 47_bip_0040.ogg",70
Sample,113467,0,"Audio 48_bip_0002.ogg",70

[TimingPoints]
0,428.571428571429,4,2,0,0,1,0
0,-80,4,2,0,0,0,0
17142,324.324324324324,4,2,0,0,1,0

[HitObjects]
64,192,1714,5,0,0:0:0:0:
192,192,1714,1,0,0:0:0:0:
448,192,1714,1,0,0:0:0:0:
320,192,1821,1,0,0:0:0:0:
192,192,1928,1,0,0:0:0:0:
320,192,2035,1,0,0:0:0:0:
64,192,2142,1,0,0:0:0:0:
448,192,2250,1,0,0:0:0:0:
320,192,2357,1,0,0:0:0:0:
192,192,2464,1,0,0:0:0:0:
64,192,2464,1,0,0:0:0:0:
320,192,2571,1,0,0:0:0:0:
448,192,2571,1,0,0:0:0:0:
64,192,2678,1,0,0:0:0:0:
192,192,2785,1,0,0:0:0:0:
192,192,3000,1,0,0:0:0:0:
448,192,3107,1,0,0:0:0:0:
320,192,3107,1,0,0:0:0:0:
320,192,3321,1,0,0:0:0:0:
448,192,3321,1,0,0:0:0:0:
320,192,3428,1,0,0:0:0:0:
448,192,3428,1,0,0:0:0:0:
64,192,3642,1,0,0:0:0:0:
192,192,3750,1,0,0:0:0:0:
320,192,3750,1,0,0:0:0:0:
448,192,3857,1,0,0:0:0:0:
192,192,3964,1,0,0:0:0:0:
320,192,4071,1,0,0:0:0:0:
64,192,4071,1,0,0:0:0:0:
448,192,4178,1,0,0:0:0:0:
192,192,4285,1,0,0:0:0:0:
64,192,4285,128,0,4714:0:0:0:0:
448,192,4714,1,0,0:0:0:0:
320,192,4714,1,0,0:0:0:0:
192,192,4821,1,0,0:0:0:0:
448,192,4928,1,0,0:0:0:0:
64,192,5035,1,0,0:0:0:0:
448,192,5142,1,0,0:0:0:0:
320,192,5142,1,0,0:0:0:0:
192,192,5196,1,0,0:0:0:0:
64,192,5250,1,0,0:0:0:0:
448,192,5303,1,0,0:0:0:0:
320,192,5464,1,0,0:0:0:0:
192,192,5571,1,0,0:0:0:0:
64,192,5571,1,0,0:0:0:0:
448,192,5678,1,0,0:0:0:0:
320,192,5785,1,0,0:0:0:0:
192,192,5785,1,0,0:0:0:0:
64,192,5892,1,0,0:0:0:0:
320,192,6000,1,0,0:0:0:0:
448,192,6000,1,0,0:0:0:0:
64,192,6107,1,0,0:0:0:0:
320,192,6214,1,0,0:0:0:0:
192,192,6428,1,0,0:0:0:0:
448,192,6535,1,0,0:0:0:0:
320,192,6535,1,0,0:0:0:0:
64,192,6642,1,0,0:0:0:0:
192,192,6750,1,0,0:0:0:0:
448,192,6750,1,0,0:0:0:0:
448,192,6857,1,0,0:0:0:0:
192,192,6857,1,0,0:0:0:0:
64,192,7071,1,0,0:0:0:0:
320,192,7071,1,0,0:0:0:0:
192,192,7178,1,0,0:0:0:0:
448,192,7178,1,0,0:0:0:0:
320,192,7285,1,0,0:0:0:0:
192,192,7392,1,0,0:0:0:0:
448,192,7500,1,0,0:0:0:0:
320,192,7500,1,0,0:0:0:0:
64,192,7607,1,0,0:0:0:0:
320,192,7714,1,0,0:0:0:0:
448,192,7714,1,0,0:0:0:0:
64,192,7821,1,0,0:0:0:0:
192,192,7821,1,0,0:0:0:0:
192,192,8035,1,0,0:0:0:0:
320,192,8035,1,0,0:0:0:0:
448,192,8142,1,0,0:0:0:0:
64,192,8142,1,0,0:0:0:0:
448,192,8250,1,0,0:0:0:0:
192,192,8357,1,0,0:0:0:0:
64,192,8357,1,0,0:0:0:0:
64,192,8464,1,0,0:0:0:0:
192,192,8464,1,0,0:0:0:0:
320,192,8571,1,0,0:0:0:0:
448,192,8571,1,0,0:0:0:0:
192,192,8678,1,0,0:0:0:0:
64,192,8785,1,0,0:0:0:0:
320,192,8892,1,0,0:0:0:0:
448,192,9000,1,0,0:0:0:0:
192,192,9107,1,0,0:0:0:0:
64,192,9214,1,0,0:0:0:0:
192,192,9321,1,0,0:0:0:0:
448,192,9321,1,0,0:0:0:0:
320,192,9428,1,0,0:0:0:0:
64,192,9428,1,0,0:0:0:0:
192,192,9535,1,0,0:0:0:0:
448,192,9642,128,0,9857:0:0:0:0:
64,192,9857,1,0,0:0:0:0:
192,192,9964,1,0,0:0:0:0:
320,192,9964,1,0,0:0:0:0:
192,192,10178,1,0,0:0:0:0:
320,192,10178,1,0,0:0:0:0:
64,192,10285,1,0,0:0:0:0:
448,192,10285,1,0,0:0:0:0:
192,192,10500,1,0,0:0:0:0:
64,192,10607,1,0,0:0:0:0:
320,192,10607,1,0,0:0:0:0:
192,192,10714,1,0,0:0:0:0:
448,192,10821,1,0,0:0:0:0:
448,192,10928,1,0,0:0:0:0:
64,192,10928,1,0,0:0:0:0:
192,192,11035,1,0,0:0:0:0:
320,192,11142,1,0,0:0:0:0:
448,192,11142,1,0,0:0:0:0:
64,192,11250,1,0,0:0:0:0:
320,192,11357,1,0,0:0:0:0:
192,192,11464,1,0,0:0:0:0:
448,192,11571,1,0,0:0:0:0:
320,192,11571,1,0,0:0:0:0:
64,192,11678,1,0,0:0:0:0:
320,192,11785,1,0,0:0:0:0:
64,192,11892,1,0,0:0:0:0:
448,192,12000,1,0,0:0:0:0:
320,192,12000,1,0,0:0:0:0:
192,192,12053,1,0,0:0:0:0:
64,192,12107,1,0,0:0:0:0:
448,192,12160,1,0,0:0:0:0:
320,192,12214,1,0,0:0:0:0:
64,192,12321,1,0,0:0:0:0:
192,192,12428,1,0,0:0:0:0:
192,192,12535,1,0,0:0:0:0:
448,192,12642,1,0,0:0:0:0:
320,192,12642,1,0,0:0:0:0:
64,192,12750,1,0,0:0:0:0:
192,192,12857,1,0,0:0:0:0:
320,192,12857,1,0,0:0:0:0:
64,192,13071,128,0,13285:0:0:0:0:
192,192,13285,1,0,0:0:0:0:
320,192,13285,1,0,0:0:0:0:
448,192,13392,1,0,0:0:0:0:
64,192,13392,1,0,0:0:0:0:
320,192,13714,1,0,0:0:0:0:
192,192,13714,1,0,0:0:0:0:
320,192,13928,1,0,0:0:0:0:
64,192,14035,1,0,0:0:0:0:
448,192,14142,1,0,0:0:0:0:
320,192,14250,1,0,0:0:0:0:
64,192,14357,1,0,0:0:0:0:
448,192,14464,1,0,0:0:0:0:
192,192,14571,1,0,0:0:0:0:
64,192,14571,1,0,0:0:0:0:
320,192,14678,1,0,0:0:0:0:
192,192,14785,128,0,15000:0:0:0:0:
64,192,15000,1,0,0:0:0:0:
448,192,15000,1,0,0:0:0:0:
320,192,15107,1,0,0:0:0:0:
192,192,15107,1,0,0:0:0:0:
64,192,15214,1,0,0:0:0:0:
448,192,15214,1,0,0:0:0:0:
192,192,15428,1,0,0:0:0:0:
64,192,15428,1,0,0:0:0:0:
192,192,15642,1,0,0:0:0:0:
320,192,15642,1,0,0:0:0:0:
320,192,15857,1,0,0:0:0:0:
448,192,15857,1,0,0:0:0:0:
64,192,16071,1,0,0:0:0:0:
320,192,16071,1,0,0:0:0:0:
192,192,16285,1,0,0:0:0:0:
448,192,16285,1,0,0:0:0:0:
64,192,16392,1,0,0:0:0:0:
320,192,16392,1,0,0:0:0:0:
192,192,16500,1,0,0:0:0:0:
448,192,16500,1,0,0:0:0:0:
320,192,16607,1,0,0:0:0:0:
64,192,16607,1,0,0:0:0:0:
448,192,16714,1,0,0:0:0:0:
320,192,16767,1,0,0:0:0:0:
192,192,16821,1,0,0:0:0:0:
64,192,16875,1,0,0:0:0:0:
448,192,16928,1,0,0:0:0:0:
320,192,16982,1,0,0:0:0:0:
192,192,17035,1,0,0:0:0:0:
64,192,17089,1,0,0:0:0:0:
448,192,17142,128,0,17466:0:0:0:0:
64,192,17466,1,0,0:0:0:0:
320,192,17466,1,0,0:0:0:0:
192,192,17466,1,0,0:0:0:0:
192,192,17628,1,0,0:0:0:0:
448,192,17790,1,0,0:0:0:0:
320,192,17790,1,0,0:0:0:0:
64,192,17952,1,0,0:0:0:0:
192,192,17952,1,0,0:0:0:0:
320,192,18114,1,0,0:0:0:0:
448,192,18114,1,0,0:0:0:0:
64,192,18196,1,0,0:0:0:0:
192,192,18277,1,0,0:0:0:0:
448,192,18277,1,0,0:0:0:0:
320,192,18358,1,0,0:0:0:0:
64,192,18439,1,0,0:0:0:0:
192,192,18439,1,0,0:0:0:0:
448,192,18601,1,0,0:0:0:0:
320,192,18682,1,0,0:0:0:0:
64,192,18763,1,0,0:0:0:0:
192,192,18763,1,0,0:0:0:0:
192,192,18925,1,0,0:0:0:0:
320,192,18925,1,0,0:0:0:0:
64,192,19006,1,0,0:0:0:0:
448,192,19087,1,0,0:0:0:0:
192,192,19087,1,0,0:0:0:0:
320,192,19169,1,0,0:0:0:0:
192,192,19250,1,0,0:0:0:0:
64,192,19250,1,0,0:0:0:0:
448,192,19331,1,0,0:0:0:0:
320,192,19412,1,0,0:0:0:0:
192,192,19412,1,0,0:0:0:0:
448,192,19574,1,0,0:0:0:0:
64,192,19655,1,0,0:0:0:0:
320,192,19736,1,0,0:0:0:0:
192,192,19736,1,0,0:0:0:0:
320,192,19898,1,0,0:0:0:0:
448,192,19898,1,0,0:0:0:0:
64,192,20060,1,0,0:0:0:0:
192,192,20060,1,0,0:0:0:0:
192,192,20223,1,0,0:0:0:0:
320,192,20223,1,0,0:0:0:0:
64,192,20304,1,0,0:0:0:0:
448,192,20385,1,0,0:0:0:0:
320,192,20385,1,0,0:0:0:0:
192,192,20466,1,0,0:0:0:0:
448,192,20547,1,0,0:0:0:0:
64,192,20547,1,0,0:0:0:0:
64,192,20709,1,0,0:0:0:0:
192,192,20709,1,0,0:0:0:0:
192,192,20871,1,0,0:0:0:0:
320,192,20871,1,0,0:0:0:0:
320,192,21033,1,0,0:0:0:0:
64,192,21033,1,0,0:0:0:0:
192,192,21114,1,0,0:0:0:0:
320,192,21196,1,0,0:0:0:0:
448,192,21277,1,0,0:0:0:0:
192,192,21358,1,0,0:0:0:0:
64,192,21358,1,0,0:0:0:0:
448,192,21520,1,0,0:0:0:0:
320,192,21520,1,0,0:0:0:0:
192,192,21601,1,0,0:0:0:0:
64,192,21682,1,0,0:0:0:0:
448,192,21682,1,0,0:0:0:0:
320,192,21763,1,0,0:0:0:0:
192,192,21844,1,0,0:0:0:0:
448,192,21844,1,0,0:0:0:0:
64,192,22006,1,0,0:0:0:0:
192,192,22006,1,0,0:0:0:0:
320,192,22169,1,0,0:0:0:0:
64,192,22331,1,0,0:0:0:0:
448,192,22331,1,0,0:0:0:0:
192,192,22331,1,0,0:0:0:0:
192,192,22493,1,0,0:0:0:0:
320,192,22655,1,0,0:0:0:0:
448,192,22655,1,0,0:0:0:0:
64,192,22736,1,0,0:0:0:0:
448,192,22817,1,0,0:0:0:0:
64,192,22898,1,0,0:0:0:0:
448,192,22979,1,0,0:0:0:0:
64,192,23060,1,0,0:0:0:0:
448,192,23141,1,0,0:0:0:0:
320,192,23141,1,0,0:0:0:0:
320,192,23304,1,0,0:0:0:0:
192,192,23304,1,0,0:0:0:0:
64,192,23466,1,0,0:0:0:0:
192,192,23628,1,0,0:0:0:0:
448,192,23628,1,0,0:0:0:0:
320,192,23790,1,0,0:0:0:0:
192,192,23952,1,0,0:0:0:0:
64,192,23952,1,0,0:0:0:0:
320,192,24114,1,0,0:0:0:0:
192,192,24196,1,0,0:0:0:0:
64,192,24277,1,0,0:0:0:0:
448,192,24277,1,0,0:0:0:0:
320,192,24358,1,0,0:0:0:0:
192,192,24439,1,0,0:0:0:0:
64,192,24439,1,0,0:0:0:0:
448,192,24520,1,0,0:0:0:0:
320,192,24601,1,0,0:0:0:0:
192,192,24601,1,0,0:0:0:0:
448,192,24763,1,0,0:0:0:0:
320,192,24763,1,0,0:0:0:0:
192,192,24925,1,0,0:0:0:0:
64,192,24925,1,0,0:0:0:0:
448,192,25006,1,0,0:0:0:0:
64,192,25087,1,0,0:0:0:0:
448,192,25169,1,0,0:0:0:0:
64,192,25250,1,0,0:0:0:0:
192,192,25250,1,0,0:0:0:0:
448,192,25331,1,0,0:0:0:0:
64,192,25412,1,0,0:0:0:0:
448,192,25493,1,0,0:0:0:0:
64,192,25574,1,0,0:0:0:0:
320,192,25655,1,0,0:0:0:0:
192,192,25736,1,0,0:0:0:0:
448,192,25736,1,0,0:0:0:0:
64,192,25898,1,0,0:0:0:0:
192,192,25898,1,0,0:0:0:0:
448,192,26060,1,0,0:0:0:0:
64,192,26223,128,0,26709:0:0:0:0:
192,192,26223,1,0,0:0:0:0:
320,192,26385,1,0,0:0:0:0:
192,192,26547,1,0,0:0:0:0:
448,192,26547,1,0,0:0:0:0:
192,192,26709,128,0,27196:0:0:0:0:
320,192,26709,1,0,0:0:0:0:
64,192,27033,1,0,0:0:0:0:
320,192,27033,1,0,0:0:0:0:
448,192,27196,128,0,27520:0:0:0:0:
64,192,27196,1,0,0:0:0:0:
192,192,27358,1,0,0:0:0:0:
320,192,27520,1,0,0:0:0:0:
192,192,27520,1,0,0:0:0:0:
64,192,27520,1,0,0:0:0:0:
320,192,27844,1,0,0:0:0:0:
448,192,27844,1,0,0:0:0:0:
64,192,28006,1,0,0:0:0:0:
192,192,28087,1,0,0:0:0:0:
320,192,28169,1,0,0:0:0:0:
448,192,28169,1,0,0:0:0:0:
64,192,28250,1,0,0:0:0:0:
192,192,28331,1,0,0:0:0:0:
320,192,28331,1,0,0:0:0:0:
448,192,28493,1,0,0:0:0:0:
64,192,28493,1,0,0:0:0:0:
192,192,28574,1,0,0:0:0:0:
320,192,28655,1,0,0:0:0:0:
448,192,28736,1,0,0:0:0:0:
64,192,28817,1,0,0:0:0:0:
192,192,28817,1,0,0:0:0:0:
320,192,28979,1,0,0:0:0:0:
448,192,29141,1,0,0:0:0:0:
64,192,29141,1,0,0:0:0:0:
192,192,29304,1,0,0:0:0:0:
320,192,29304,1,0,0:0:0:0:
64,192,29385,1,0,0:0:0:0:
448,192,29466,1,0,0:0:0:0:
320,192,29466,1,0,0:0:0:0:
192,192,29547,1,0,0:0:0:0:
64,192,29628,1,0,0:0:0:0:
448,192,29628,1,0,0:0:0:0:
320,192,29709,1,0,0:0:0:0:
192,192,29790,1,0,0:0:0:0:
64,192,29790,1,0,0:0:0:0:
320,192,29952,1,0,0:0:0:0:
192,192,29952,1,0,0:0:0:0:
448,192,30033,1,0,0:0:0:0:
192,192,30114,1,0,0:0:0:0:
64,192,30114,1,0,0:0:0:0:
192,192,30277,1,0,0:0:0:0:
320,192,30277,1,0,0:0:0:0:
320,192,30439,1,0,0:0:0:0:
448,192,30439,1,0,0:0:0:0:
192,192,30601,1,0,0:0:0:0:
448,192,30601,1,0,0:0:0:0:
64,192,30682,1,0,0:0:0:0:
320,192,30763,1,0,0:0:0:0:
192,192,30763,1,0,0:0:0:0:
448,192,30844,1,0,0:0:0:0:
192,192,30925,1,0,0:0:0:0:
64,192,30925,1,0,0:0:0:0:
192,192,31087,1,0,0:0:0:0:
320,192,31087,1,0,0:0:0:0:
64,192,31250,1,0,0:0:0:0:
448,192,31250,1,0,0:0:0:0:
320,192,31412,1,0,0:0:0:0:
192,192,31412,1,0,0:0:0:0:
64,192,31574,1,0,0:0:0:0:
192,192,31655,1,0,0:0:0:0:
320,192,31736,1,0,0:0:0:0:
448,192,31736,1,0,0:0:0:0:
320,192,31898,1,0,0:0:0:0:
192,192,31898,1,0,0:0:0:0:
448,192,31979,1,0,0:0:0:0:
64,192,32060,1,0,0:0:0:0:
192,192,32060,1,0,0:0:0:0:
320,192,32141,1,0,0:0:0:0:
448,192,32223,1,0,0:0:0:0:
64,192,32223,1,0,0:0:0:0:
192,192,32385,1,0,0:0:0:0:
64,192,32385,1,0,0:0:0:0:
320,192,32547,1,0,0:0:0:0:
448,192,32709,1,0,0:0:0:0:
192,192,32709,1,0,0:0:0:0:
64,192,32709,1,0,0:0:0:0:
192,192,33033,1,0,0:0:0:0:
448,192,33033,1,0,0:0:0:0:
320,192,33114,1,0,0:0:0:0:
192,192,33196,1,0,0:0:0:0:
320,192,33277,1,0,0:0:0:0:
192,192,33358,1,0,0:0:0:0:
320,192,33439,1,0,0:0:0:0:
64,192,33520,1,0,0:0:0:0:
192,192,33520,1,0,0:0:0:0:
320,192,33601,1,0,0:0:0:0:
192,192,33682,1,0,0:0:0:0:
448,192,33682,1,0,0:0:0:0:
320,192,33844,1,0,0:0:0:0:
192,192,33844,1,0,0:0:0:0:
448,192,34006,1,0,0:0:0:0:
320,192,34006,1,0,0:0:0:0:
64,192,34169,1,0,0:0:0:0:
320,192,34331,1,0,0:0:0:0:
192,192,34331,1,0,0:0:0:0:
448,192,34493,1,0,0:0:0:0:
320,192,34574,1,0,0:0:0:0:
192,192,34655,1,0,0:0:0:0:
64,192,34655,1,0,0:0:0:0:
448,192,34736,1,0,0:0:0:0:
320,192,34817,1,0,0:0:0:0:
192,192,34817,1,0,0:0:0:0:
192,192,34979,1,0,0:0:0:0:
448,192,34979,1,0,0:0:0:0:
64,192,35141,1,0,0:0:0:0:
320,192,35304,1,0,0:0:0:0:
448,192,35304,1,0,0:0:0:0:
192,192,35385,1,0,0:0:0:0:
320,192,35466,1,0,0:0:0:0:
192,192,35547,1,0,0:0:0:0:
320,192,35628,1,0,0:0:0:0:
64,192,35628,1,0,0:0:0:0:
192,192,35709,1,0,0:0:0:0:
320,192,35790,1,0,0:0:0:0:
192,192,35871,1,0,0:0:0:0:
320,192,35952,1,0,0:0:0:0:
448,192,35952,1,0,0:0:0:0:
64,192,36033,1,0,0:0:0:0:
192,192,36114,1,0,0:0:0:0:
320,192,36114,1,0,0:0:0:0:
320,192,36277,1,0,0:0:0:0:
64,192,36277,1,0,0:0:0:0:
192,192,36439,1,0,0:0:0:0:
320,192,36439,1,0,0:0:0:0:
320,192,36601,1,0,0:0:0:0:
448,192,36601,1,0,0:0:0:0:
448,192,36763,1,0,0:0:0:0:
320,192,36763,1,0,0:0:0:0:
448,192,36925,1,0,0:0:0:0:
320,192,36925,1,0,0:0:0:0:
448,192,37087,1,0,0:0:0:0:
320,192,37087,1,0,0:0:0:0:
64,192,37087,1,0,0:0:0:0:
448,192,37250,1,0,0:0:0:0:
320,192,37250,1,0,0:0:0:0:
64,192,37331,1,0,0:0:0:0:
192,192,37412,1,0,0:0:0:0:
320,192,37412,1,0,0:0:0:0:
448,192,37412,1,0,0:0:0:0:
64,192,37574,1,0,0:0:0:0:
320,192,37655,1,0,0:0:0:0:
448,192,37655,1,0,0:0:0:0:
192,192,37655,1,0,0:0:0:0:
64,192,37736,1,0,0:0:0:0:
192,192,37817,1,0,0:0:0:0:
320,192,37898,1,0,0:0:0:0:
448,192,37898,1,0,0:0:0:0:
64,192,37898,1,0,0:0:0:0:
192,192,38060,1,0,0:0:0:0:
320,192,38223,1,0,0:0:0:0:
64,192,38223,1,0,0:0:0:0:
192,192,38385,1,0,0:0:0:0:
192,192,38547,1,0,0:0:0:0:
192,192,38709,1,0,0:0:0:0:
448,192,38709,1,0,0:0:0:0:
192,192,38871,1,0,0:0:0:0:
64,192,38871,1,0,0:0:0:0:
192,192,39033,1,0,0:0:0:0:
320,192,39196,1,0,0:0:0:0:
448,192,39196,1,0,0:0:0:0:
192,192,39277,1,0,0:0:0:0:
448,192,39358,1,0,0:0:0:0:
64,192,39358,1,0,0:0:0:0:
320,192,39439,1,0,0:0:0:0:
64,192,39520,1,0,0:0:0:0:
192,192,39520,1,0,0:0:0:0:
448,192,39601,1,0,0:0:0:0:
320,192,39682,1,0,0:0:0:0:
192,192,39763,1,0,0:0:0:0:
448,192,39844,128,0,40006:0:0:0:0:
64,192,39844,1,0,0:0:0:0:
64,192,40006,1,0,0:0:0:0:
320,192,40006,1,0,0:0:0:0:
320,192,40169,128,0,40493:0:0:0:0:
192,192,40169,1,0,0:0:0:0:
448,192,40493,1,0,0:0:0:0:
192,192,40493,1,0,0:0:0:0:
64,192,40655,1,0,0:0:0:0:
192,192,40736,1,0,0:0:0:0:
64,192,40817,1,0,0:0:0:0:
320,192,40817,1,0,0:0:0:0:
192,192,40898,1,0,0:0:0:0:
320,192,40979,1,0,0:0:0:0:
448,192,41060,1,0,0:0:0:0:
192,192,41141,1,0,0:0:0:0:
64,192,41141,1,0,0:0:0:0:
320,192,41223,1,0,0:0:0:0:
448,192,41304,1,0,0:0:0:0:
192,192,41304,1,0,0:0:0:0:
64,192,41385,1,0,0:0:0:0:
320,192,41466,1,0,0:0:0:0:
448,192,41466,1,0,0:0:0:0:
192,192,41547,1,0,0:0:0:0:
64,192,41628,1,0,0:0:0:0:
320,192,41709,1,0,0:0:0:0:
192,192,41790,1,0,0:0:0:0:
64,192,41790,1,0,0:0:0:0:
448,192,41952,1,0,0:0:0:0:
192,192,41952,1,0,0:0:0:0:
64,192,42114,1,0,0:0:0:0:
320,192,42114,1,0,0:0:0:0:
320,192,42277,1,0,0:0:0:0:
320,192,42439,1,0,0:0:0:0:
192,192,42439,1,0,0:0:0:0:
448,192,42520,1,0,0:0:0:0:
192,192,42601,1,0,0:0:0:0:
64,192,42601,1,0,0:0:0:0:
320,192,42682,1,0,0:0:0:0:
448,192,42763,1,0,0:0:0:0:
192,192,42763,1,0,0:0:0:0:
320,192,42844,1,0,0:0:0:0:
64,192,42925,1,0,0:0:0:0:
320,192,43006,1,0,0:0:0:0:
192,192,43087,1,0,0:0:0:0:
448,192,43087,128,0,43412:0:0:0:0:
192,192,43250,1,0,0:0:0:0:
64,192,43412,1,0,0:0:0:0:
320,192,43412,1,0,0:0:0:0:
64,192,43574,128,0,43736:0:0:0:0:
448,192,43574,1,0,0:0:0:0:
320,192,43655,1,0,0:0:0:0:
192,192,43736,1,0,0:0:0:0:
448,192,43817,1,0,0:0:0:0:
320,192,43898,128,0,44060:0:0:0:0:
64,192,43898,1,0,0:0:0:0:
448,192,44060,128,0,45033:0:0:0:0:
192,192,44060,1,0,0:0:0:0:
64,192,44060,1,0,0:0:0:0:
192,192,44223,1,0,0:0:0:0:
320,192,44385,1,0,0:0:0:0:
64,192,44385,1,0,0:0:0:0:
64,192,44547,1,0,0:0:0:0:
320,192,44547,1,0,0:0:0:0:
64,192,44709,1,0,0:0:0:0:
192,192,44709,1,0,0:0:0:0:
64,192,44871,1,0,0:0:0:0:
192,192,44952,1,0,0:0:0:0:
64,192,45033,128,0,45358:0:0:0:0:
320,192,45033,1,0,0:0:0:0:
192,192,45114,1,0,0:0:0:0:
448,192,45196,1,0,0:0:0:0:
320,192,45196,1,0,0:0:0:0:
320,192,45358,1,0,0:0:0:0:
192,192,45358,128,0,45682:0:0:0:0:
448,192,45520,128,0,45682:0:0:0:0:
64,192,45682,1,0,0:0:0:0:
320,192,45682,128,0,46006:0:0:0:0:
64,192,45844,1,0,0:0:0:0:
192,192,46006,1,0,0:0:0:0:
448,192,46006,1,0,0:0:0:0:
192,192,46169,128,0,46331:0:0:0:0:
320,192,46169,1,0,0:0:0:0:
448,192,46250,1,0,0:0:0:0:
64,192,46331,1,0,0:0:0:0:
448,192,46412,1,0,0:0:0:0:
320,192,46493,128,0,46655:0:0:0:0:
192,192,46493,1,0,0:0:0:0:
448,192,46655,128,0,48277:0:0:0:0:
64,192,46655,1,0,0:0:0:0:
320,192,46817,1,0,0:0:0:0:
192,192,46979,1,0,0:0:0:0:
64,192,46979,1,0,0:0:0:0:
64,192,47141,1,0,0:0:0:0:
192,192,47141,1,0,0:0:0:0:
192,192,47304,1,0,0:0:0:0:
320,192,47304,1,0,0:0:0:0:
320,192,47466,1,0,0:0:0:0:
192,192,47547,1,0,0:0:0:0:
64,192,47628,1,0,0:0:0:0:
320,192,47709,1,0,0:0:0:0:
192,192,47790,1,0,0:0:0:0:
64,192,47790,1,0,0:0:0:0:
320,192,47952,1,0,0:0:0:0:
192,192,47952,1,0,0:0:0:0:
64,192,48114,1,0,0:0:0:0:
320,192,48277,1,0,0:0:0:0:
192,192,48277,1,0,0:0:0:0:
64,192,48277,1,0,0:0:0:0:
448,192,48439,1,0,0:0:0:0:
448,192,48601,1,0,0:0:0:0:
320,192,48601,1,0,0:0:0:0:
448,192,48763,1,0,0:0:0:0:
448,192,48925,1,0,0:0:0:0:
448,192,49087,1,0,0:0:0:0:
64,192,49087,1,0,0:0:0:0:
448,192,49250,1,0,0:0:0:0:
192,192,49250,1,0,0:0:0:0:
448,192,49412,1,0,0:0:0:0:
64,192,49574,1,0,0:0:0:0:
192,192,49574,1,0,0:0:0:0:
320,192,49655,1,0,0:0:0:0:
448,192,49736,1,0,0:0:0:0:
64,192,49736,1,0,0:0:0:0:
192,192,49817,1,0,0:0:0:0:
320,192,49898,1,0,0:0:0:0:
448,192,49898,1,0,0:0:0:0:
64,192,49979,1,0,0:0:0:0:
192,192,50060,1,0,0:0:0:0:
320,192,50141,1,0,0:0:0:0:
64,192,50223,128,0,50385:0:0:0:0:
448,192,50223,1,0,0:0:0:0:
320,192,50385,1,0,0:0:0:0:
448,192,50385,1,0,0:0:0:0:
192,192,50547,128,0,50871:0:0:0:0:
64,192,50547,1,0,0:0:0:0:
448,192,50871,1,0,0:0:0:0:
320,192,50871,1,0,0:0:0:0:
448,192,51033,1,0,0:0:0:0:
320,192,51114,1,0,0:0:0:0:
192,192,51196,1,0,0:0:0:0:
64,192,51196,1,0,0:0:0:0:
320,192,51277,1,0,0:0:0:0:
192,192,51358,1,0,0:0:0:0:
64,192,51439,1,0,0:0:0:0:
448,192,51520,1,0,0:0:0:0:
320,192,51520,1,0,0:0:0:0:
64,192,51601,1,0,0:0:0:0:
192,192,51682,1,0,0:0:0:0:
448,192,51682,1,0,0:0:0:0:
320,192,51763,1,0,0:0:0:0:
192,192,51844,1,0,0:0:0:0:
64,192,51844,1,0,0:0:0:0:
448,192,51925,1,0,0:0:0:0:
320,192,52006,1,0,0:0:0:0:
192,192,52087,1,0,0:0:0:0:
320,192,52169,128,0,52655:0:0:0:0:
64,192,52169,1,0,0:0:0:0:
64,192,52331,1,0,0:0:0:0:
192,192,52331,1,0,0:0:0:0:
192,192,52493,1,0,0:0:0:0:
448,192,52493,1,0,0:0:0:0:
192,192,52655,128,0,53141:0:0:0:0:
448,192,52655,1,0,0:0:0:0:
64,192,52817,1,0,0:0:0:0:
320,192,52979,1,0,0:0:0:0:
448,192,52979,1,0,0:0:0:0:
64,192,53141,128,0,53466:0:0:0:0:
320,192,53141,1,0,0:0:0:0:
448,192,53141,1,0,0:0:0:0:
448,192,53304,1,0,0:0:0:0:
320,192,53385,1,0,0:0:0:0:
192,192,53466,1,0,0:0:0:0:
448,192,53466,1,0,0:0:0:0:
320,192,53628,1,0,0:0:0:0:
192,192,53628,1,0,0:0:0:0:
320,192,53790,1,0,0:0:0:0:
64,192,53790,1,0,0:0:0:0:
64,192,53952,1,0,0:0:0:0:
192,192,53952,1,0,0:0:0:0:
320,192,54033,1,0,0:0:0:0:
448,192,54114,1,0,0:0:0:0:
64,192,54114,1,0,0:0:0:0:
192,192,54196,1,0,0:0:0:0:
320,192,54277,1,0,0:0:0:0:
448,192,54277,1,0,0:0:0:0:
192,192,54439,1,0,0:0:0:0:
64,192,54439,1,0,0:0:0:0:
320,192,54601,1,0,0:0:0:0:
192,192,54601,1,0,0:0:0:0:
64,192,54682,1,0,0:0:0:0:
448,192,54763,1,0,0:0:0:0:
320,192,54763,1,0,0:0:0:0:
192,192,54844,1,0,0:0:0:0:
64,192,54925,1,0,0:0:0:0:
448,192,54925,1,0,0:0:0:0:
320,192,55006,1,0,0:0:0:0:
192,192,55087,1,0,0:0:0:0:
64,192,55087,1,0,0:0:0:0:
320,192,55250,1,0,0:0:0:0:
448,192,55331,1,0,0:0:0:0:
192,192,55412,1,0,0:0:0:0:
64,192,55412,1,0,0:0:0:0:
320,192,55493,1,0,0:0:0:0:
448,192,55574,1,0,0:0:0:0:
192,192,55655,1,0,0:0:0:0:
64,192,55736,1,0,0:0:0:0:
320,192,55736,1,0,0:0:0:0:
192,192,55898,1,0,0:0:0:0:
320,192,56060,1,0,0:0:0:0:
448,192,56060,1,0,0:0:0:0:
64,192,56223,1,0,0:0:0:0:
320,192,56223,1,0,0:0:0:0:
192,192,56385,1,0,0:0:0:0:
448,192,56385,1,0,0:0:0:0:
320,192,56547,1,0,0:0:0:0:
192,192,56628,1,0,0:0:0:0:
64,192,56709,1,0,0:0:0:0:
448,192,56709,1,0,0:0:0:0:
320,192,56790,1,0,0:0:0:0:
192,192,56871,1,0,0:0:0:0:
64,192,56871,1,0,0:0:0:0:
320,192,57033,1,0,0:0:0:0:
448,192,57033,1,0,0:0:0:0:
192,192,57114,1,0,0:0:0:0:
320,192,57196,1,0,0:0:0:0:
64,192,57196,1,0,0:0:0:0:
192,192,57358,1,0,0:0:0:0:
448,192,57358,1,0,0:0:0:0:
192,192,57520,1,0,0:0:0:0:
448,192,57520,1,0,0:0:0:0:
192,192,57682,1,0,0:0:0:0:
64,192,57682,1,0,0:0:0:0:
448,192,57844,1,0,0:0:0:0:
320,192,57844,1,0,0:0:0:0:
64,192,57925,1,0,0:0:0:0:
320,192,58006,1,0,0:0:0:0:
448,192,58006,1,0,0:0:0:0:
192,192,58087,1,0,0:0:0:0:
64,192,58087,1,0,0:0:0:0:
320,192,58169,1,0,0:0:0:0:
448,192,58169,1,0,0:0:0:0:
192,192,58250,1,0,0:0:0:0:
64,192,58250,1,0,0:0:0:0:
448,192,58331,128,0,58655:0:0:0:0:
320,192,58331,128,0,58655:0:0:0:0:
64,192,58655,1,0,0:0:0:0:
192,192,58655,1,0,0:0:0:0:
64,192,58817,1,0,0:0:0:0:
192,192,58979,1,0,0:0:0:0:
448,192,58979,1,0,0:0:0:0:
64,192,59141,1,0,0:0:0:0:
320,192,59141,1,0,0:0:0:0:
192,192,59304,1,0,0:0:0:0:
320,192,59466,1,0,0:0:0:0:
448,192,59466,1,0,0:0:0:0:
64,192,59628,1,0,0:0:0:0:
192,192,59709,1,0,0:0:0:0:
320,192,59790,1,0,0:0:0:0:
448,192,59790,1,0,0:0:0:0:
64,192,59952,1,0,0:0:0:0:
320,192,60114,1,0,0:0:0:0:
448,192,60114,1,0,0:0:0:0:
192,192,60277,1,0,0:0:0:0:
320,192,60439,1,0,0:0:0:0:
448,192,60439,1,0,0:0:0:0:
320,192,60601,1,0,0:0:0:0:
192,192,60601,1,0,0:0:0:0:
192,192,60763,1,0,0:0:0:0:
64,192,60763,1,0,0:0:0:0:
320,192,60844,1,0,0:0:0:0:
64,192,60925,1,0,0:0:0:0:
448,192,60925,1,0,0:0:0:0:
192,192,61006,1,0,0:0:0:0:
320,192,61087,1,0,0:0:0:0:
448,192,61087,1,0,0:0:0:0:
192,192,61250,1,0,0:0:0:0:
64,192,61250,1,0,0:0:0:0:
192,192,61412,1,0,0:0:0:0:
320,192,61412,1,0,0:0:0:0:
320,192,61574,1,0,0:0:0:0:
448,192,61574,1,0,0:0:0:0:
448,192,61736,1,0,0:0:0:0:
192,192,61736,1,0,0:0:0:0:
448,192,62060,1,0,0:0:0:0:
64,192,62060,1,0,0:0:0:0:
320,192,62223,1,0,0:0:0:0:
320,192,62304,1,0,0:0:0:0:
448,192,62385,1,0,0:0:0:0:
64,192,62385,1,0,0:0:0:0:
320,192,62547,1,0,0:0:0:0:
448,192,62709,1,0,0:0:0:0:
64,192,62709,1,0,0:0:0:0:
320,192,62790,1,0,0:0:0:0:
192,192,62871,1,0,0:0:0:0:
448,192,63033,1,0,0:0:0:0:
320,192,63033,1,0,0:0:0:0:
320,192,63196,1,0,0:0:0:0:
192,192,63196,1,0,0:0:0:0:
448,192,63277,1,0,0:0:0:0:
192,192,63358,1,0,0:0:0:0:
64,192,63358,1,0,0:0:0:0:
320,192,63439,1,0,0:0:0:0:
448,192,63520,1,0,0:0:0:0:
64,192,63520,1,0,0:0:0:0:
192,192,63601,1,0,0:0:0:0:
320,192,63682,1,0,0:0:0:0:
64,192,63682,1,0,0:0:0:0:
448,192,63844,1,0,0:0:0:0:
320,192,63844,1,0,0:0:0:0:
320,192,64006,1,0,0:0:0:0:
192,192,64006,1,0,0:0:0:0:
192,192,64169,1,0,0:0:0:0:
64,192,64169,1,0,0:0:0:0:
64,192,64331,1,0,0:0:0:0:
448,192,64331,1,0,0:0:0:0:
320,192,64412,1,0,0:0:0:0:
192,192,64493,1,0,0:0:0:0:
448,192,64574,1,0,0:0:0:0:
64,192,64655,1,0,0:0:0:0:
192,192,64655,1,0,0:0:0:0:
320,192,64817,1,0,0:0:0:0:
320,192,64898,1,0,0:0:0:0:
448,192,64979,1,0,0:0:0:0:
64,192,64979,128,0,65141:0:0:0:0:
448,192,65141,1,0,0:0:0:0:
192,192,65304,128,0,65466:0:0:0:0:
320,192,65304,1,0,0:0:0:0:
64,192,65466,1,0,0:0:0:0:
320,192,65628,128,0,65790:0:0:0:0:
192,192,65628,1,0,0:0:0:0:
64,192,65790,128,0,65952:0:0:0:0:
448,192,65790,1,0,0:0:0:0:
448,192,65952,128,0,66114:0:0:0:0:
320,192,65952,1,0,0:0:0:0:
192,192,66114,128,0,66277:0:0:0:0:
64,192,66114,1,0,0:0:0:0:
448,192,66277,1,0,0:0:0:0:
64,192,66439,1,0,0:0:0:0:
192,192,66439,1,0,0:0:0:0:
192,192,66601,1,0,0:0:0:0:
448,192,66601,1,0,0:0:0:0:
320,192,66763,1,0,0:0:0:0:
448,192,66763,1,0,0:0:0:0:
64,192,66925,1,0,0:0:0:0:
320,192,66925,1,0,0:0:0:0:
448,192,67006,1,0,0:0:0:0:
192,192,67087,1,0,0:0:0:0:
320,192,67169,1,0,0:0:0:0:
448,192,67250,1,0,0:0:0:0:
64,192,67250,1,0,0:0:0:0:
192,192,67412,1,0,0:0:0:0:
192,192,67493,1,0,0:0:0:0:
64,192,67574,128,0,67736:0:0:0:0:
448,192,67574,1,0,0:0:0:0:
64,192,67898,1,0,0:0:0:0:
320,192,67898,128,0,68060:0:0:0:0:
448,192,68060,1,0,0:0:0:0:
192,192,68060,1,0,0:0:0:0:
448,192,68223,128,0,68385:0:0:0:0:
64,192,68223,1,0,0:0:0:0:
192,192,68385,1,0,0:0:0:0:
64,192,68466,1,0,0:0:0:0:
320,192,68547,128,0,68709:0:0:0:0:
192,192,68709,128,0,68871:0:0:0:0:
448,192,68709,1,0,0:0:0:0:
64,192,68871,128,0,69033:0:0:0:0:
320,192,68871,1,0,0:0:0:0:
192,192,69033,1,0,0:0:0:0:
448,192,69033,1,0,0:0:0:0:
320,192,69033,1,0,0:0:0:0:
448,192,69196,1,0,0:0:0:0:
320,192,69196,1,0,0:0:0:0:
192,192,69358,1,0,0:0:0:0:
64,192,69358,1,0,0:0:0:0:
320,192,69520,1,0,0:0:0:0:
192,192,69520,1,0,0:0:0:0:
64,192,69601,1,0,0:0:0:0:
320,192,69682,1,0,0:0:0:0:
448,192,69682,1,0,0:0:0:0:
192,192,69763,1,0,0:0:0:0:
64,192,69844,1,0,0:0:0:0:
448,192,69844,1,0,0:0:0:0:
320,192,69925,1,0,0:0:0:0:
192,192,70006,1,0,0:0:0:0:
64,192,70006,1,0,0:0:0:0:
192,192,70087,1,0,0:0:0:0:
320,192,70169,1,0,0:0:0:0:
448,192,70169,1,0,0:0:0:0:
320,192,70331,1,0,0:0:0:0:
448,192,70331,1,0,0:0:0:0:
64,192,70493,1,0,0:0:0:0:
192,192,70493,1,0,0:0:0:0:
192,192,70655,1,0,0:0:0:0:
320,192,70655,1,0,0:0:0:0:
64,192,70736,1,0,0:0:0:0:
320,192,70817,1,0,0:0:0:0:
448,192,70817,1,0,0:0:0:0:
192,192,70898,1,0,0:0:0:0:
64,192,70979,1,0,0:0:0:0:
448,192,70979,1,0,0:0:0:0:
320,192,71060,1,0,0:0:0:0:
192,192,71141,1,0,0:0:0:0:
448,192,71141,1,0,0:0:0:0:
64,192,71223,1,0,0:0:0:0:
320,192,71304,1,0,0:0:0:0:
192,192,71304,1,0,0:0:0:0:
320,192,71466,1,0,0:0:0:0:
448,192,71466,1,0,0:0:0:0:
64,192,71628,1,0,0:0:0:0:
192,192,71628,1,0,0:0:0:0:
192,192,71790,1,0,0:0:0:0:
320,192,71790,1,0,0:0:0:0:
448,192,71952,1,0,0:0:0:0:
64,192,71952,1,0,0:0:0:0:
192,192,72114,1,0,0:0:0:0:
64,192,72114,1,0,0:0:0:0:
320,192,72196,1,0,0:0:0:0:
448,192,72277,1,0,0:0:0:0:
64,192,72277,1,0,0:0:0:0:
192,192,72358,1,0,0:0:0:0:
320,192,72439,1,0,0:0:0:0:
448,192,72439,1,0,0:0:0:0:
64,192,72520,1,0,0:0:0:0:
448,192,72601,1,0,0:0:0:0:
192,192,72601,1,0,0:0:0:0:
448,192,72682,1,0,0:0:0:0:
320,192,72763,1,0,0:0:0:0:
192,192,72763,1,0,0:0:0:0:
64,192,72844,1,0,0:0:0:0:
448,192,72925,1,0,0:0:0:0:
320,192,73087,1,0,0:0:0:0:
192,192,73087,1,0,0:0:0:0:
64,192,73250,1,0,0:0:0:0:
320,192,73250,1,0,0:0:0:0:
192,192,73412,1,0,0:0:0:0:
448,192,73412,1,0,0:0:0:0:
64,192,73493,1,0,0:0:0:0:
448,192,73574,1,0,0:0:0:0:
320,192,73574,1,0,0:0:0:0:
64,192,73655,1,0,0:0:0:0:
192,192,73736,1,0,0:0:0:0:
448,192,73736,1,0,0:0:0:0:
320,192,73817,1,0,0:0:0:0:
64,192,73898,1,0,0:0:0:0:
192,192,73898,1,0,0:0:0:0:
192,192,74060,1,0,0:0:0:0:
320,192,74060,1,0,0:0:0:0:
448,192,74223,1,0,0:0:0:0:
192,192,74223,1,0,0:0:0:0:
64,192,74223,1,0,0:0:0:0:
192,192,74385,1,0,0:0:0:0:
320,192,74385,1,0,0:0:0:0:
320,192,74547,1,0,0:0:0:0:
448,192,74547,1,0,0:0:0:0:
64,192,74709,1,0,0:0:0:0:
192,192,74709,1,0,0:0:0:0:
448,192,74790,1,0,0:0:0:0:
320,192,74871,1,0,0:0:0:0:
64,192,74871,1,0,0:0:0:0:
192,192,74952,1,0,0:0:0:0:
320,192,75033,1,0,0:0:0:0:
448,192,75033,1,0,0:0:0:0:
192,192,75114,1,0,0:0:0:0:
64,192,75196,1,0,0:0:0:0:
320,192,75196,1,0,0:0:0:0:
64,192,75277,1,0,0:0:0:0:
192,192,75358,1,0,0:0:0:0:
320,192,75358,1,0,0:0:0:0:
320,192,75520,1,0,0:0:0:0:
64,192,75520,1,0,0:0:0:0:
448,192,75520,1,0,0:0:0:0:
448,192,75682,1,0,0:0:0:0:
320,192,75682,1,0,0:0:0:0:
192,192,75844,1,0,0:0:0:0:
64,192,75844,1,0,0:0:0:0:
448,192,75925,1,0,0:0:0:0:
192,192,76006,1,0,0:0:0:0:
64,192,76006,1,0,0:0:0:0:
320,192,76087,1,0,0:0:0:0:
448,192,76169,1,0,0:0:0:0:
192,192,76169,1,0,0:0:0:0:
64,192,76250,1,0,0:0:0:0:
320,192,76331,1,0,0:0:0:0:
448,192,76331,1,0,0:0:0:0:
192,192,76412,1,0,0:0:0:0:
64,192,76493,1,0,0:0:0:0:
320,192,76493,1,0,0:0:0:0:
192,192,76655,1,0,0:0:0:0:
320,192,76655,1,0,0:0:0:0:
448,192,76817,1,0,0:0:0:0:
192,192,76817,1,0,0:0:0:0:
64,192,76817,1,0,0:0:0:0:
64,192,76979,1,0,0:0:0:0:
448,192,76979,1,0,0:0:0:0:
192,192,77141,1,0,0:0:0:0:
320,192,77141,1,0,0:0:0:0:
320,192,77304,1,0,0:0:0:0:
448,192,77304,1,0,0:0:0:0:
64,192,77466,1,0,0:0:0:0:
192,192,77466,1,0,0:0:0:0:
320,192,77466,1,0,0:0:0:0:
448,192,77628,1,0,0:0:0:0:
320,192,77628,1,0,0:0:0:0:
192,192,77709,1,0,0:0:0:0:
64,192,77790,1,0,0:0:0:0:
448,192,77790,1,0,0:0:0:0:
448,192,77871,1,0,0:0:0:0:
192,192,77952,1,0,0:0:0:0:
320,192,77952,1,0,0:0:0:0:
448,192,78114,1,0,0:0:0:0:
64,192,78114,1,0,0:0:0:0:
192,192,78114,1,0,0:0:0:0:
64,192,78277,1,0,0:0:0:0:
320,192,78277,1,0,0:0:0:0:
320,192,78439,1,0,0:0:0:0:
192,192,78439,1,0,0:0:0:0:
448,192,78601,1,0,0:0:0:0:
192,192,78601,1,0,0:0:0:0:
64,192,78601,1,0,0:0:0:0:
320,192,78763,1,0,0:0:0:0:
64,192,78763,1,0,0:0:0:0:
320,192,78925,1,0,0:0:0:0:
448,192,78925,1,0,0:0:0:0:
192,192,78925,1,0,0:0:0:0:
192,192,79087,1,0,0:0:0:0:
64,192,79087,1,0,0:0:0:0:
448,192,79250,1,0,0:0:0:0:
64,192,79250,1,0,0:0:0:0:
320,192,79250,1,0,0:0:0:0:
192,192,79412,1,0,0:0:0:0:
448,192,79574,1,0,0:0:0:0:
64,192,79574,1,0,0:0:0:0:
320,192,79655,1,0,0:0:0:0:
192,192,79736,1,0,0:0:0:0:
64,192,79736,1,0,0:0:0:0:
448,192,79817,1,0,0:0:0:0:
192,192,79898,1,0,0:0:0:0:
64,192,79979,1,0,0:0:0:0:
320,192,79979,1,0,0:0:0:0:
448,192,80060,1,0,0:0:0:0:
320,192,80141,1,0,0:0:0:0:
192,192,80223,1,0,0:0:0:0:
64,192,80223,1,0,0:0:0:0:
320,192,80304,1,0,0:0:0:0:
64,192,80385,1,0,0:0:0:0:
448,192,80385,1,0,0:0:0:0:
192,192,80547,1,0,0:0:0:0:
448,192,80547,1,0,0:0:0:0:
64,192,80709,1,0,0:0:0:0:
192,192,80709,1,0,0:0:0:0:
320,192,80709,1,0,0:0:0:0:
320,192,81033,1,0,0:0:0:0:
192,192,81033,1,0,0:0:0:0:
448,192,81033,1,0,0:0:0:0:
64,192,81033,1,0,0:0:0:0:
320,192,81196,1,0,0:0:0:0:
192,192,81358,1,0,0:0:0:0:
64,192,81358,1,0,0:0:0:0:
320,192,81520,1,0,0:0:0:0:
448,192,81520,1,0,0:0:0:0:
64,192,81682,1,0,0:0:0:0:
192,192,81682,1,0,0:0:0:0:
448,192,81763,1,0,0:0:0:0:
64,192,81844,1,0,0:0:0:0:
320,192,81844,1,0,0:0:0:0:
192,192,81925,1,0,0:0:0:0:
320,192,82006,1,0,0:0:0:0:
448,192,82006,1,0,0:0:0:0:
64,192,82169,1,0,0:0:0:0:
192,192,82250,1,0,0:0:0:0:
320,192,82331,1,0,0:0:0:0:
448,192,82331,1,0,0:0:0:0:
192,192,82493,1,0,0:0:0:0:
320,192,82493,1,0,0:0:0:0:
448,192,82574,1,0,0:0:0:0:
320,192,82655,1,0,0:0:0:0:
64,192,82655,1,0,0:0:0:0:
192,192,82736,1,0,0:0:0:0:
448,192,82817,1,0,0:0:0:0:
320,192,82817,1,0,0:0:0:0:
64,192,82898,1,0,0:0:0:0:
320,192,82979,1,0,0:0:0:0:
192,192,82979,1,0,0:0:0:0:
64,192,83141,1,0,0:0:0:0:
448,192,83223,1,0,0:0:0:0:
320,192,83304,1,0,0:0:0:0:
192,192,83304,1,0,0:0:0:0:
64,192,83466,1,0,0:0:0:0:
192,192,83466,1,0,0:0:0:0:
320,192,83628,1,0,0:0:0:0:
448,192,83628,1,0,0:0:0:0:
192,192,83790,1,0,0:0:0:0:
320,192,83790,1,0,0:0:0:0:
448,192,83871,1,0,0:0:0:0:
192,192,83952,1,0,0:0:0:0:
64,192,83952,1,0,0:0:0:0:
320,192,84033,1,0,0:0:0:0:
448,192,84114,1,0,0:0:0:0:
64,192,84114,1,0,0:0:0:0:
320,192,84277,1,0,0:0:0:0:
448,192,84277,1,0,0:0:0:0:
192,192,84439,1,0,0:0:0:0:
320,192,84439,1,0,0:0:0:0:
448,192,84601,1,0,0:0:0:0:
192,192,84601,1,0,0:0:0:0:
320,192,84682,1,0,0:0:0:0:
192,192,84763,1,0,0:0:0:0:
64,192,84844,1,0,0:0:0:0:
448,192,84925,1,0,0:0:0:0:
320,192,84925,1,0,0:0:0:0:
192,192,85087,1,0,0:0:0:0:
64,192,85087,1,0,0:0:0:0:
320,192,85169,1,0,0:0:0:0:
64,192,85250,1,0,0:0:0:0:
448,192,85250,1,0,0:0:0:0:
192,192,85331,1,0,0:0:0:0:
64,192,85412,1,0,0:0:0:0:
320,192,85412,1,0,0:0:0:0:
320,192,85574,1,0,0:0:0:0:
448,192,85574,1,0,0:0:0:0:
192,192,85736,1,0,0:0:0:0:
320,192,85898,1,0,0:0:0:0:
64,192,85898,1,0,0:0:0:0:
448,192,85898,1,0,0:0:0:0:
320,192,86060,1,0,0:0:0:0:
64,192,86223,1,0,0:0:0:0:
192,192,86223,1,0,0:0:0:0:
448,192,86304,1,0,0:0:0:0:
64,192,86385,1,0,0:0:0:0:
448,192,86466,1,0,0:0:0:0:
64,192,86547,1,0,0:0:0:0:
448,192,86628,1,0,0:0:0:0:
192,192,86709,1,0,0:0:0:0:
64,192,86709,1,0,0:0:0:0:
320,192,86871,1,0,0:0:0:0:
192,192,86871,1,0,0:0:0:0:
448,192,87033,1,0,0:0:0:0:
64,192,87196,1,0,0:0:0:0:
320,192,87196,1,0,0:0:0:0:
192,192,87358,1,0,0:0:0:0:
448,192,87520,1,0,0:0:0:0:
320,192,87520,1,0,0:0:0:0:
192,192,87682,1,0,0:0:0:0:
320,192,87763,1,0,0:0:0:0:
64,192,87844,1,0,0:0:0:0:
448,192,87844,1,0,0:0:0:0:
192,192,87925,1,0,0:0:0:0:
448,192,88006,1,0,0:0:0:0:
320,192,88006,1,0,0:0:0:0:
64,192,88087,1,0,0:0:0:0:
320,192,88169,1,0,0:0:0:0:
192,192,88169,1,0,0:0:0:0:
192,192,88331,1,0,0:0:0:0:
64,192,88331,1,0,0:0:0:0:
448,192,88493,1,0,0:0:0:0:
320,192,88493,1,0,0:0:0:0:
64,192,88574,1,0,0:0:0:0:
448,192,88655,1,0,0:0:0:0:
64,192,88736,1,0,0:0:0:0:
320,192,88817,1,0,0:0:0:0:
448,192,88817,1,0,0:0:0:0:
64,192,88898,1,0,0:0:0:0:
448,192,88979,1,0,0:0:0:0:
64,192,89060,1,0,0:0:0:0:
448,192,89141,1,0,0:0:0:0:
192,192,89223,1,0,0:0:0:0:
64,192,89304,1,0,0:0:0:0:
320,192,89304,1,0,0:0:0:0:
320,192,89466,1,0,0:0:0:0:
448,192,89466,1,0,0:0:0:0:
64,192,89628,1,0,0:0:0:0:
320,192,89790,1,0,0:0:0:0:
448,192,89790,128,0,90277:0:0:0:0:
192,192,89952,1,0,0:0:0:0:
64,192,90114,1,0,0:0:0:0:
320,192,90114,1,0,0:0:0:0:
192,192,90277,1,0,0:0:0:0:
320,192,90277,128,0,90763:0:0:0:0:
192,192,90601,1,0,0:0:0:0:
448,192,90601,1,0,0:0:0:0:
448,192,90763,1,0,0:0:0:0:
192,192,90763,1,0,0:0:0:0:
64,192,90763,128,0,91087:0:0:0:0:
320,192,90925,1,0,0:0:0:0:
448,192,91087,1,0,0:0:0:0:
320,192,91087,1,0,0:0:0:0:
192,192,91087,1,0,0:0:0:0:
64,192,91412,1,0,0:0:0:0:
192,192,91412,1,0,0:0:0:0:
448,192,91574,1,0,0:0:0:0:
320,192,91655,1,0,0:0:0:0:
64,192,91736,1,0,0:0:0:0:
192,192,91736,1,0,0:0:0:0:
448,192,91817,1,0,0:0:0:0:
192,192,91898,1,0,0:0:0:0:
320,192,91898,1,0,0:0:0:0:
448,192,92060,1,0,0:0:0:0:
64,192,92060,1,0,0:0:0:0:
320,192,92141,1,0,0:0:0:0:
192,192,92223,1,0,0:0:0:0:
64,192,92304,1,0,0:0:0:0:
320,192,92385,1,0,0:0:0:0:
448,192,92385,1,0,0:0:0:0:
192,192,92547,1,0,0:0:0:0:
448,192,92709,1,0,0:0:0:0:
64,192,92709,1,0,0:0:0:0:
192,192,92871,1,0,0:0:0:0:
320,192,92871,1,0,0:0:0:0:
448,192,92952,1,0,0:0:0:0:
192,192,93033,1,0,0:0:0:0:
64,192,93033,1,0,0:0:0:0:
320,192,93114,1,0,0:0:0:0:
64,192,93196,1,0,0:0:0:0:
448,192,93196,1,0,0:0:0:0:
192,192,93277,1,0,0:0:0:0:
448,192,93358,1,0,0:0:0:0:
320,192,93358,1,0,0:0:0:0:
320,192,93520,1,0,0:0:0:0:
192,192,93520,1,0,0:0:0:0:
64,192,93601,1,0,0:0:0:0:
448,192,93682,1,0,0:0:0:0:
320,192,93682,1,0,0:0:0:0:
192,192,93844,1,0,0:0:0:0:
320,192,93844,1,0,0:0:0:0:
64,192,94006,1,0,0:0:0:0:
192,192,94006,1,0,0:0:0:0:
64,192,94169,1,0,0:0:0:0:
320,192,94169,1,0,0:0:0:0:
448,192,94250,1,0,0:0:0:0:
320,192,94331,1,0,0:0:0:0:
192,192,94331,1,0,0:0:0:0:
64,192,94412,1,0,0:0:0:0:
448,192,94493,1,0,0:0:0:0:
320,192,94493,1,0,0:0:0:0:
192,192,94655,1,0,0:0:0:0:
320,192,94655,1,0,0:0:0:0:
64,192,94817,1,0,0:0:0:0:
448,192,94817,1,0,0:0:0:0:
320,192,94979,1,0,0:0:0:0:
192,192,94979,1,0,0:0:0:0:
448,192,95141,1,0,0:0:0:0:
320,192,95223,1,0,0:0:0:0:
64,192,95304,1,0,0:0:0:0:
192,192,95304,1,0,0:0:0:0:
320,192,95466,1,0,0:0:0:0:
192,192,95466,1,0,0:0:0:0:
64,192,95547,1,0,0:0:0:0:
320,192,95628,1,0,0:0:0:0:
448,192,95628,1,0,0:0:0:0:
192,192,95709,1,0,0:0:0:0:
448,192,95790,1,0,0:0:0:0:
64,192,95790,1,0,0:0:0:0:
448,192,95952,1,0,0:0:0:0:
320,192,95952,1,0,0:0:0:0:
192,192,96114,1,0,0:0:0:0:
448,192,96277,1,0,0:0:0:0:
320,192,96277,1,0,0:0:0:0:
64,192,96277,1,0,0:0:0:0:
64,192,96601,1,0,0:0:0:0:
448,192,96601,1,0,0:0:0:0:
320,192,96601,1,0,0:0:0:0:
192,192,96682,1,0,0:0:0:0:
320,192,96763,1,0,0:0:0:0:
192,192,96844,1,0,0:0:0:0:
320,192,96925,1,0,0:0:0:0:
192,192,97006,1,0,0:0:0:0:
320,192,97087,1,0,0:0:0:0:
448,192,97087,1,0,0:0:0:0:
192,192,97169,1,0,0:0:0:0:
64,192,97250,1,0,0:0:0:0:
320,192,97250,1,0,0:0:0:0:
320,192,97412,1,0,0:0:0:0:
192,192,97412,1,0,0:0:0:0:
192,192,97574,1,0,0:0:0:0:
64,192,97574,1,0,0:0:0:0:
448,192,97736,1,0,0:0:0:0:
320,192,97898,1,0,0:0:0:0:
192,192,97898,1,0,0:0:0:0:
64,192,98060,1,0,0:0:0:0:
192,192,98141,1,0,0:0:0:0:
448,192,98223,1,0,0:0:0:0:
320,192,98223,1,0,0:0:0:0:
64,192,98304,1,0,0:0:0:0:
320,192,98385,1,0,0:0:0:0:
192,192,98385,1,0,0:0:0:0:
64,192,98547,1,0,0:0:0:0:
320,192,98547,1,0,0:0:0:0:
448,192,98709,1,0,0:0:0:0:
64,192,98871,1,0,0:0:0:0:
192,192,98871,1,0,0:0:0:0:
320,192,98952,1,0,0:0:0:0:
192,192,99033,1,0,0:0:0:0:
320,192,99114,1,0,0:0:0:0:
448,192,99196,1,0,0:0:0:0:
192,192,99196,1,0,0:0:0:0:
320,192,99277,1,0,0:0:0:0:
192,192,99358,1,0,0:0:0:0:
320,192,99439,1,0,0:0:0:0:
64,192,99520,1,0,0:0:0:0:
192,192,99520,1,0,0:0:0:0:
448,192,99601,1,0,0:0:0:0:
192,192,99682,1,0,0:0:0:0:
320,192,99682,1,0,0:0:0:0:
448,192,99844,1,0,0:0:0:0:
192,192,99844,1,0,0:0:0:0:
192,192,100006,1,0,0:0:0:0:
320,192,100006,1,0,0:0:0:0:
64,192,100169,1,0,0:0:0:0:
192,192,100169,1,0,0:0:0:0:
192,192,100331,1,0,0:0:0:0:
64,192,100331,1,0,0:0:0:0:
192,192,100493,1,0,0:0:0:0:
64,192,100493,1,0,0:0:0:0:
448,192,100655,1,0,0:0:0:0:
192,192,100655,1,0,0:0:0:0:
64,192,100655,1,0,0:0:0:0:
192,192,100817,1,0,0:0:0:0:
64,192,100817,1,0,0:0:0:0:
448,192,100898,1,0,0:0:0:0:
64,192,100979,1,0,0:0:0:0:
192,192,100979,1,0,0:0:0:0:
320,192,100979,1,0,0:0:0:0:
448,192,101141,1,0,0:0:0:0:
320,192,101223,1,0,0:0:0:0:
64,192,101223,1,0,0:0:0:0:
192,192,101223,1,0,0:0:0:0:
448,192,101304,1,0,0:0:0:0:
320,192,101385,1,0,0:0:0:0:
448,192,101466,1,0,0:0:0:0:
192,192,101466,1,0,0:0:0:0:
64,192,101466,1,0,0:0:0:0:
320,192,101628,1,0,0:0:0:0:
192,192,101790,1,0,0:0:0:0:
448,192,101790,1,0,0:0:0:0:
320,192,101952,1,0,0:0:0:0:
320,192,102114,1,0,0:0:0:0:
64,192,102277,1,0,0:0:0:0:
320,192,102277,1,0,0:0:0:0:
448,192,102439,1,0,0:0:0:0:
320,192,102439,1,0,0:0:0:0:
320,192,102601,1,0,0:0:0:0:
192,192,102763,1,0,0:0:0:0:
64,192,102763,1,0,0:0:0:0:
320,192,102844,1,0,0:0:0:0:
64,192,102925,1,0,0:0:0:0:
448,192,102925,1,0,0:0:0:0:
192,192,103006,1,0,0:0:0:0:
320,192,103087,1,0,0:0:0:0:
448,192,103087,1,0,0:0:0:0:
64,192,103169,1,0,0:0:0:0:
192,192,103250,1,0,0:0:0:0:
320,192,103331,1,0,0:0:0:0:
448,192,103412,1,0,0:0:0:0:
64,192,103412,128,0,103574:0:0:0:0:
192,192,103574,1,0,0:0:0:0:
448,192,103574,1,0,0:0:0:0:
320,192,103736,1,0,0:0:0:0:
192,192,103736,128,0,104060:0:0:0:0:
320,192,104060,1,0,0:0:0:0:
64,192,104060,1,0,0:0:0:0:
448,192,104223,1,0,0:0:0:0:
320,192,104304,1,0,0:0:0:0:
192,192,104385,1,0,0:0:0:0:
448,192,104385,1,0,0:0:0:0:
320,192,104466,1,0,0:0:0:0:
192,192,104547,1,0,0:0:0:0:
64,192,104628,1,0,0:0:0:0:
320,192,104709,1,0,0:0:0:0:
448,192,104709,1,0,0:0:0:0:
192,192,104790,1,0,0:0:0:0:
64,192,104871,1,0,0:0:0:0:
320,192,104871,1,0,0:0:0:0:
448,192,104952,1,0,0:0:0:0:
192,192,105033,1,0,0:0:0:0:
64,192,105033,1,0,0:0:0:0:
320,192,105114,1,0,0:0:0:0:
448,192,105196,1,0,0:0:0:0:
192,192,105277,1,0,0:0:0:0:
320,192,105358,1,0,0:0:0:0:
448,192,105358,1,0,0:0:0:0:
64,192,105520,1,0,0:0:0:0:
320,192,105520,1,0,0:0:0:0:
448,192,105682,1,0,0:0:0:0:
192,192,105682,1,0,0:0:0:0:
192,192,105844,1,0,0:0:0:0:
192,192,106006,1,0,0:0:0:0:
320,192,106006,1,0,0:0:0:0:
64,192,106087,1,0,0:0:0:0:
320,192,106169,1,0,0:0:0:0:
448,192,106169,1,0,0:0:0:0:
192,192,106250,1,0,0:0:0:0:
64,192,106331,1,0,0:0:0:0:
320,192,106331,1,0,0:0:0:0:
192,192,106412,1,0,0:0:0:0:
448,192,106493,1,0,0:0:0:0:
192,192,106574,1,0,0:0:0:0:
320,192,106655,1,0,0:0:0:0:
64,192,106655,128,0,106979:0:0:0:0:
320,192,106817,1,0,0:0:0:0:
192,192,106979,1,0,0:0:0:0:
448,192,106979,1,0,0:0:0:0:
448,192,107141,128,0,107304:0:0:0:0:
64,192,107141,1,0,0:0:0:0:
192,192,107223,1,0,0:0:0:0:
320,192,107304,1,0,0:0:0:0:
64,192,107385,1,0,0:0:0:0:
192,192,107466,128,0,107628:0:0:0:0:
448,192,107466,1,0,0:0:0:0:
448,192,107628,1,0,0:0:0:0:
320,192,107628,1,0,0:0:0:0:
64,192,107628,128,0,108601:0:0:0:0:
320,192,107790,1,0,0:0:0:0:
448,192,107952,1,0,0:0:0:0:
192,192,107952,1,0,0:0:0:0:
448,192,108114,1,0,0:0:0:0:
192,192,108114,1,0,0:0:0:0:
320,192,108277,1,0,0:0:0:0:
448,192,108277,1,0,0:0:0:0:
448,192,108439,1,0,0:0:0:0:
320,192,108520,1,0,0:0:0:0:
448,192,108601,128,0,108925:0:0:0:0:
192,192,108601,1,0,0:0:0:0:
320,192,108682,1,0,0:0:0:0:
64,192,108763,1,0,0:0:0:0:
192,192,108763,1,0,0:0:0:0:
320,192,108925,128,0,109250:0:0:0:0:
192,192,108925,1,0,0:0:0:0:
64,192,109087,128,0,109250:0:0:0:0:
192,192,109250,128,0,109574:0:0:0:0:
448,192,109250,1,0,0:0:0:0:
448,192,109412,1,0,0:0:0:0:
320,192,109574,1,0,0:0:0:0:
64,192,109574,1,0,0:0:0:0:
192,192,109736,1,0,0:0:0:0:
320,192,109736,128,0,109898:0:0:0:0:
64,192,109817,1,0,0:0:0:0:
448,192,109898,1,0,0:0:0:0:
64,192,109979,1,0,0:0:0:0:
192,192,110060,128,0,110223:0:0:0:0:
320,192,110060,1,0,0:0:0:0:
448,192,110223,1,0,0:0:0:0:
64,192,110223,128,0,111844:0:0:0:0:
192,192,110385,1,0,0:0:0:0:
320,192,110547,1,0,0:0:0:0:
448,192,110547,1,0,0:0:0:0:
448,192,110709,1,0,0:0:0:0:
320,192,110709,1,0,0:0:0:0:
192,192,110871,1,0,0:0:0:0:
320,192,110871,1,0,0:0:0:0:
192,192,111033,1,0,0:0:0:0:
320,192,111114,1,0,0:0:0:0:
448,192,111196,1,0,0:0:0:0:
192,192,111277,1,0,0:0:0:0:
448,192,111358,1,0,0:0:0:0:
320,192,111358,1,0,0:0:0:0:
192,192,111520,1,0,0:0:0:0:
320,192,111520,1,0,0:0:0:0:
448,192,111682,1,0,0:0:0:0:
448,192,111844,1,0,0:0:0:0:
320,192,111844,1,0,0:0:0:0:
192,192,111844,1,0,0:0:0:0:
64,192,112006,1,0,0:0:0:0:
192,192,112169,1,0,0:0:0:0:
64,192,112169,1,0,0:0:0:0:
64,192,112331,1,0,0:0:0:0:
64,192,112493,1,0,0:0:0:0:
448,192,112655,1,0,0:0:0:0:
64,192,112655,1,0,0:0:0:0:
64,192,112817,1,0,0:0:0:0:
320,192,112817,1,0,0:0:0:0:
64,192,112979,1,0,0:0:0:0:
320,192,113141,1,0,0:0:0:0:
448,192,113141,1,0,0:0:0:0:
192,192,113223,1,0,0:0:0:0:
64,192,113304,1,0,0:0:0:0:
448,192,113304,1,0,0:0:0:0:
320,192,113385,1,0,0:0:0:0:
192,192,113466,1,0,0:0:0:0:
64,192,113466,1,0,0:0:0:0:
448,192,113547,1,0,0:0:0:0:
320,192,113628,1,0,0:0:0:0:
192,192,113709,1,0,0:0:0:0:
64,192,113790,1,0,0:0:0:0:
448,192,113790,128,0,113952:0:0:0:0:
192,192,113952,1,0,0:0:0:0:
64,192,113952,1,0,0:0:0:0:
448,192,114114,1,0,0:0:0:0:
320,192,114114,128,0,114439:0:0:0:0:
192,192,114439,1,0,0:0:0:0:
64,192,114439,1,0,0:0:0:0:
64,192,114601,1,0,0:0:0:0:
192,192,114682,1,0,0:0:0:0:
320,192,114763,1,0,0:0:0:0:
448,192,114763,1,0,0:0:0:0:
192,192,114844,1,0,0:0:0:0:
320,192,114925,1,0,0:0:0:0:
448,192,115006,1,0,0:0:0:0:
192,192,115087,1,0,0:0:0:0:
64,192,115087,1,0,0:0:0:0:
448,192,115169,1,0,0:0:0:0:
64,192,115250,1,0,0:0:0:0:
320,192,115250,1,0,0:0:0:0:
192,192,115331,1,0,0:0:0:0:
448,192,115412,1,0,0:0:0:0:
320,192,115412,1,0,0:0:0:0:
64,192,115493,1,0,0:0:0:0:
192,192,115574,1,0,0:0:0:0:
320,192,115655,1,0,0:0:0:0:
192,192,115736,128,0,116223:0:0:0:0:
448,192,115736,1,0,0:0:0:0:
448,192,115898,1,0,0:0:0:0:
320,192,115898,1,0,0:0:0:0:
64,192,116060,1,0,0:0:0:0:
320,192,116060,1,0,0:0:0:0:
64,192,116223,1,0,0:0:0:0:
320,192,116223,128,0,116709:0:0:0:0:
448,192,116385,1,0,0:0:0:0:
64,192,116547,1,0,0:0:0:0:
192,192,116547,1,0,0:0:0:0:
192,192,116709,1,0,0:0:0:0:
64,192,116709,1,0,0:0:0:0:
448,192,116709,128,0,117033:0:0:0:0:
64,192,116871,1,0,0:0:0:0:
192,192,116952,1,0,0:0:0:0:
320,192,117033,1,0,0:0:0:0:
64,192,117033,1,0,0:0:0:0:
320,192,117196,1,0,0:0:0:0:
192,192,117196,1,0,0:0:0:0:
192,192,117358,1,0,0:0:0:0:
448,192,117358,1,0,0:0:0:0:
320,192,117520,1,0,0:0:0:0:
448,192,117520,1,0,0:0:0:0:
192,192,117601,1,0,0:0:0:0:
448,192,117682,1,0,0:0:0:0:
64,192,117682,1,0,0:0:0:0:
320,192,117763,1,0,0:0:0:0:
192,192,117844,1,0,0:0:0:0:
64,192,117844,1,0,0:0:0:0:
448,192,118006,1,0,0:0:0:0:
320,192,118006,1,0,0:0:0:0:
320,192,118169,1,0,0:0:0:0:
192,192,118169,1,0,0:0:0:0:
448,192,118250,1,0,0:0:0:0:
192,192,118331,1,0,0:0:0:0:
64,192,118331,1,0,0:0:0:0:
320,192,118412,1,0,0:0:0:0:
448,192,118493,1,0,0:0:0:0:
64,192,118493,1,0,0:0:0:0:
192,192,118574,1,0,0:0:0:0:
448,192,118655,1,0,0:0:0:0:
320,192,118655,1,0,0:0:0:0:
192,192,118817,1,0,0:0:0:0:
64,192,118898,1,0,0:0:0:0:
448,192,118979,1,0,0:0:0:0:
320,192,118979,1,0,0:0:0:0:
192,192,119060,1,0,0:0:0:0:
64,192,119141,1,0,0:0:0:0:
320,192,119223,1,0,0:0:0:0:
448,192,119304,1,0,0:0:0:0:
192,192,119304,1,0,0:0:0:0:
320,192,119466,1,0,0:0:0:0:
192,192,119628,1,0,0:0:0:0:
64,192,119628,1,0,0:0:0:0:
192,192,119790,1,0,0:0:0:0:
448,192,119790,1,0,0:0:0:0:
64,192,119952,1,0,0:0:0:0:
320,192,119952,1,0,0:0:0:0:
192,192,120114,1,0,0:0:0:0:
320,192,120196,1,0,0:0:0:0:
448,192,120277,1,0,0:0:0:0:
64,192,120277,1,0,0:0:0:0:
192,192,120358,1,0,0:0:0:0:
320,192,120439,1,0,0:0:0:0:
448,192,120439,1,0,0:0:0:0:
192,192,120601,1,0,0:0:0:0:
64,192,120601,1,0,0:0:0:0:
320,192,120682,1,0,0:0:0:0:
192,192,120763,1,0,0:0:0:0:
448,192,120763,1,0,0:0:0:0:
320,192,120925,1,0,0:0:0:0:
64,192,120925,1,0,0:0:0:0:
64,192,121087,1,0,0:0:0:0:
320,192,121087,1,0,0:0:0:0:
320,192,121250,1,0,0:0:0:0:
448,192,121250,1,0,0:0:0:0:
192,192,121412,1,0,0:0:0:0:
64,192,121412,1,0,0:0:0:0:
320,192,121412,1,0,0:0:0:0:
448,192,121493,1,0,0:0:0:0:
192,192,121574,1,0,0:0:0:0:
64,192,121574,1,0,0:0:0:0:
320,192,121655,1,0,0:0:0:0:
192,192,121736,1,0,0:0:0:0:
64,192,121736,1,0,0:0:0:0:
448,192,121736,1,0,0:0:0:0:
448,192,121898,1,0,0:0:0:0:
320,192,121898,1,0,0:0:0:0:
192,192,121979,1,0,0:0:0:0:
320,192,122060,1,0,0:0:0:0:
64,192,122060,1,0,0:0:0:0:
448,192,122141,1,0,0:0:0:0:
192,192,122141,1,0,0:0:0:0:
320,192,122223,128,0,124817:0:0:0:0:
64,192,122223,128,0,124817:0:0:0:0:
