osu file format v12

[General]
AudioFilename: eos.mp3
AudioLeadIn: 1500
PreviewTime: 189838
Countdown: 0
SampleSet: Soft
StackLeniency: 0.7
Mode: 0
LetterboxInBreaks: 0
EpilepsyWarning: 1
WidescreenStoryboard: 1

[Editor]
Bookmarks: 76831
DistanceSpacing: 1.2
BeatDivisor: 4
GridSize: 4
TimelineZoom: 2

[Metadata]
Title:EOS -Long Version-
TitleUnicode:EOS -Long Version-
Artist:ginkiha
ArtistUnicode:ginkiha
Creator:HanzeR
Version:Hard
Source:BMS
Tags:of fighters 2012 bof groundbreaking daybreak hardcore asphyxia
BeatmapID:426359
BeatmapSetID:160493

[Difficulty]
HPDrainRate:4
CircleSize:4
OverallDifficulty:6
ApproachRate:7
SliderMultiplier:1.44
SliderTickRate:1

[Events]
//Background and Video events
0,0,"sex.jpg",0,0
//Break Periods
2,143202,153074
//Storyboard Layer 0 (Background)
//Storyboard Layer 1 (Fail)
//Storyboard Layer 2 (Pass)
//Storyboard Layer 3 (Foreground)
Sprite,Foreground,Centre,"SB\Ring.png",433,312 F,2,244488,247231,1,0 S,1,244488,247231,0.2,1
Sprite,Foreground,Centre,"SB\Ring.png",433,312 F,2,244488,247231,1,0 S,1,244488,247231,0.15,0.75
Sprite,Foreground,Centre,"SB\Ring.png",433,312 F,2,244488,247231,1,0 S,1,244488,247231,0.1,0.5
//Storyboard Sound Samples
//Background Colour Transformations
3,100,163,162,255

[TimingPoints]
374,342.857142857143,4,2,1,10,1,0
374,-133.333333333333,4,2,1,10,0,0
3116,-133.333333333333,4,2,1,50,0,0
11345,-133.333333333333,4,2,1,55,0,0
14088,-133.333333333333,4,2,1,55,0,0
22316,-100,4,2,1,69,0,1
22488,-100,4,2,1,50,0,0
43916,-80,4,2,1,50,0,0
44259,-100,4,2,3,50,0,0
46659,-100,4,2,2,50,0,0
47002,-100,4,2,2,50,0,0
47859,-100,4,2,1,50,0,0
49402,-100,4,2,2,50,0,0
52145,-100,4,2,0,69,0,0
52488,-100,4,2,2,69,0,0
53516,-100,4,2,2,40,0,0
55574,-100,4,2,2,69,0,1
55916,-100,4,2,2,69,0,0
57288,-100,4,2,2,69,0,0
57459,-100,4,2,1,69,0,0
57631,-100,4,2,2,69,0,0
57802,-100,4,2,1,69,0,0
57974,-100,4,2,2,69,0,0
60202,-100,4,2,1,69,0,0
60374,-100,4,2,2,69,0,0
66202,-100,4,2,1,69,0,0
66545,-100,4,2,2,69,0,0
68431,-100,4,2,1,69,0,0
68602,-100,4,2,2,69,0,0
68774,-100,4,2,1,69,0,0
68945,-100,4,2,2,69,0,0
75802,-100,4,2,1,69,0,0
75974,-100,4,2,2,69,0,0
77516,-100,4,2,1,69,0,1
77774,-100,4,2,2,69,0,0
79402,-100,4,2,1,69,0,0
79574,-100,4,2,2,69,0,0
79745,-100,4,2,1,69,0,0
79916,-100,4,2,2,69,0,0
96031,-100,4,2,1,69,0,0
96374,-100,4,2,2,69,0,0
99116,-100,4,2,1,50,0,0
112831,-100,4,2,1,55,0,0
115574,-100,4,2,1,60,0,0
118316,-100,4,2,1,65,0,0
119688,-100,4,2,2,50,0,0
121059,-100,4,2,2,80,0,1
121316,-100,4,2,2,69,0,0
122431,-100,4,2,1,69,0,0
122774,-100,4,2,2,69,0,0
122859,-100,4,2,1,69,0,0
123116,-100,4,2,2,69,0,0
123288,-100,4,2,1,69,0,0
123459,-100,4,2,2,69,0,0
123802,-100,4,2,2,69,0,0
125774,-100,4,2,1,69,0,0
125859,-100,4,2,2,69,0,0
126031,-100,4,2,1,69,0,0
126202,-100,4,2,2,69,0,0
126374,-100,4,2,1,69,0,0
126545,-100,4,2,2,69,0,0
127745,-100,4,2,1,69,0,0
127916,-100,4,2,2,69,0,0
128002,-100,4,2,1,69,0,0
128259,-100,4,2,2,69,0,0
133402,-100,4,2,1,69,0,0
134088,-100,4,2,2,69,0,0
138716,-100,4,2,1,69,0,0
139231,-100,4,2,2,69,0,0
143002,-100,4,2,1,69,0,0
143174,-100,4,2,1,40,0,0
146088,-100,4,2,1,45,0,0
148659,-100,4,2,1,50,0,0
151402,-100,4,2,1,60,0,0
152774,-100,4,2,1,65,0,0
153974,-100,4,2,2,69,0,1
154145,-100,4,2,2,69,0,0
162202,-100,4,2,2,49,0,0
162545,-100,4,2,2,59,0,0
162888,-100,4,2,2,69,0,0
163231,-100,4,2,2,79,0,0
163574,-100,4,2,2,69,0,0
164945,-200,4,2,1,100,0,1
165031,-100,4,2,1,30,0,1
165288,-200,4,2,1,60,0,1
165631,-100,4,2,1,100,0,1
166316,-100,4,2,2,40,0,0
166488,-100,4,2,1,40,0,0
166831,-100,4,2,2,40,0,0
167002,-100,4,2,1,69,0,0
167088,-100,4,2,1,49,0,0
167174,-100,4,2,1,29,0,0
167259,-100,4,2,1,19,0,0
167345,-100,4,2,1,9,0,0
167431,-100,4,2,1,19,0,0
167516,-100,4,2,1,29,0,0
167602,-100,4,2,1,39,0,0
167688,-100,4,2,2,69,0,1
167945,-100,4,2,2,69,0,0
170688,-100,4,2,1,69,0,0
170774,-100,4,2,2,69,0,0
171031,-100,4,2,1,69,0,0
171802,-100,4,2,2,69,0,0
172231,-100,4,2,1,69,0,0
173174,-100,4,2,2,69,0,0
174031,-100,4,2,1,69,0,0
174888,-100,4,2,2,69,0,0
175488,-100,4,2,1,69,0,0
175916,-100,4,2,2,69,0,0
176174,-100,4,2,1,69,0,0
177288,-100,4,2,2,69,0,0
179174,-100,4,2,1,69,0,0
180031,-100,4,2,2,69,0,0
180288,-100,4,2,1,69,0,0
180374,-100,4,2,2,69,0,0
180631,-100,4,2,1,69,0,0
180888,-100,4,2,1,69,0,0
181402,-100,4,2,2,69,0,0
181831,-100,4,2,1,69,0,0
182002,-100,4,2,1,69,0,0
182774,-100,4,2,2,69,0,0
183202,-100,4,2,1,69,0,0
184145,-100,4,2,2,69,0,0
184659,-100,4,2,1,69,0,0
185516,-100,4,2,2,69,0,0
188945,-100,4,2,2,69,0,1
189545,-100,4,2,2,69,0,0
189631,-100,4,2,2,69,0,1
189888,-100,4,2,2,69,0,0
191002,-100,4,2,1,69,0,0
191088,-100,4,2,1,69,0,0
191688,-100,4,2,2,69,0,0
193574,-100,4,2,1,69,0,0
194431,-100,4,2,2,69,0,0
196488,-100,4,2,1,69,0,0
197516,-100,4,2,2,69,0,0
199059,-100,4,2,1,69,0,0
199231,-100,4,2,2,69,0,0
201974,-100,4,2,1,69,0,0
202659,-100,4,2,2,69,0,0
204716,-100,4,2,1,69,0,0
205402,-100,4,2,2,69,0,0
207288,-100,4,2,1,69,0,0
207459,-100,4,2,2,69,0,0
207631,-100,4,2,1,69,0,0
208145,-100,4,2,2,69,0,0
209859,-100,4,2,1,69,0,0
210202,-100,4,2,2,69,0,0
211231,-100,4,2,2,69,0,0
211574,-100,4,2,2,69,0,1
211831,-100,4,2,2,69,0,0
212945,-100,4,2,1,69,0,0
213631,-100,4,2,2,69,0,0
213974,-100,4,2,2,69,0,0
214316,-100,4,2,2,69,0,0
215002,-100,4,2,1,69,0,0
216374,-100,4,2,2,69,0,0
218431,-100,4,2,1,69,0,0
219459,-100,4,2,2,69,0,0
220574,-100,4,2,1,69,0,0
220831,-100,4,2,2,69,0,0
220916,-100,4,2,1,69,0,0
221174,-100,4,2,2,69,0,0
222202,-100,4,2,1,69,0,0
222545,-100,4,2,2,69,0,0
223916,-100,4,2,1,69,0,0
224602,-100,4,2,2,69,0,0
226659,-100,4,2,1,69,0,0
227345,-100,4,2,2,69,0,0
230174,-100,4,2,1,69,0,0
230431,-100,4,2,2,69,0,0
230602,-100,4,2,1,69,0,0
230774,-100,4,2,2,69,0,0
231802,-100,4,2,1,69,0,0
232145,-100,4,2,2,69,0,0
233516,-100,4,2,3,69,0,1
234031,-100,4,2,1,40,0,1
244488,-100,4,2,1,40,0,0

[Colours]
Combo1 : 242,45,114
Combo2 : 233,233,233
Combo3 : 2,71,253
Combo4 : 191,191,191
Combo5 : 94,108,247
Combo6 : 148,148,148
Combo7 : 185,245,103
Combo8 : 102,227,177

[HitObjects]
256,192,374,12,0,2774,0:0:0:0:
80,84,3116,6,0,L|89:212,1,108.000004119873,2|0,0:0|0:0,0:0:0:0:
108,240,3631,2,0,P|144:198|196:193,1,108.000004119873,0|0,0:0|0:0,0:0:0:0:
292,284,4145,2,0,L|184:273,1,108.000004119873,2|0,0:0|0:0,0:0:0:0:
120,324,4659,1,0,0:0:0:0:
384,320,5002,2,0,L|440:312,2,54.0000020599366,0|2|0,0:0|0:0|0:0,0:0:0:0:
308,288,5516,2,0,L|252:280,1,54.0000020599366,2|0,0:0|0:0,0:0:0:0:
376,232,5859,6,0,L|486:216,1,108.000004119873,2|0,0:0|0:0,0:0:0:0:
404,148,6374,2,0,P|368:124|348:64,1,108.000004119873,0|0,0:0|0:0,0:0:0:0:
428,72,6888,1,2,0:0:0:0:
308,180,7402,6,0,L|230:168,2,54.0000020599366,0|0|0,0:0|0:0|0:0,0:0:0:0:
176,160,7916,1,2,0:0:0:0:
125,173,8088,1,2,0:0:0:0:
104,221,8259,1,0,0:0:0:0:
128,268,8431,1,0,0:0:0:0:
208,300,8602,6,0,L|276:296,2,54.0000020599366,2|0|0,0:0|0:0|0:0,0:0:0:0:
96,268,9116,2,0,L|28:264,2,54.0000020599366,2|0|0,0:0|0:0|0:0,0:0:0:0:
200,216,9631,2,0,L|268:212,2,54.0000020599366,2|0|0,0:0|0:0|0:0,0:0:0:0:
88,184,10145,2,0,L|20:180,2,54.0000020599366,2|0|0,0:0|0:0|0:0,0:0:0:0:
184,120,10659,2,0,L|252:116,2,54.0000020599366,2|2|0,0:0|0:0|0:0,0:0:0:0:
96,96,11174,1,0,0:0:0:0:
213,118,11345,6,0,L|339:110,1,108.000004119873,2|0,0:0|0:0,0:0:0:0:
376,108,11859,2,0,P|408:136|392:212,1,108.000004119873,0|0,0:0|0:0,0:0:0:0:
452,224,12374,2,0,L|325:231,1,108.000004119873,2|0,0:0|0:0,0:0:0:0:
272,268,12888,1,0,0:0:0:0:
428,316,13231,2,0,L|488:328,2,54.0000020599366,0|2|2,0:0|0:0|0:0,0:0:0:0:
356,356,13745,2,0,L|296:344,1,54.0000020599366,0|0,0:0|0:0,0:0:0:0:
248,252,14088,6,0,P|192:260|164:312,1,108.000004119873,2|0,0:0|0:0,0:0:0:0:
177,352,14602,2,0,L|149:232,1,108.000004119873,0|0,0:0|0:0,0:0:0:0:
100,252,15116,2,0,P|156:244|184:192,1,108.000004119873,2|0,0:0|0:0,0:0:0:0:
88,72,15631,2,0,L|116:192,1,108.000004119873,0|0,0:0|0:0,0:0:0:0:
176,128,16145,2,0,P|208:128|240:152,1,54.0000020599366,2|2,0:0|0:0,0:0:0:0:
348,108,16488,2,0,P|316:108|284:84,1,54.0000020599366,0|0,0:0|0:0,0:0:0:0:
344,34,16831,6,0,L|452:24,1,108.000004119873,2|0,0:0|0:0,0:0:0:0:
348,108,17345,2,0,L|240:97,1,108.000004119873,0|0,0:0|0:0,0:0:0:0:
360,180,17859,2,0,L|467:169,1,108.000004119873,2|0,0:0|0:0,0:0:0:0:
372,252,18374,2,0,L|264:241,1,108.000004119873,0|0,0:0|0:0,0:0:0:0:
392,324,18888,2,0,L|466:316,1,54.0000020599366,2|2,0:0|0:0,0:0:0:0:
300,348,19231,2,0,L|226:356,1,54.0000020599366,0|0,0:0|0:0,0:0:0:0:
156,296,19574,6,0,P|120:312|108:336,2,54.0000020599366,2|0|0,0:0|0:0|0:0,0:0:0:0:
267,243,20088,2,0,P|293:253|319:247,2,54.0000020599366,2|0|0,0:0|0:0|0:0,0:0:0:0:
147,219,20602,2,0,P|132:196|107:185,2,54.0000020599366,2|0|0,0:0|0:0|0:0,0:0:0:0:
231,310,21116,2,0,P|230:337|243:360,2,54.0000020599366,2|0|0,0:0|0:0|0:0,0:0:0:0:
215,188,21631,2,0,P|232:166|235:140,2,54.0000020599366,2|2|0,0:0|0:0|0:0,0:0:0:0:
124,260,22145,1,0,0:0:0:0:
320,248,22316,6,0,L|464:240,1,144,4|0,1:0|0:0,0:0:0:0:
440,324,22831,1,0,0:0:0:0:
296,264,23002,2,0,L|224:236,1,72,2|0,0:0|0:0,0:0:0:0:
160,288,23345,1,2,0:0:0:0:
284,172,23516,2,0,P|284:100|200:64,1,144,4|2,0:0|0:0,0:0:0:0:
144,144,24031,6,0,L|240:136,1,72,0|2,0:0|0:0,0:0:0:0:
296,172,24374,2,0,L|392:164,1,72,0|2,0:0|0:0,0:0:0:0:
440,216,24716,2,0,L|536:208,1,72,0|2,0:0|0:0,0:0:0:0:
352,308,25059,5,0,0:0:0:0:
308,300,25231,1,2,0:0:0:0:
264,292,25402,1,0,0:0:0:0:
220,284,25574,1,0,0:0:0:0:
128,276,25745,6,0,L|136:360,1,72,0|0,0:0|0:0,0:0:0:0:
212,308,26088,1,2,0:0:0:0:
204,224,26259,2,0,P|208:160|136:112,1,144,4|2,0:0|0:0,0:0:0:0:
131,189,26774,6,0,L|60:196,1,72,0|2,0:0|0:0,0:0:0:0:
216,240,27116,2,0,L|257:298,1,72,0|2,0:0|0:0,0:0:0:0:
210,149,27459,2,0,L|240:84,1,72,0|2,0:0|0:0,0:0:0:0:
136,108,27802,5,0,0:0:0:0:
284,192,27974,2,0,L|436:180,1,144,0|2,0:0|0:0,0:0:0:0:
500,132,28488,1,0,0:0:0:0:
500,132,28659,1,2,0:0:0:0:
472,272,29002,6,0,L|456:348,2,72,0|4|4,0:0|0:0|0:0,0:0:0:0:
420,200,29516,1,0,0:0:0:0:
312,296,29688,2,0,P|272:320|204:296,1,108,2|0,0:0|0:0,0:0:0:0:
196,276,30031,2,0,L|88:288,1,108,0|0,0:0|0:0,0:0:0:0:
64,312,30374,1,2,0:0:0:0:
220,264,30545,6,0,L|296:240,2,72,2|0|0,0:0|0:0|0:0,0:0:0:0:
228,176,31059,2,0,L|270:108,2,72,2|2|0,0:0|0:0|0:0,0:0:0:0:
180,104,31574,2,0,L|169:24,1,72,2|2,0:0|0:0,0:0:0:0:
100,84,31916,5,4,0:0:0:0:
100,84,32088,1,2,0:0:0:0:
40,148,32259,1,0,0:0:0:0:
40,148,32431,1,0,0:0:0:0:
104,208,32602,1,2,0:0:0:0:
104,208,32774,1,0,0:0:0:0:
56,280,32945,1,2,0:0:0:0:
56,280,33117,1,0,0:0:0:0:
132,324,33288,6,0,L|308:312,1,144,8|0,0:0|0:0,0:0:0:0:
360,340,33802,1,0,0:0:0:0:
260,296,33974,2,0,P|244:264|256:212,1,72,2|0,0:0|0:0,0:0:0:0:
308,120,34316,1,2,0:0:0:0:
412,192,34488,2,0,L|268:201,1,144,4|0,0:0|0:0,0:0:0:0:
423,267,35002,6,0,L|497:261,1,72,0|2,0:0|0:0,0:0:0:0:
395,186,35345,2,0,L|324:192,1,72,0|2,0:0|0:0,0:0:0:0:
223,119,35688,2,0,L|297:113,1,72,0|2,0:0|0:0,0:0:0:0:
424,108,36031,5,0,0:0:0:0:
445,67,36202,1,0,0:0:0:0:
418,30,36374,1,0,0:0:0:0:
373,38,36545,1,0,0:0:0:0:
311,118,36716,6,0,L|240:124,1,72,2|0,0:0|0:0,0:0:0:0:
156,100,37059,1,2,0:0:0:0:
76,72,37231,1,4,0:0:0:0:
76,312,37574,5,2,0:0:0:0:
160,284,37745,2,0,L|231:289,1,72,0|2,0:0|0:0,0:0:0:0:
464,336,38088,2,0,L|392:330,1,72,0|0,0:0|0:0,0:0:0:0:
320,284,38431,2,0,P|304:244|328:196,1,72,2|2,0:0|0:0,0:0:0:0:
368,72,38774,2,0,P|384:112|360:160,1,72,0|2,0:0|0:0,0:0:0:0:
288,164,39116,6,0,L|432:176,2,144,0|0|0,0:0|0:0|0:0,0:0:0:0:
100,104,39974,1,2,0:0:0:0:
144,32,40145,2,0,P|180:72|176:116,1,72,4|4,0:0|0:0,0:0:0:0:
20,100,40488,1,0,0:0:0:0:
100,104,40659,6,0,L|212:112,1,108,2|0,0:0|0:0,0:0:0:0:
244,115,41002,2,0,P|272:155|252:215,1,108,0|0,0:0|0:0,0:0:0:0:
224,220,41345,1,2,0:0:0:0:
80,256,41516,6,0,L|170:262,1,72,2|2,0:0|0:0,0:0:0:0:
292,320,41859,2,0,L|201:313,1,72,0|2,0:0|0:0,0:0:0:0:
144,356,42202,1,2,0:0:0:0:
320,308,42374,1,0,0:0:0:0:
176,192,42545,2,0,L|121:188,3,36,2|2|2|0,0:0|0:0|0:0|0:0,0:0:0:0:
224,220,42888,6,0,P|272:200|268:104,1,144,4|0,0:0|0:0,0:0:0:0:
204,76,43402,2,0,L|328:48,1,108,2|2,0:0|0:0,0:0:0:0:
352,64,43745,1,2,0:0:0:0:
392,184,43916,2,0,B|386:216|404:239|404:239|395:223|395:223|384:240|384:240|398:255|398:255|420:280|408:328,1,180,8|4,3:0|0:0,0:0:0:0:
400,348,44774,6,0,L|380:200,1,144,0|2,0:0|0:0,0:0:0:0:
384,161,45288,2,0,P|368:229|304:256,1,144,0|2,0:0|0:0,0:0:0:0:
164,196,45802,2,0,L|306:176,1,144,0|2,0:0|0:0,0:0:0:0:
440,224,46316,2,0,L|366:233,1,72,0|0,0:0|0:0,0:0:0:0:
240,312,46659,2,0,L|313:302,1,72,8|0,0:0|0:0,0:0:0:0:
164,224,47002,6,0,P|124:248|120:348,1,144,2|0,0:0|0:0,0:0:0:0:
148,332,47516,2,0,L|120:188,1,144,2|2,0:0|0:0,0:0:0:0:
8,96,48031,2,0,L|36:240,1,144,0|2,0:0|0:0,0:0:0:0:
118,176,48545,5,0,0:0:0:0:
141,142,48716,1,0,0:0:0:0:
172,115,48888,1,2,0:0:0:0:
208,96,49059,1,0,0:0:0:0:
248,86,49231,1,2,0:0:0:0:
289,86,49402,1,8,0:0:0:0:
329,96,49574,1,0,0:0:0:0:
366,115,49745,6,0,P|428:132|492:88,1,144,2|0,0:0|0:0,0:0:0:0:
416,44,50259,2,0,L|448:208,1,144,2|0,0:0|0:0,0:0:0:0:
460,272,50774,2,0,P|398:255|334:299,1,144,2|0,0:0|0:0,0:0:0:0:
268,364,51288,2,0,L|432:332,1,144,2|2,0:0|0:0,0:0:0:0:
208,272,51802,2,0,L|113:253,1,72,2|2,0:0|0:0,0:0:0:0:
56,304,52145,2,2,L|92:340,3,36,2|2|2|2,0:0|0:0|0:0|0:0,0:0:0:0:
124,264,52488,6,0,L|100:160,1,72,6|0,0:2|0:0,0:0:0:0:
256,24,53002,2,0,L|256:96,1,72,6|0,0:0|0:0,0:0:0:0:
388,264,53516,2,0,L|412:160,1,72,6|0,0:0|0:0,0:0:0:0:
324,316,53859,2,0,P|364:344|404:340,1,72,2|2,0:0|0:0,0:0:0:0:
504,144,54202,2,0,P|456:116|424:120,1,72,2|2,0:0|0:0,0:0:0:0:
352,112,54545,1,6,0:0:0:0:
380,192,54716,6,0,L|400:252,6,36,2|2|6|2|2|2|2,0:0|0:0|0:0|0:0|0:0|0:0|0:0,0:0:0:0:
380,192,55574,6,0,P|312:184|272:260,1,144,4|2,1:0|0:0,0:0:0:0:
184,248,56088,1,0,0:0:0:0:
160,164,56259,2,0,L|140:80,1,72,8|0,0:0|0:0,0:0:0:0:
100,228,56602,2,0,L|80:312,1,72,2|0,0:0|0:0,0:0:0:0:
224,332,56945,2,0,P|264:300|360:312,1,144,8|2,0:0|0:0,0:0:0:0:
472,252,57459,1,2,0:0:0:0:
388,228,57631,2,0,L|304:204,1,72,8|2,0:0|0:0,0:0:0:0:
200,60,57974,6,0,L|341:100,1,144,2|8,0:0|0:0,0:0:0:0:
424,120,58488,1,0,0:0:0:0:
236,156,58659,2,0,P|200:172|172:229,1,72,2|0,0:0|0:0,0:0:0:0:
124,328,59002,2,0,L|92:172,1,144,8|2,0:0|0:0,0:0:0:0:
12,168,59516,1,0,0:0:0:0:
88,200,59688,2,0,L|168:236,1,72,8|0,0:0|0:0,0:0:0:0:
144,320,60031,2,0,L|228:296,1,72,2|0,0:0|0:0,0:0:0:0:
264,380,60374,2,0,L|313:307,1,72,8|2,0:0|0:0,0:0:0:0:
420,180,60716,6,0,P|472:208|476:292,1,144,2|8,0:0|0:0,0:0:0:0:
404,256,61231,1,0,0:0:0:0:
320,236,61402,2,0,L|232:220,1,72,2|0,0:0|0:0,0:0:0:0:
344,92,61745,2,0,L|512:61,2,144,8|2|8,0:0|0:0|0:0,0:0:0:0:
260,108,62602,5,0,0:0:0:0:
176,96,62774,2,0,L|88:80,1,72,2|0,0:0|0:0,0:0:0:0:
128,160,63116,2,0,L|50:204,1,72,8|0,0:0|0:0,0:0:0:0:
132,244,63459,2,0,L|100:327,1,72,2|0,0:0|0:0,0:0:0:0:
192,304,63802,2,0,L|222:388,1,72,8|0,0:0|0:0,0:0:0:0:
280,312,64145,5,2,0:0:0:0:
334,289,64316,1,0,0:0:0:0:
393,296,64488,1,8,0:0:0:0:
440,332,64659,1,0,0:0:0:0:
460,248,64831,5,2,0:0:0:0:
394,206,65002,1,0,0:0:0:0:
358,137,65174,1,8,0:0:0:0:
361,61,65345,1,0,0:0:0:0:
436,104,65516,2,0,L|508:112,1,72,2|2,0:0|0:0,0:0:0:0:
304,208,65859,2,0,L|232:200,1,72,8|2,0:0|0:0,0:0:0:0:
32,192,66202,6,0,P|8:128|68:64,1,144,8|8,0:0|0:0,0:0:0:0:
228,92,66716,1,0,0:0:0:0:
160,144,66888,2,0,L|88:136,1,72,2|0,0:0|0:0,0:0:0:0:
12,276,67231,2,0,L|178:257,1,144,8|2,0:0|0:0,0:0:0:0:
236,296,67745,5,0,0:0:0:0:
312,336,67916,2,0,P|352:348|404:324,1,72,8|0,0:0|0:0,0:0:0:0:
388,208,68259,2,0,P|357:236|352:293,1,72,2|2,0:0|0:0,0:0:0:0:
460,340,68602,2,0,P|450:299|403:266,1,72,8|2,0:0|0:0,0:0:0:0:
292,172,68945,6,0,P|280:96|352:48,1,144,2|8,0:0|0:0,0:0:0:0:
428,132,69459,1,0,0:0:0:0:
428,132,69631,2,0,L|340:124,1,72,2|0,0:0|0:0,0:0:0:0:
124,160,69974,2,0,L|273:173,1,144,8|2,0:0|0:0,0:0:0:0:
300,252,70488,1,0,0:0:0:0:
252,324,70659,2,0,P|220:308|164:316,1,72,8|0,0:0|0:0,0:0:0:0:
28,324,71002,2,0,L|116:316,1,72,2|0,0:0|0:0,0:0:0:0:
240,346,71345,2,0,L|312:340,1,72,8|2,0:0|0:0,0:0:0:0:
420,372,71688,6,0,P|440:332|400:244,1,144,2|8,0:0|0:0,0:0:0:0:
320,232,72202,1,0,0:0:0:0:
260,172,72374,2,0,P|244:132|256:88,1,72,2|0,0:0|0:0,0:0:0:0:
468,144,72716,2,0,L|312:124,1,144,8|2,0:0|0:0,0:0:0:0:
252,176,73231,5,0,0:0:0:0:
168,196,73402,2,0,L|92:212,1,72,8|0,0:0|0:0,0:0:0:0:
51,84,73745,2,0,L|112:124,1,72,2|0,0:0|0:0,0:0:0:0:
224,319,74088,2,0,L|164:280,1,72,8|0,0:0|0:0,0:0:0:0:
192,112,74431,5,2,0:0:0:0:
252,176,74602,1,0,0:0:0:0:
168,196,74774,1,8,0:0:0:0:
180,60,74945,1,0,0:0:0:0:
104,136,75116,6,0,L|80:208,1,72,2|0,0:0|0:0,0:0:0:0:
212,356,75459,2,0,L|189:287,1,72,8|0,0:0|0:0,0:0:0:0:
275,108,75802,2,0,L|251:180,1,72,8|0,0:0|0:0,0:0:0:0:
383,328,76145,2,0,L|360:259,1,72,8|0,0:0|0:0,0:0:0:0:
300,324,76488,5,2,0:0:0:0:
384,348,76659,1,2,0:0:0:0:
460,304,76831,2,0,L|437:235,1,72,2|2,0:0|0:0,0:0:0:0:
408,144,77174,1,2,0:0:0:0:
408,144,77516,6,0,P|352:124|292:188,1,144,4|2,1:0|0:0,0:0:0:0:
168,308,78031,1,0,0:0:0:0:
224,244,78202,2,0,L|208:148,1,72,8|0,0:0|0:0,0:0:0:0:
68,40,78545,2,0,B|90:70|90:70|81:97|81:97|96:185,1,144,2|8,0:0|0:0,0:0:0:0:
183,259,79059,1,0,0:0:0:0:
183,258,79231,2,0,L|170:187,1,72,2|2,0:0|0:0,0:0:0:0:
298,216,79574,2,0,L|259:277,1,72,10|2,0:0|0:0,0:0:0:0:
117,302,79916,2,0,L|59:258,1,72,2|0,0:0|0:0,0:0:0:0:
196,336,80259,6,0,L|360:320,1,144,8|2,0:0|0:0,0:0:0:0:
424,340,80774,1,0,0:0:0:0:
408,256,80945,2,0,P|452:256|492:288,1,72,8|0,0:0|0:0,0:0:0:0:
264,140,81288,6,0,P|222:124|196:81,1,72,2|0,0:0|0:0,0:0:0:0:
356,80,81631,2,0,L|328:244,1,144,8|2,0:0|0:0,0:0:0:0:
248,240,82145,1,0,0:0:0:0:
332,232,82316,2,0,L|436:220,1,72,8|2,0:0|0:0,0:0:0:0:
264,140,82659,6,0,L|103:121,1,144,2|8,0:0|0:0,0:0:0:0:
48,76,83174,1,0,0:0:0:0:
136,204,83345,2,0,P|152:240|144:300,1,72,2|0,0:0|0:0,0:0:0:0:
82,329,83688,2,0,P|130:277|223:299,1,144,8|2,0:0|0:0,0:0:0:0:
320,364,84202,5,0,0:0:0:0:
232,356,84374,2,0,L|144:348,1,72,8|0,0:0|0:0,0:0:0:0:
284,280,84716,2,0,L|372:272,1,72,2|0,0:0|0:0,0:0:0:0:
216,220,85059,2,0,L|128:212,1,72,8|0,0:0|0:0,0:0:0:0:
296,172,85402,5,2,0:0:0:0:
360,116,85574,1,0,0:0:0:0:
280,88,85745,2,0,L|200:52,1,72,8|0,0:0|0:0,0:0:0:0:
296,172,86088,5,2,0:0:0:0:
360,116,86259,1,0,0:0:0:0:
380,200,86431,2,0,L|460:236,1,72,8|0,0:0|0:0,0:0:0:0:
346,45,86774,6,0,L|362:125,1,72,2|0,0:0|0:0,0:0:0:0:
276,104,87116,2,0,L|263:184,1,72,8|0,0:0|0:0,0:0:0:0:
184,140,87459,2,0,L|144:211,1,72,2|2,0:0|0:0,0:0:0:0:
84,144,87802,2,0,L|22:197,1,72,2|2,0:0|0:0,0:0:0:0:
56,308,88145,6,0,P|112:288|176:344,1,144,6|8,0:0|0:0,0:0:0:0:
236,276,88659,1,0,0:0:0:0:
236,276,88831,2,0,L|336:264,1,72,2|0,0:0|0:0,0:0:0:0:
436,332,89174,2,0,L|266:352,1,144,8|2,0:0|0:0,0:0:0:0:
248,184,89688,5,0,0:0:0:0:
348,200,89859,2,0,P|376:224|384:280,1,72,8|0,0:0|0:0,0:0:0:0:
260,232,90202,2,0,P|225:244|172:223,1,72,2|0,0:0|0:0,0:0:0:0:
276,152,90545,2,0,P|282:115|327:80,1,72,8|0,0:0|0:0,0:0:0:0:
472,100,90888,6,0,L|312:80,1,144,2|8,0:0|0:0,0:0:0:0:
264,28,91402,1,0,0:0:0:0:
300,160,91574,2,0,P|272:196|232:204,1,72,2|0,0:0|0:0,0:0:0:0:
116,84,91916,2,0,P|180:76|235:161,1,144,8|2,0:0|0:0,0:0:0:0:
228,284,92431,5,0,0:0:0:0:
164,224,92602,2,0,L|156:140,1,72,8|0,0:0|0:0,0:0:0:0:
228,284,92945,2,0,L|221:355,1,72,2|0,0:0|0:0,0:0:0:0:
144,316,93288,1,8,0:0:0:0:
248,200,93459,1,2,0:0:0:0:
371,305,93631,6,0,L|203:281,1,144,6|8,0:0|0:0,0:0:0:0:
164,224,94145,1,0,0:0:0:0:
228,284,94316,2,0,P|201:307|161:314,1,72,2|0,0:0|3:0,0:0:0:0:
248,200,94659,2,0,P|281:211|307:242,1,72,2|2,0:0|0:0,0:0:0:0:
164,224,95002,6,0,P|121:182|131:96,1,144,6|8,0:0|0:0,0:0:0:0:
200,148,95516,1,0,0:0:0:0:
72,256,95688,2,0,L|-24:264,1,72,2|0,0:0|0:0,0:0:0:0:
200,148,96031,2,0,L|296:140,1,72,8|2,0:0|0:0,0:0:0:0:
396,132,96374,6,0,L|471:128,2,72,6|0|8,0:0|0:0|0:0,0:0:0:0:
270,98,96888,2,0,L|209:58,2,72,0|6|0,0:0|0:0|0:0,0:0:0:0:
352,198,97402,2,0,L|377:265,2,72,8|0|6,0:0|0:0|0:0,0:0:0:0:
345,69,97916,2,0,L|363:0,2,72,2|6|2,0:0|0:0|0:0,0:0:0:0:
304,168,98431,2,0,L|274:191,3,36,2|2|2|2,0:0|0:0|0:0|0:0,0:0:0:0:
396,132,98774,2,0,L|459:128,3,36,2|2|2|2,0:0|0:0|0:0|0:0,0:0:0:0:
380,140,99116,6,0,L|228:124,1,144,4|2,1:0|0:0,0:0:0:0:
76,204,99631,2,0,P|44:233|40:289,1,72,0|0,0:0|0:0,0:0:0:0:
192,224,99974,2,0,P|233:236|283:211,1,72,0|0,0:0|0:0,0:0:0:0:
150,114,100316,2,0,P|135:53|64:24,1,144,0|0,0:0|0:0,0:0:0:0:
88,176,100831,2,0,L|96:264,1,72,10|0,0:0|0:0,0:0:0:0:
60,328,101174,1,2,0:0:0:0:
60,328,101345,2,0,P|88:280|192:280,1,144,2|0,0:0|0:0,0:0:0:0:
141,342,101859,6,0,L|284:360,1,144,6|0,0:0|0:0,0:0:0:0:
331,289,102374,2,0,P|363:317|367:369,1,72,2|2,0:0|0:0,0:0:0:0:
284,360,102716,1,0,0:0:0:0:
252,236,102888,2,0,L|228:160,1,72,8|2,0:0|0:0,0:0:0:0:
324,20,103231,2,0,P|364:64|332:156,1,144,6|8,0:0|0:0,0:0:0:0:
128,128,103745,1,0,0:0:0:0:
184,72,103916,2,0,L|296:92,2,108,2|2|2,0:0|0:0|0:0,0:0:0:0:
100,60,104602,6,0,P|61:73|25:166,1,144,4|8,0:0|0:0,0:0:0:0:
108,144,105116,2,0,L|127:214,1,72,2|0,0:0|0:0,0:0:0:0:
108,300,105459,2,0,L|57:350,1,72,2|0,0:0|0:0,0:0:0:0:
192,272,105802,2,0,L|338:302,1,144,2|0,0:0|0:0,0:0:0:0:
456,368,106316,1,0,0:0:0:0:
412,292,106488,1,0,0:0:0:0:
436,208,106659,2,0,L|464:132,1,72,2|2,0:0|0:0,0:0:0:0:
372,40,107002,2,0,P|370:81|400:115,1,72,0|0,0:0|0:0,0:0:0:0:
460,68,107345,6,0,L|288:56,1,144,0|4,0:0|0:0,0:0:0:0:
300,164,107859,2,0,L|156:153,1,144,0|2,0:0|0:0,0:0:0:0:
144,260,108374,1,4,0:0:0:0:
144,260,108545,2,0,L|0:249,1,144,2|2,0:0|0:0,0:0:0:0:
100,336,109059,2,0,P|132:296|232:300,1,144,4|4,0:0|0:0,0:0:0:0:
288,348,109574,2,0,L|432:337,1,144,0|4,0:0|0:0,0:0:0:0:
512,216,110088,6,0,B|480:218|480:218|438:206|438:206|416:224|416:224|344:230,1,144,4|2,1:0|0:0,0:0:0:0:
288,228,110602,1,0,0:0:0:0:
288,228,110774,2,0,L|200:200,1,72,0|2,0:0|0:0,0:0:0:0:
272,140,111117,2,0,L|222:61,1,72,0|2,0:0|0:0,0:0:0:0:
327,72,111459,2,0,P|258:79|208:30,1,144
116,32,111974,1,0,0:0:0:0:
88,120,112145,2,0,L|100:192,2,72
12,176,112659,1,0,0:0:0:0:
96,272,112831,6,0,B|128:274|153:253|153:253|173:298|238:299,1,144,2|4,0:0|0:0,0:0:0:0:
310,128,113345,2,0,B|291:155|296:187|296:187|247:181|214:238,1,144,2|0,0:0|0:0,0:0:0:0:
331,384,113859,1,4,0:0:0:0:
331,384,114031,2,0,B|316:354|286:343|286:343|315:303|283:246,1,144,0|0,0:0|0:0,0:0:0:0:
200,220,114545,2,0,L|216:304,1,72,4|0,0:0|0:0,0:0:0:0:
404,316,114888,2,0,L|388:232,1,72,4|2,0:0|0:0,0:0:0:0:
352,64,115231,2,0,P|392:60|440:100,1,72,0|2,0:0|0:0,0:0:0:0:
420,116,115488,1,0,0:0:0:0:
380,136,115574,6,0,L|208:116,1,144,0|2,0:0|0:0,0:0:0:0:
152,112,116088,2,0,P|120:136|112:188,1,72,0|2,0:0|0:0,0:0:0:0:
84,296,116431,2,0,P|116:272|124:220,1,72,0|2,0:0|0:0,0:0:0:0:
188,184,116774,2,0,P|144:160|56:200,1,144,0|0,0:0|0:0,0:0:0:0:
168,312,117288,2,0,L|288:304,1,108,4|0,0:0|0:0,0:0:0:0:
312,300,117631,2,0,P|328:328|320:368,1,72,2|2,0:0|0:0,0:0:0:0:
356,364,117888,2,0,L|476:356,1,108,0|0,0:0|0:0,0:0:0:0:
480,324,118231,1,0,0:0:0:0:
448,308,118316,6,0,P|424:248|460:176,1,144,4|2,0:0|0:0,0:0:0:0:
400,112,118831,2,0,L|224:80,1,144,0|0,0:0|0:0,0:0:0:0:
168,68,119345,2,0,L|105:17,1,72,2|2,0:0|0:0,0:0:0:0:
74,110,119688,2,0,L|-5:118,1,72,2|2,0:0|0:0,3:0:0:0:
46,200,120031,2,0,L|-4:262,1,72,2|2,0:0|0:0,3:0:0:0:
136,192,120374,2,0,L|155:161,3,36,6|2|2|2,0:0|0:0|0:0|0:0,0:0:0:0:
104,296,120716,2,0,L|76:340,3,36,6|2|2|2,0:0|0:0|0:0|0:0,0:0:0:0:
88,272,121059,6,0,P|148:316|228:292,1,144,4|8,1:0|0:0,0:0:0:0:
344,192,121574,1,0,0:0:0:0:
280,248,121745,2,0,L|300:344,1,72,2|0,0:0|0:0,0:0:0:0:
416,136,122088,2,0,L|396:40,1,72,8|0,0:0|0:0,0:0:0:0:
456,212,122431,2,0,L|480:248,3,36,2|2|2|2,0:0|0:0|0:0|0:0,0:0:0:0:
508,132,122774,2,0,L|484:96,3,36,8|2|2|2,0:0|0:0|0:0|0:0,0:0:0:0:
484,76,123116,6,0,P|440:84|416:120,1,72,0|2,0:0|0:0,0:0:0:0:
260,236,123459,2,0,P|304:228|328:192,1,72,10|0,0:0|0:0,0:0:0:0:
340,124,123802,2,0,L|176:112,1,144,2|8,0:0|0:0,0:0:0:0:
120,168,124316,1,0,0:0:0:0:
56,100,124488,2,0,L|44:12,1,72,2|0,0:0|0:0,0:0:0:0:
52,224,124831,2,0,L|42:295,1,72,8|0,0:0|0:0,0:0:0:0:
148,338,125174,5,0,0:0:0:0:
148,338,125345,1,8,0:3:0:0:
192,272,125516,2,0,P|122:262|72:310,1,144,8|2,0:0|0:0,0:0:0:0:
148,338,126031,1,2,0:0:0:0:
236,332,126202,2,0,L|328:320,1,72,8|2,0:0|0:0,0:0:0:0:
376,184,126545,2,0,L|340:269,1,72,2|0,0:0|0:0,0:0:0:0:
444,372,126888,2,0,L|387:298,1,72,8|0,0:0|0:0,0:0:0:0:
284,200,127231,6,0,P|352:200|396:128,1,144,2|8,0:0|0:0,0:0:0:0:
304,56,127745,2,0,L|320:132,2,72,2|2|2,0:0|0:0|0:0,0:0:0:0:
220,36,128259,1,8,0:0:0:0:
176,108,128431,2,0,L|192:184,1,72,0|2,0:0|0:0,0:0:0:0:
104,196,128774,2,0,L|120:272,1,72,0|8,0:0|0:0,0:0:0:0:
64,332,129116,1,0,0:0:0:0:
208,260,129288,6,0,P|242:254|277:274,2,72,2|0|8,0:0|0:0|0:0,0:0:0:0:
79,277,129802,2,0,P|53:301|18:305,2,72,0|2|0,0:0|0:0|0:0,0:0:0:0:
182,194,130316,2,0,P|193:159|223:140,2,72,8|0|2,0:0|0:0|0:0,0:0:0:0:
151,315,130831,2,0,P|166:345|159:380,2,72,0|8|0,0:0|0:0|0:0,0:0:0:0:
94,198,131345,2,0,P|62:180|47:149,2,72,2|0|8,0:0|0:0|0:0,0:0:0:0:
182,193,131859,1,2,0:0:0:0:
300,172,132031,6,0,L|464:140,1,144,2|8,0:0|0:0,0:0:0:0:
504,204,132545,1,0,0:0:0:0:
440,260,132716,2,0,L|428:352,1,72,2|0,0:0|0:0,0:0:0:0:
310,243,133059,2,0,L|300:171,1,72,8|0,0:0|0:0,0:0:0:0:
216,188,133402,2,0,L|207:254,3,36,2|2|2|2,0:0|0:0|0:0|0:0,0:0:0:0:
296,136,133745,2,0,L|287:69,3,36,2|2|2|2,0:0|0:0|0:0|0:0,0:0:0:0:
220,108,134088,2,0,P|184:112|156:135,1,72,2|0,0:0|0:0,0:0:0:0:
76,168,134431,1,8,0:0:0:0:
144,216,134602,6,0,L|172:364,1,144,0|0,0:0|0:0,0:0:0:0:
240,312,135116,2,0,P|268:288|316:288,1,72,8|0,0:0|0:0,0:0:0:0:
68,268,135459,2,0,P|31:268|-5:237,1,72,2|0,0:0|0:0,0:0:0:0:
144,216,135802,1,8,0:0:0:0:
228,332,135974,1,0,0:0:0:0:
300,244,136145,5,8,3:3:0:0:
352,310,136316,1,8,3:3:0:0:
435,279,136488,1,8,3:3:0:0:
496,108,136831,5,2,0:0:0:0:
432,52,137003,1,0,0:0:0:0:
356,128,137174,1,8,0:0:0:0:
288,44,137345,1,0,0:0:0:0:
204,160,137516,6,0,P|168:172|112:156,1,72,2|0,0:0|0:0,0:0:0:0:
0,40,137859,2,0,P|36:28|92:44,1,72,8|0,0:0|0:0,0:0:0:0:
164,92,138202,2,0,L|138:237,1,144,2|8,0:0|0:0,0:0:0:0:
123,320,138716,1,2,0:0:0:0:
61,256,138888,2,0,L|16:183,1,72,2|2,0:0|0:0,0:0:0:0:
203,281,139231,2,0,L|269:227,1,72,8|0,0:0|0:0,0:0:0:0:
380,340,139574,5,2,0:0:0:0:
300,312,139745,1,0,0:0:0:0:
364,256,139916,1,8,0:0:0:0:
428,200,140087,1,0,0:0:0:0:
263,175,140259,6,0,L|180:155,2,72,2|0|8,0:0|0:0|0:0,0:0:0:0:
420,232,140774,2,0,L|466:286,2,72,0|2|0,0:0|0:0|0:0,0:0:0:0:
326,93,141288,2,0,L|320:21,2,72,8|0|2,0:0|0:0|0:0,0:0:0:0:
320,260,141802,2,0,L|282:321,2,72,0|8|0,0:0|0:0|0:0,0:0:0:0:
423,128,142316,2,0,L|489:100,2,72,2|0|2,0:0|0:0|0:0,0:0:0:0:
350,178,142831,1,2,0:0:0:0:
164,88,143002,5,4,1:0:0:0:
136,48,153974,5,4,1:0:0:0:
256,120,154145,1,2,0:0:0:0:
172,128,154316,2,0,L|16:144,1,144,8|0,0:0|0:0,0:0:0:0:
128,232,154831,2,0,P|204:216|260:280,1,144,2|8,0:0|0:0,0:0:0:0:
274,132,155345,2,0,P|290:208|226:264,1,144,2|8,0:0|0:0,0:0:0:0:
374,278,155859,2,0,P|298:294|242:230,1,144,2|8,0:0|0:0,0:0:0:0:
228,378,156374,2,0,P|212:302|276:246,1,144,2|6,0:0|0:0,0:0:0:0:
374,278,156888,5,0,0:0:0:0:
320,212,157059,2,0,L|340:64,1,144,8|0,0:0|0:0,0:0:0:0:
198,30,157574,2,0,B|188:56|188:56|187:94|187:94|150:114|147:156,1,144,2|8,0:0|0:0,0:0:0:0:
20,106,158088,2,0,B|46:116|46:116|84:117|84:117|104:154|146:157,1,144,2|8,0:0|0:0,0:0:0:0:
96,284,158602,2,0,B|106:258|106:258|107:220|107:220|144:200|147:158,1,144,2|8,0:0|0:0,0:0:0:0:
274,208,159116,2,0,B|248:198|248:198|210:197|210:197|190:160|148:157,1,144,2|6,0:0|0:0,0:0:0:0:
64,296,159631,5,2,0:0:0:0:
144,324,159802,2,0,L|316:308,1,144,8|0,0:0|0:0,0:0:0:0:
372,304,160316,2,0,P|408:316|436:360,1,72,2|8,0:0|0:0,0:0:0:0:
272,292,160659,2,0,P|236:280|208:236,1,72,8|6,0:0|0:0,0:0:0:0:
324,176,161002,5,2,0:0:0:0:
424,228,161173,2,0,L|252:212,1,144,8|0,0:0|0:0,0:0:0:0:
196,208,161687,2,0,P|160:220|132:264,2,72
296,196,162202,2,0,P|332:184|360:140,1,72,8|6,0:0|0:0,0:0:0:0:
196,108,162545,2,0,L|96:96,1,72,2|2,0:0|0:0,0:0:0:0:
0,208,162888,2,0,L|100:196,1,72,6|2,0:0|0:0,0:0:0:0:
204,299,163231,2,0,L|104:287,1,72,2|2,0:0|0:0,0:0:0:0:
256,192,163574,12,2,164859,0:0:0:0:
256,192,164945,12,0,166316,0:0:0:0:
111,24,167688,6,0,L|136:169,1,144,2|8,0:0|0:0,0:0:0:0:
135,251,168202,2,0,P|126:285|89:317,1,72,0|2,0:0|0:0,0:0:0:0:
48,140,168545,2,0,P|22:115|13:67,1,72,0|8,0:0|0:0,0:0:0:0:
202,122,168888,2,0,P|244:104|340:168,1,144,0|0,0:0|0:0,0:0:0:0:
412,116,169402,2,0,L|400:212,1,72,8|0,0:0|0:0,0:0:0:0:
312,296,169745,2,0,P|310:254|336:219,1,72,2|0,0:0|0:0,0:0:0:0:
489,273,170088,2,0,P|487:308|467:337,1,72,8|0,0:0|0:0,0:0:0:0:
399,282,170431,6,0,L|232:237,1,144,2|8,0:0|0:0,0:0:0:0:
106,270,170945,2,0,L|229:148,1,144,0|2,0:0|0:0,0:0:0:0:
262,23,171459,1,0,0:0:0:0:
262,23,171631,2,0,L|306:190,1,144,2|0,0:0|0:0,0:0:0:0:
376,120,172145,2,0,P|416:116|460:148,1,72,8|0,0:0|0:0,0:0:0:0:
492,312,172488,2,0,P|467:272|396:264,2,108,2|2|2,0:0|0:0|0:0,0:0:0:0:
420,336,173174,6,0,L|400:180,1,144,2|8,0:0|0:0,0:0:0:0:
268,292,173688,2,0,L|278:374,1,72,0|2,0:0|0:0,0:0:0:0:
144,256,174031,2,0,L|133:173,1,72,2|0,0:0|0:0,0:0:0:0:
56,144,174374,2,0,P|48:64|108:24,1,144,2|0,0:0|0:0,0:0:0:0:
198,53,174888,2,0,L|279:71,1,72,0|0,0:0|0:0,0:0:0:0:
236,148,175231,2,0,L|286:214,1,72,0|0,0:0|0:0,0:0:0:0:
211,254,175574,2,0,L|207:336,1,72,0|0,0:0|0:0,0:0:0:0:
124,300,175916,6,0,P|64:344|-16:320,1,144,2|2,0:0|0:0,0:0:0:0:
136,212,176431,2,0,P|127:138|188:80,1,144,0|2,0:0|0:0,0:0:0:0:
220,256,176945,1,2,0:0:0:0:
220,256,177116,2,0,P|288:285|307:367,1,144,0|0,0:0|0:0,0:0:0:0:
224,344,177631,2,0,L|144:328,1,72,8|0,0:0|0:0,0:0:0:0:
292,284,177974,2,0,L|372:268,1,72,2|0,0:0|0:0,0:0:0:0:
212,240,178316,2,0,L|132:224,1,72,8|2,0:0|0:0,0:0:0:0:
280,180,178659,6,0,L|438:148,1,144,6|8,0:0|0:0,0:0:0:0:
208,120,179174,2,0,L|50:88,2,144,0|0|0,0:0|0:0|0:0,0:0:0:0:
296,80,180031,2,0,L|375:63,1,72,2|0,0:0|0:0,0:0:0:0:
496,172,180374,2,0,L|417:188,1,72,0|0,0:0|0:0,0:0:0:0:
264,256,180716,1,2,0:0:0:0:
264,256,180888,2,0,P|328:248|388:312,1,144,2|0,0:0|0:0,0:0:0:0:
308,324,181402,6,0,B|256:348|216:320|216:320|200:344|160:348,1,144,2|8,0:0|0:0,0:0:0:0:
20,292,181916,2,0,B|72:268|112:296|112:296|128:272|168:268,1,144,0|0,0:0|0:0,0:0:0:0:
280,172,182431,1,0,0:0:0:0:
280,172,182602,2,0,B|228:196|188:168|188:168|172:192|132:196,1,144,2|0,0:0|0:0,0:0:0:0:
52,128,183116,2,0,L|124:120,1,72,8|0,0:0|0:0,0:0:0:0:
236,104,183459,2,0,L|308:96,1,72,2|0,0:0|0:0,0:0:0:0:
428,80,183802,2,0,L|500:72,1,72,0|2,0:0|0:0,0:0:0:0:
476,192,184145,6,0,P|436:232|344:220,1,144,2|8,0:0|0:0,0:0:0:0:
400,152,184659,1,0,0:0:0:0:
256,332,185002,1,0,0:0:0:0:
112,152,185345,1,2,0:0:0:0:
136,68,185516,6,0,L|204:120,1,72,2|0,0:0|0:0,0:0:0:0:
264,60,185859,2,0,L|282:143,1,72,8|0,0:0|0:0,0:0:0:0:
368,136,186202,2,0,L|328:211,1,72,2|0,0:0|0:0,0:0:0:0:
392,264,186545,2,0,L|312:296,1,72,8|0,0:0|0:0,0:0:0:0:
196,344,186888,6,0,P|184:281|204:256,1,72,6|0,0:0|0:0,0:0:0:0:
102,312,187231,2,0,P|138:260|170:256,1,72,8|0,0:0|0:0,0:0:0:0:
59,224,187574,2,0,P|121:212|146:232,1,72,2|0,0:0|0:0,0:0:0:0:
90,132,187916,2,0,P|142:168|146:200,1,72,8|0,0:0|0:0,0:0:0:0:
179,89,188259,2,0,P|190:151|170:176,1,72,6|2,0:0|0:0,0:0:0:0:
270,120,188602,2,0,P|234:171|202:175,1,72,6|2,0:0|0:0,0:0:0:0:
314,208,188945,2,0,P|251:219|226:199,1,72,6|2,0:0|0:0,0:0:0:0:
282,300,189288,2,0,P|230:264|226:231,1,72,2|6,0:0|0:0,0:0:0:0:
180,64,189631,6,0,L|336:80,1,144,4|8,1:0|0:0,0:0:0:0:
408,84,190145,1,0,0:0:0:0:
476,136,190316,2,0,P|496:176|484:220,1,72,2|0,0:0|0:0,0:0:0:0:
352,276,190659,2,0,P|332:236|344:192,1,72,8|0,0:0|0:0,0:0:0:0:
416,188,191002,2,0,L|412:228,3,36,2|2|2|2,0:0|0:0|0:0|0:0,0:0:0:0:
352,288,191345,2,0,L|349:324,3,36,2|2|2|2,0:0|0:0|0:0|0:0,0:0:0:0:
377,304,191688,2,0,L|308:324,1,72,2|0,0:0|0:0,0:0:0:0:
128,276,192031,2,0,L|28:304,1,72,8|0,0:0|0:0,0:0:0:0:
220,300,192374,1,2,0:0:0:0:
220,300,192716,6,0,L|228:140,1,144,8|8,0:0|0:3,0:0:0:0:
168,92,193231,1,8,0:3:0:0:
308,148,193402,2,0,P|348:140|380:112,1,72,8|2,0:3|0:0,0:0:0:0:
420,48,193745,1,2,0:0:0:0:
420,48,193916,1,2,0:0:0:0:
420,48,194088,1,2,0:0:0:0:
464,288,194431,6,0,P|472:320|456:360,1,72,2|0,0:0|0:0,0:0:0:0:
384,316,194774,2,0,P|367:344|327:361,1,72,8|0,0:0|0:0,0:0:0:0:
312,284,195116,2,0,P|280:292|192:232,1,144,2|8,0:0|0:0,0:0:0:0:
180,120,195631,1,0,0:0:0:0:
288,68,195802,2,0,L|268:236,1,144,2|8,0:0|0:0,0:0:0:0:
216,276,196316,2,0,P|176:296|132:292,1,72,0|2,0:0|0:0,0:0:0:0:
0,200,196659,2,0,P|40:180|84:184,1,72,2|2,0:0|0:0,0:0:0:0:
180,248,197002,6,0,L|29:224,2,144,0|2|0,0:0|0:0|0:0,0:0:0:0:
211,167,197859,2,0,L|239:90,2,72,2|0|8,0:0|0:0|0:0,0:0:0:0:
265,241,198374,2,0,L|336:233,2,72,0|8|8,0:0|0:3|0:3,0:0:0:0:
221,322,198888,2,0,L|258:383,2,72,8|2|2,0:3|0:0|0:0,0:0:0:0:
249,196,199402,2,0,L|305:151,2,72,0|8|0,0:0|0:0|0:0,0:0:0:0:
255,288,199916,2,0,L|319:319,2,72,2|0|8,0:0|0:0|0:0,0:0:0:0:
180,248,200431,1,2,0:0:0:0:
336,324,200602,6,0,L|484:312,1,144,2|8,0:0|0:0,0:0:0:0:
300,240,201116,1,0,0:0:0:0:
216,220,201288,2,0,L|136:204,1,72,2|0,0:0|0:0,0:0:0:0:
352,160,201631,2,0,L|432:144,1,72,8|0,0:0|0:0,0:0:0:0:
216,88,201974,2,0,L|175:79,3,36,2|2|2|2,0:0|0:0|0:0|0:0,0:0:0:0:
152,160,202316,2,0,L|118:182,3,36,2|2|2|2,0:0|0:0|0:0|0:0,0:0:0:0:
172,248,202659,2,0,P|192:288|184:332,1,72,2|0,0:0|0:0,0:0:0:0:
56,228,203002,2,0,P|36:188|44:144,1,72,8|0,0:0|0:0,0:0:0:0:
122,180,203345,6,0,L|196:305,1,144,2|8,0:0|0:0,0:0:0:0:
36,348,203859,1,0,0:0:0:0:
116,328,204031,2,0,L|208:308,1,72,8|8,0:3|0:3,0:0:0:0:
264,348,204374,2,0,L|356:328,1,72,8|8,0:3|0:3,0:0:0:0:
416,360,204716,2,0,L|508:340,1,72,2|2,0:0|0:0,0:0:0:0:
388,276,205059,6,0,P|344:244|344:152,1,144,2|2,0:0|0:0,0:0:0:0:
416,196,205574,1,0,0:0:0:0:
252,252,205745,2,0,L|172:236,1,72,8|0,0:0|0:0,0:0:0:0:
56,160,206088,2,0,L|136:176,1,72,2|0,0:0|0:0,0:0:0:0:
264,132,206431,2,0,L|184:116,1,72,8|0,0:0|0:0,0:0:0:0:
64,12,206774,2,0,L|235:46,1,144,2|8,0:0|0:0,0:0:0:0:
292,48,207288,5,2,0:0:0:0:
360,104,207459,1,2,0:0:0:0:
280,132,207631,1,2,0:0:0:0:
272,216,207802,2,0,L|264:292,1,72,0|2,0:0|0:0,0:0:0:0:
348,260,208145,2,0,L|390:323,1,72,2|0,0:0|0:0,0:0:0:0:
436,248,208488,2,0,L|509:269,1,72,8|0,0:0|0:0,0:0:0:0:
488,184,208831,5,2,0:0:0:0:
488,184,209002,1,0,0:0:0:0:
368,60,209345,1,8,0:3:0:0:
368,60,209516,1,8,0:3:0:0:
304,220,209859,1,2,0:0:0:0:
304,220,210030,1,2,0:0:0:0:
176,104,210374,1,0,0:0:0:0:
176,104,210545,1,8,0:0:0:0:
100,260,210888,2,0,L|72:140,2,108,2|0|2,0:0|0:0|0:0,0:0:0:0:
244,336,211574,6,0,P|280:344|360:272,1,144,4|8,1:0|0:0,0:0:0:0:
276,256,212088,1,0,0:0:0:0:
416,344,212259,2,0,L|500:336,1,72,2|0,0:0|0:0,0:0:0:0:
316,216,212602,2,0,L|232:224,1,72,8|0,0:0|0:0,0:0:0:0:
416,96,212945,2,0,L|484:89,3,36,2|2|2|2,0:0|0:0|0:0|0:0,0:0:0:0:
440,176,213288,2,0,L|493:219,3,36,2|2|2|2,0:0|0:0|0:0|0:0,0:0:0:0:
388,248,213631,6,0,P|352:252|316:232,1,72,2|0,0:0|0:0,0:0:0:0:
204,56,213974,2,0,P|240:52|276:72,1,72,8|0,0:0|0:3,0:0:0:0:
364,176,214316,2,0,L|216:128,1,144,2|8,0:0|0:0,0:0:0:0:
96,208,214831,1,0,0:0:0:0:
136,132,215002,2,0,L|120:56,1,72,2|2,0:0|0:0,0:0:0:0:
48,280,215345,2,0,L|64:356,1,72,2|0,0:0|0:0,0:0:0:0:
180,232,215688,6,0,P|220:204|252:208,1,72,8|8,0:3|0:3,0:0:0:0:
364,264,216031,2,0,B|332:272|308:244|308:244|284:284|228:280,1,144,8|2,0:3|0:0,0:0:0:0:
216,368,216545,1,0,0:0:0:0:
352,352,216716,2,0,L|448:332,1,72,8|0,0:0|0:0,0:0:0:0:
500,172,217059,2,0,L|404:192,1,72,2|0,0:0|0:0,0:0:0:0:
288,72,217402,2,0,L|384:52,1,72,8|0,0:0|0:0,0:0:0:0:
196,164,217745,6,0,P|128:168|76:96,1,144,2|8,0:0|0:0,0:0:0:0:
156,92,218259,1,0,0:0:0:0:
232,244,218431,2,0,L|264:320,2,72,2|2|2,0:0|0:0|0:0,0:0:0:0:
148,196,218945,2,0,L|116:272,1,72,2|0,0:0|0:0,0:0:0:0:
140,100,219288,2,0,L|64:131,1,72,2|8,0:0|0:0,0:0:0:0:
72,40,219631,1,0,0:0:0:0:
220,142,219802,6,0,P|283:154|308:134,1,72,2|0,0:0|0:0,0:0:0:0:
252,236,220145,2,0,P|304:200|308:168,1,72,8|0,0:0|0:0,0:0:0:0:
340,279,220488,2,0,P|352:217|332:192,1,72,2|2,0:0|0:0,0:0:0:0:
432,248,220830,2,0,P|396:196|364:192,1,72,8|2,0:0|0:0,0:0:0:0:
475,159,221173,2,0,P|413:148|388:168,1,72,2|0,0:0|0:0,0:0:0:0:
444,68,221516,2,0,P|393:104|389:136,1,72,8|0,0:0|0:0,0:0:0:0:
356,24,221859,2,0,P|345:87|365:112,1,72,2|0,0:0|0:0,0:0:0:0:
264,56,222202,2,0,P|300:108|333:112,1,72,8|8,3:0|0:3,0:0:0:0:
164,288,222545,6,0,P|120:236|140:164,1,144,2|8,0:0|0:0,0:0:0:0:
344,176,223059,1,0,0:0:0:0:
272,224,223231,2,0,L|188:216,1,72,2|0,0:0|0:0,0:0:0:0:
92,296,223574,2,0,L|176:288,1,72,8|0,0:0|0:0,0:0:0:0:
124,168,223916,2,0,L|81:164,3,36,2|2|2|2,0:0|0:0|0:0|0:0,0:0:0:0:
4,80,224259,2,0,L|46:84,3,36,2|2|2|2,0:0|0:0|0:0|0:0,0:0:0:0:
60,64,224602,6,0,L|152:56,1,72,2|0,0:0|0:0,0:0:0:0:
156,172,224945,2,0,L|215:101,1,72,8|0,0:0|0:0,0:0:0:0:
292,144,225288,2,0,P|352:108|432:140,1,144,2|8,0:0|0:0,0:0:0:0:
464,276,225802,1,0,0:0:0:0:
380,260,225974,2,0,L|364:184,1,72,8|8,0:3|0:3,0:0:0:0:
296,240,226316,2,0,L|230:197,1,72,8|0,0:3|0:0,0:0:0:0:
220,284,226659,2,0,L|144:300,1,72,2|2,0:0|0:0,0:0:0:0:
0,200,227002,6,0,B|19:195|19:195|55:171|55:171|78:183|78:183|152:167,1,144,2|2,0:0|0:0,0:0:0:0:
216,152,227516,1,0,0:0:0:0:
156,88,227688,1,8,0:0:0:0:
192,240,227859,1,0,0:0:0:0:
296,124,228031,6,0,P|328:104|376:108,1,72,2|0,0:0|0:0,0:0:0:0:
360,212,228374,2,0,P|397:207|439:231,1,72,8|0,0:0|0:0,0:0:0:0:
372,320,228716,2,0,P|407:331|435:370,1,72,2|0,0:0|0:0,0:0:0:0:
216,324,229059,2,0,L|132:320,1,72,8|0,0:0|0:0,0:0:0:0:
88,256,229402,1,8,0:3:0:0:
88,256,229574,1,8,0:3:0:0:
172,172,229745,2,0,P|182:205|174:240,1,72,8|0,0:3|0:0,0:0:0:0:
61,150,230088,2,0,P|26:142|0:117,1,72,0|2,0:0|0:0,0:0:0:0:
140,64,230431,2,0,P|164:37|198:27,1,72,10|2,0:0|0:0,0:0:0:0:
376,52,230774,5,2,0:0:0:0:
388,60,230945,1,0,0:0:0:0:
232,164,231288,1,0,0:0:0:0:
220,172,231459,1,2,0:0:0:0:
388,256,231802,1,2,0:0:0:0:
400,264,231973,1,2,0:0:0:0:
224,324,232316,1,0,0:0:0:0:
212,332,232487,1,8,0:0:0:0:
304,240,232831,2,0,L|320:116,2,108,2|2|2,0:0|0:0|0:0,0:0:0:0:
344,324,233516,5,4,0:0:0:0:
344,324,234031,6,0,P|296:296|212:324,1,144,2|0,0:0|0:0,0:0:0:0:
88,352,234545,2,0,L|240:340,1,144,0|0,0:0|0:0,0:0:0:0:
276,372,235059,2,0,P|236:346|236:244,1,144,2|2,0:0|0:0,0:0:0:0:
300,208,235574,2,0,L|388:220,1,72,0|0,0:0|0:0,0:0:0:0:
140,268,235916,2,0,L|52:256,1,72,2|2,0:0|0:0,0:0:0:0:
192,176,236259,6,0,B|200:148|184:120|184:120|204:32,1,144,0|0,0:0|0:0,0:0:0:0:
116,164,236774,2,0,L|260:120,1,144,2|0,0:0|0:0,0:0:0:0:
284,80,237288,2,0,P|324:116|308:204,1,144,2|0,0:0|0:0,0:0:0:0:
400,220,237802,2,0,L|484:236,2,72,2|0|2,0:0|0:0|0:0,0:0:0:0:
264,268,238316,2,0,L|180:284,1,72,2|2,0:0|0:0,0:0:0:0:
360,336,238659,2,0,L|444:352,1,72,0|2,0:0|0:0,0:0:0:0:
216,360,239002,6,0,P|144:348|117:258,1,144,0|0,0:0|0:0,0:0:0:0:
240,140,239516,2,0,B|235:155|235:155|239:189|239:189|222:205|222:205|201:282,1,144,2|2,0:0|0:0,0:0:0:0:
190,284,240031,2,0,L|354:264,1,144,0|0,0:0|0:0,0:0:0:0:
428,260,240545,2,0,P|456:296|456:328,2,72,2|2|0,0:0|0:0|0:0,0:0:0:0:
344,272,241059,2,0,P|298:278|271:262,1,72,2|2,0:0|0:0,0:0:0:0:
368,196,241402,2,0,P|385:153|412:137,1,72,2|0,0:0|0:0,0:0:0:0:
364,56,241745,6,0,L|435:45,2,72,2|0|0,0:0|0:0|0:0,0:0:0:0:
256,116,242259,2,0,L|184:105,2,72,2|0|0,0:0|0:0|0:0,0:0:0:0:
352,192,242774,2,0,L|423:181,2,72,2|0|0,0:0|0:0|0:0,0:0:0:0:
252,264,243288,2,0,L|180:253,2,72,2|2|0,0:0|0:0|0:0,0:0:0:0:
360,324,243802,2,0,L|431:313,2,72,2|0|0,0:0|0:0|0:0,0:0:0:0:
240,344,244316,1,0,0:0:0:0:
368,240,244488,5,0,0:0:0:0:
