osu file format v14

[General]
AudioFilename: ginkiha - EOS -INFINITE EDIT- [EXH].mp3
AudioLeadIn: 0
PreviewTime: 92300
Countdown: 0
SampleSet: Normal
StackLeniency: 0.7
Mode: 3
LetterboxInBreaks: 0
SpecialStyle: 0
WidescreenStoryboard: 0

[Editor]
DistanceSpacing: 1.5
BeatDivisor: 4
GridSize: 4
TimelineZoom: 2.2

[Metadata]
Title:EOS -INFINITE EDIT-
TitleUnicode:EOS -INFINITE EDIT-
Artist:ginkiha
ArtistUnicode:ginkiha
Creator:MeowPaz
Version:NOVICE
Source:SOUND VOLTEX II -infinite infection-
Tags:SDVX BOF2012 BMS ULTIMATE TRACKS LEGEND OF KAC2013 DAYBREAK HARDCORE Pharos21 Sky_Demon Marirose
BeatmapID:610387
BeatmapSetID:255431

[Difficulty]
HPDrainRate:7
CircleSize:4
OverallDifficulty:7
ApproachRate:5
SliderMultiplier:1.4
SliderTickRate:1

[Events]
//Background and Video events
0,0,"EOS.png",0,0
//Break Periods
//Storyboard Layer 0 (Background)
//Storyboard Layer 1 (Fail)
//Storyboard Layer 2 (Pass)
//Storyboard Layer 3 (Foreground)
//Storyboard Sound Samples

[TimingPoints]
415,342.857142857143,4,1,1,30,1,0
20643,-100,4,1,1,50,0,0
92300,-100,4,1,1,50,0,1
114243,-100,4,1,1,50,0,0

[HitObjects]
448,192,1786,128,0,3843:0:0:0:0:
64,192,1786,1,0,0:0:0:100:suzu.wav
192,192,3843,128,0,4529:0:0:0:0:
64,192,4529,128,0,6586:0:0:0:0:
448,192,6586,128,0,7272:0:0:0:0:
320,192,7272,128,0,9329:0:0:0:0:
64,192,9329,128,0,10015:0:0:0:0:
192,192,10015,128,0,11386:0:0:0:0:
448,192,11386,128,0,12757:0:0:0:0:
64,192,12757,1,0,0:0:0:100:suzu.wav
192,192,12757,128,0,14815:0:0:0:0:
448,192,14815,128,0,15500:0:0:0:0:
64,192,15500,128,0,16872:0:0:0:0:
320,192,16872,128,0,17557:0:0:0:0:
448,192,17557,128,0,18243:0:0:0:0:
64,192,17900,1,8,0:0:0:0:
192,192,18072,1,8,0:0:0:0:
64,192,18243,128,0,20643:0:0:0:0:
320,192,18243,1,4,0:0:0:0:
192,192,18586,1,2,0:0:0:0:
320,192,18929,1,8,0:0:0:0:
192,192,19272,1,2,0:0:0:0:
320,192,19443,1,8,0:0:0:0:
448,192,19615,1,4,0:0:0:0:
192,192,19957,1,2,0:0:0:0:
320,192,20300,1,8,0:0:0:0:
192,192,20643,1,2,0:0:0:0:
320,192,20815,1,8,0:0:0:0:
448,192,20986,1,4,0:0:0:0:
448,192,21157,1,0,0:0:0:0:
192,192,21500,1,0,0:0:0:0:
192,192,21672,1,0,0:0:0:0:
320,192,22015,1,0,0:0:0:0:
320,192,22186,1,0,0:0:0:0:
64,192,22529,1,0,0:0:0:0:
64,192,22700,1,0,0:0:0:0:
320,192,23043,1,4,0:0:0:0:
192,192,23300,1,4,0:0:0:0:
448,192,23557,1,4,0:0:0:0:
64,192,23729,1,8,0:0:0:0:
320,192,24072,1,2,0:0:0:0:
64,192,24415,1,8,0:0:0:0:
320,192,24757,1,2,0:0:0:0:
64,192,25100,1,8,0:0:0:0:
320,192,25443,1,2,0:0:0:0:
64,192,25786,128,0,26472:0:0:0:0:
192,192,26472,1,8,0:0:0:0:
448,192,26815,1,2,0:0:0:0:
192,192,27157,1,8,0:0:0:0:
448,192,27500,1,2,0:0:0:0:
192,192,27843,1,8,0:0:0:0:
448,192,28186,1,2,0:0:0:0:
192,192,28529,128,0,29215:0:0:0:0:
448,192,29215,1,8,0:0:0:0:
64,192,29557,1,2,0:0:0:0:
448,192,29900,1,8,0:0:0:0:
64,192,30243,1,2,0:0:0:0:
448,192,30586,1,8,0:0:0:0:
64,192,30929,1,2,0:0:0:0:
448,192,31272,128,0,31957:0:0:0:0:
192,192,31957,1,8,0:0:0:0:
320,192,32300,1,2,0:0:0:0:
192,192,32643,1,8,0:0:0:0:
320,192,32986,1,2,0:0:0:0:
192,192,33329,1,8,0:0:0:0:
320,192,33672,1,2,0:0:0:0:
192,192,34015,1,8,0:0:0:0:
320,192,34357,1,2,0:0:0:0:
192,192,34529,1,8,0:0:0:0:
64,192,34700,1,0,0:0:0:100:suzu.wav
448,192,34700,1,4,0:0:0:0:
320,192,35043,1,2,0:0:0:0:
64,192,35386,1,8,0:0:0:0:
320,192,35729,1,2,0:0:0:0:
64,192,36072,1,8,0:0:0:0:
320,192,36415,1,2,0:0:0:0:
64,192,36757,128,0,37443:0:0:0:0:
448,192,37443,1,8,0:0:0:0:
192,192,37786,1,2,0:0:0:0:
448,192,38129,1,8,0:0:0:0:
192,192,38472,1,2,0:0:0:0:
448,192,38815,1,8,0:0:0:0:
192,192,39157,1,2,0:0:0:0:
448,192,39500,128,0,40186:0:0:0:0:
64,192,40186,1,8,0:0:0:0:
448,192,40529,1,2,0:0:0:0:
64,192,40872,1,8,0:0:0:0:
448,192,41215,1,2,0:0:0:0:
64,192,41557,1,8,0:0:0:0:
448,192,41900,1,2,0:0:0:0:
64,192,42243,1,8,0:0:0:0:
192,192,42415,1,0,0:0:0:0:
448,192,42586,1,2,0:0:0:0:
320,192,42757,1,0,0:0:0:0:
64,192,42929,1,4,0:0:0:0:
448,192,42929,1,0,0:0:0:0:
192,192,43272,1,2,0:0:0:0:
64,192,43615,1,4,0:0:0:0:
448,192,43615,1,0,0:0:0:0:
320,192,43957,1,2,0:0:0:0:
64,192,44300,1,4,0:0:0:0:
448,192,44300,1,0,0:0:0:0:
192,192,44643,1,4,0:0:0:0:
320,192,44643,1,0,0:0:0:0:
64,192,44986,128,0,45672:0:0:0:0:
192,192,45672,1,0,0:0:0:30:Effect.wav
448,192,45672,128,0,47043:0:0:0:0:
64,192,47043,128,0,47900:0:0:0:0:
448,192,47900,1,0,0:0:0:30:Effect.wav
64,192,48415,1,8,0:0:0:0:
192,192,48586,1,8,0:0:0:0:
320,192,48757,1,8,0:0:0:0:
448,192,48929,1,8,0:0:0:0:
64,192,49100,128,0,49786:0:0:0:0:
448,192,49786,1,0,0:0:0:30:Effect.wav
320,192,50300,1,0,0:0:0:30:Effect.wav
192,192,50815,1,0,0:0:0:30:Effect.wav
64,192,51157,1,0,0:0:0:30:Effect.wav
320,192,51500,1,0,0:0:0:0:
448,192,51843,128,0,52357:0:0:0:0:
192,192,52529,1,0,0:0:0:0:
192,192,52700,1,0,0:0:0:0:
320,192,52872,1,0,0:0:0:0:
448,192,53043,1,0,0:0:0:0:
320,192,53386,1,0,0:0:0:0:
64,192,53557,128,0,53900:0:0:0:0:
448,192,53900,128,0,54157:0:0:0:0:
320,192,53900,1,0,0:0:0:30:Effect.wav
192,192,54243,1,0,0:0:0:0:
320,192,54415,1,0,0:0:0:0:
192,192,54586,128,0,55272:0:0:0:0:
64,192,55272,128,0,55957:0:0:0:0:
448,192,56129,1,0,0:0:0:30:Effect.wav
320,192,56129,1,0,0:0:0:0:
448,192,56643,1,0,0:0:0:30:Effect.wav
320,192,56815,1,0,0:0:0:0:
192,192,56986,1,0,0:0:0:0:
192,192,57500,1,0,0:0:0:0:
448,192,57843,1,0,0:0:0:0:
64,192,58015,1,0,0:0:0:0:
448,192,58357,1,0,0:0:0:0:
192,192,58529,1,0,0:0:0:0:
448,192,58872,1,0,0:0:0:0:
320,192,59043,1,0,0:0:0:0:
64,192,59386,1,0,0:0:0:30:Effect.wav
192,192,59557,1,0,0:0:0:0:
320,192,59729,1,0,0:0:0:0:
320,192,60243,1,0,0:0:0:0:
64,192,60586,1,0,0:0:0:0:
448,192,60757,1,0,0:0:0:0:
64,192,61100,1,0,0:0:0:0:
320,192,61272,1,0,0:0:0:0:
64,192,61615,1,0,0:0:0:0:
192,192,61786,1,0,0:0:0:0:
448,192,61957,1,0,0:0:0:30:Effect.wav
320,192,62129,1,0,0:0:0:30:Effect.wav
64,192,62472,128,0,62986:0:0:0:0:
320,192,62986,1,0,0:0:0:30:Effect.wav
448,192,63157,1,0,0:0:0:0:
64,192,63500,1,0,0:0:0:30:Effect.wav
448,192,63843,128,0,64357:0:0:0:0:
192,192,64357,1,0,0:0:0:30:Effect.wav
64,192,64529,1,0,0:0:0:0:
448,192,64872,1,0,0:0:0:10:Effect.wav
64,192,65043,1,0,0:0:0:10:Effect.wav
448,192,65215,1,0,0:0:0:10:Effect.wav
64,192,65386,1,0,0:0:0:10:Effect.wav
320,192,65557,1,0,0:0:0:10:Effect.wav
192,192,65729,1,0,0:0:0:10:Effect.wav
320,192,65900,1,0,0:0:0:10:Effect.wav
192,192,66072,1,0,0:0:0:10:Effect.wav
320,192,66243,128,0,67615:0:0:0:0:
192,192,66929,128,0,67615:0:0:0:0:
448,192,67615,128,0,68986:0:0:0:0:
64,192,68986,1,0,0:0:0:0:
192,192,69157,1,0,0:0:0:0:
320,192,69329,1,0,0:0:0:0:
192,192,69500,1,0,0:0:0:0:
64,192,69672,128,0,70357:0:0:0:30:Effect.wav
448,192,69672,1,0,0:0:0:0:
448,192,70357,128,0,72415:0:0:0:0:
320,192,70357,1,8,0:0:0:0:
64,192,70700,1,2,0:0:0:0:
320,192,71043,1,8,0:0:0:0:
64,192,71386,1,2,0:0:0:0:
320,192,71729,1,8,0:0:0:0:
64,192,72072,1,2,0:0:0:0:
64,192,72415,128,0,73100:0:0:0:0:
192,192,72415,1,2,0:0:0:0:
320,192,72757,1,8,0:0:0:0:
192,192,73100,1,8,0:0:0:0:
448,192,73100,128,0,75157:0:0:0:0:
64,192,73443,1,2,0:0:0:0:
320,192,73786,1,8,0:0:0:0:
64,192,74129,1,2,0:0:0:0:
320,192,74472,1,8,0:0:0:0:
64,192,74815,1,2,0:0:0:0:
192,192,75157,128,0,75843:0:0:0:0:
320,192,75157,1,8,0:0:0:0:
448,192,75500,1,2,0:0:0:0:
320,192,75843,1,8,0:0:0:0:
64,192,75843,128,0,77900:0:0:0:0:
448,192,76186,1,2,0:0:0:0:
192,192,76529,1,8,0:0:0:0:
448,192,76872,1,2,0:0:0:0:
192,192,77215,1,8,0:0:0:0:
448,192,77557,1,2,0:0:0:0:
448,192,77900,128,0,78586:0:0:0:0:
320,192,77900,1,2,0:0:0:0:
192,192,78243,1,8,0:0:0:0:
320,192,78586,1,8,0:0:0:0:
64,192,78586,128,0,79957:0:0:0:0:
448,192,78929,1,2,0:0:0:0:
320,192,79272,1,8,0:0:0:0:
448,192,79615,1,2,0:0:0:0:
320,192,79957,1,8,0:0:0:0:
192,192,80129,1,0,0:0:0:0:
448,192,80300,1,2,0:0:0:0:
64,192,80472,1,0,0:0:0:0:
448,192,80643,1,8,0:0:0:0:
320,192,80815,1,0,0:0:0:0:
192,192,80986,1,2,0:0:0:0:
320,192,81157,1,8,0:0:0:0:
448,192,81329,1,8,0:0:0:0:
64,192,81329,1,4,0:0:0:0:
64,192,81672,1,0,0:0:0:0:
320,192,81672,1,2,0:0:0:0:
192,192,82015,1,8,0:0:0:0:
64,192,82357,1,0,0:0:0:0:
448,192,82357,1,2,0:0:0:0:
320,192,82700,1,8,0:0:0:0:
192,192,83043,1,0,0:0:0:0:
448,192,83043,1,2,0:0:0:0:
64,192,83386,128,0,84072:0:0:0:0:
320,192,83386,1,8,0:0:0:0:
448,192,83729,1,2,0:0:0:0:
320,192,84072,1,8,0:0:0:0:
192,192,84415,1,0,0:0:0:0:
448,192,84415,1,2,0:0:0:0:
64,192,84757,1,8,0:0:0:0:
192,192,85100,1,0,0:0:0:0:
448,192,85100,1,2,0:0:0:0:
320,192,85443,1,8,0:0:0:0:
64,192,85786,1,0,0:0:0:0:
448,192,85786,1,2,0:0:0:0:
192,192,86129,1,8,0:0:0:0:
64,192,86472,1,0,0:0:0:0:
320,192,86472,1,2,0:0:0:0:
448,192,86815,1,8,0:0:0:0:
320,192,87157,1,2,0:0:0:0:
64,192,87157,1,0,0:0:0:0:
192,192,87500,1,8,0:0:0:0:
448,192,87843,1,2,0:0:0:0:
64,192,87843,1,0,0:0:0:0:
192,192,88186,1,8,0:0:0:0:
320,192,88357,1,0,0:0:0:0:
192,192,88529,1,2,0:0:0:0:
448,192,88700,1,0,0:0:0:0:
64,192,88872,1,8,0:0:0:0:
192,192,89043,1,0,0:0:0:0:
320,192,89215,1,2,0:0:0:0:
448,192,89386,1,0,0:0:0:0:
192,192,89557,1,4,0:0:0:0:
64,192,89557,1,8,0:0:0:0:
320,192,89729,1,0,0:0:0:0:
448,192,89900,1,2,0:0:0:0:
320,192,90072,1,0,0:0:0:0:
192,192,90243,1,8,0:0:0:0:
64,192,90415,1,0,0:0:0:0:
192,192,90586,1,2,0:0:0:0:
320,192,90757,1,8,0:0:0:0:
448,192,90929,1,8,0:0:0:0:
64,192,90929,1,4,0:0:0:0:
320,192,91100,1,8,0:0:0:0:
64,192,91272,1,8,0:0:0:0:
448,192,91443,1,8,0:0:0:0:
64,192,91615,1,4,0:0:0:0:
192,192,91615,1,0,0:0:0:0:
320,192,91786,1,0,0:0:0:0:
64,192,91957,1,4,0:0:0:0:
448,192,91957,1,0,0:0:0:0:
192,192,92129,1,0,0:0:0:0:
320,192,92300,1,4,0:0:0:0:
64,192,92300,1,0,0:0:0:0:
192,192,92643,1,2,0:0:0:0:
448,192,92986,1,8,0:0:0:0:
64,192,92986,128,0,93329:0:0:0:0:
192,192,93329,1,2,0:0:0:0:
320,192,93672,1,8,0:0:0:0:
448,192,93672,128,0,94357:0:0:0:0:
64,192,94015,1,2,0:0:0:0:
64,192,94357,1,8,0:0:0:0:
192,192,94529,1,0,0:0:0:0:
320,192,94700,1,2,0:0:0:0:
320,192,94872,1,0,0:0:0:0:
64,192,95043,1,8,0:0:0:0:
448,192,95215,1,0,0:0:0:0:
320,192,95386,1,2,0:0:0:0:
64,192,95729,1,8,0:0:0:0:
320,192,95900,1,0,0:0:0:0:
64,192,96072,1,2,0:0:0:0:
320,192,96243,1,0,0:0:0:0:
448,192,96415,1,8,0:0:0:0:
64,192,96415,128,0,97100:0:0:0:0:
192,192,96757,1,2,0:0:0:0:
448,192,97100,1,8,0:0:0:0:
320,192,97272,1,0,0:0:0:0:
192,192,97443,1,2,0:0:0:0:
64,192,97615,1,0,0:0:0:0:
320,192,97786,1,8,0:0:0:0:
448,192,98129,128,0,98472:0:0:0:30:Effect.wav
192,192,98472,1,8,0:0:0:0:
64,192,98815,128,0,99157:0:0:0:30:Effect.wav
320,192,99157,1,8,0:0:0:0:
448,192,99500,128,0,99843:0:0:0:30:Effect.wav
192,192,99843,1,8,0:0:0:0:
64,192,100186,128,0,100529:0:0:0:30:Effect.wav
448,192,100529,1,8,0:0:0:0:
320,192,100700,1,0,0:0:0:0:
192,192,100872,1,2,0:0:0:0:
320,192,101043,1,0,0:0:0:0:
64,192,101215,1,8,0:0:0:0:
448,192,101386,1,8,0:0:0:0:
192,192,101557,1,2,0:0:0:0:
448,192,101900,1,8,0:0:0:0:
320,192,102072,1,0,0:0:0:0:
192,192,102243,1,2,0:0:0:0:
64,192,102415,1,0,0:0:0:0:
320,192,102586,1,8,0:0:0:0:
192,192,102757,1,0,0:0:0:0:
448,192,102929,1,2,0:0:0:0:
320,192,103100,1,8,0:0:0:0:
64,192,103272,1,8,0:0:0:0:
320,192,103615,1,2,0:0:0:0:
448,192,103957,128,0,104300:0:0:0:0:
64,192,103957,1,8,0:0:0:0:
192,192,104300,1,2,0:0:0:0:
64,192,104643,128,0,105329:0:0:0:0:
448,192,104643,1,8,0:0:0:0:
320,192,104986,1,2,0:0:0:0:
448,192,105329,1,0,0:0:0:15:Effect.wav
320,192,105500,1,0,0:0:0:15:Effect.wav
192,192,105672,1,0,0:0:0:15:Effect.wav
64,192,105843,1,0,0:0:0:15:Effect.wav
448,192,106015,1,8,0:0:0:0:
192,192,106186,1,0,0:0:0:0:
320,192,106357,1,2,0:0:0:0:
448,192,106700,1,8,0:0:0:0:
192,192,106872,1,0,0:0:0:0:
448,192,107043,1,2,0:0:0:0:
192,192,107215,1,0,0:0:0:0:
448,192,107386,128,0,108072:0:0:0:0:
64,192,107386,1,8,0:0:0:0:
192,192,107729,1,2,0:0:0:0:
64,192,108072,1,0,0:3:0:15:Effect.wav
192,192,108243,1,0,0:3:0:15:Effect.wav
320,192,108415,1,0,0:3:0:15:Effect.wav
448,192,108586,1,0,0:3:0:15:Effect.wav
64,192,108757,1,8,0:0:0:0:
320,192,109100,1,2,0:0:0:0:
448,192,109443,1,0,0:0:0:0:
64,192,109786,1,2,0:0:0:0:
320,192,109957,1,0,0:0:0:0:
192,192,110129,1,8,0:0:0:0:
192,192,110300,1,0,0:0:0:0:
320,192,110472,1,2,0:0:0:0:
448,192,110643,1,0,0:0:0:0:
64,192,110815,1,8,0:0:0:0:
192,192,110986,1,0,0:0:0:0:
320,192,111157,1,2,0:0:0:0:
192,192,111329,1,0,0:0:0:0:
448,192,111500,1,0,0:0:0:15:Effect.wav
64,192,111500,1,0,0:0:0:0:
64,192,111672,1,0,0:0:0:0:
448,192,111672,1,0,0:0:0:15:Effect.wav
192,192,112015,1,0,0:0:0:0:
320,192,112015,1,0,0:0:0:15:Effect.wav
192,192,112186,1,0,0:0:0:0:
320,192,112186,1,0,0:0:0:15:Effect.wav
448,192,112529,1,0,0:3:0:15:Effect.wav
64,192,112529,1,0,0:0:0:0:
448,192,112700,1,0,0:3:0:15:Effect.wav
64,192,112700,1,0,0:0:0:0:
320,192,112872,1,8,0:0:0:0:
192,192,113043,1,0,0:0:0:0:
64,192,113215,1,2,0:0:0:0:
192,192,113386,1,0,0:0:0:0:
448,192,113557,128,0,114243:0:0:0:0:
64,192,114243,128,0,116643:0:0:0:70:pianoend.wav
192,192,114243,1,0,0:0:0:30:Effect.wav
