osu file format v14

[General]
AudioFilename: eos.mp3
AudioLeadIn: 2000
PreviewTime: 54841
Countdown: 0
SampleSet: Soft
StackLeniency: 0.8
Mode: 0
LetterboxInBreaks: 0
WidescreenStoryboard: 0

[Editor]
Bookmarks: 21327,100184
DistanceSpacing: 1.4
BeatDivisor: 4
GridSize: 4
TimelineZoom: 1.300001

[Metadata]
Title:EOS
TitleUnicode:EOS
Artist:ginkiha
ArtistUnicode:ginkiha
Creator:flawful
Version:Normal
Source:BMS
Tags:Akitoshi Dawn DnB abanes16 drum'n'bass of fighters Trent83
BeatmapID:963230
BeatmapSetID:448829

[Difficulty]
HPDrainRate:4
CircleSize:3
OverallDifficulty:4
ApproachRate:5
SliderMultiplier:1.1
SliderTickRate:1

[Events]
//Background and Video events
0,0,"Snow-and-sunset.jpg",0,0
//Break Periods
2,77065,97608
//Storyboard Layer 0 (Background)
//Storyboard Layer 1 (Fail)
//Storyboard Layer 2 (Pass)
//Storyboard Layer 3 (Foreground)
//Storyboard Sound Samples

[TimingPoints]
66,342.857142857143,4,2,1,45,1,0
8294,-100,4,2,1,60,0,0
54923,-100,4,2,1,60,0,1
76866,-100,4,2,1,60,0,0
101551,-100,4,2,1,60,0,1
134466,-100,4,2,1,60,0,0
148866,-100,4,2,1,5,0,0

[Colours]
Combo1 : 128,0,255
Combo2 : 237,225,139
Combo3 : 255,0,128

[HitObjects]
128,96,66,6,0,P|72:152|72:240,2,165,8|0|0,0:0|0:0|0:0,0:0:0:0:
176,196,1437,2,0,P|224:212|284:196,1,110
372,136,2123,2,0,L|371:269,1,110
300,332,2808,6,0,P|225:362|144:328,2,165
465,224,4351,2,0,P|413:208|357:224,1,110
308,204,4866,2,0,L|307:150,2,55,0|0|4,0:0|0:0|0:0,0:0:0:0:
204,244,5551,6,0,P|146:248|76:220,1,110,8|0,0:0|0:0,0:0:0:0:
47,209,6066,1,0,0:0:0:0:
92,368,6580,1,0,0:0:0:0:
204,244,7094,2,0,P|191:295|212:368,1,110
258,348,7608,2,0,L|327:350,1,55
366,335,7951,2,0,L|422:335,1,55,4|0,0:0|0:0,0:0:0:0:
473,319,8294,6,0,P|480:230|450:149,1,165,8|0,0:0|0:0,0:0:0:0:
350,32,9323,2,0,P|329:91|350:161,1,110,8|0,0:0|0:0,0:0:0:0:
361,185,9837,2,0,P|382:244|361:314,1,110
361,343,10351,1,8,0:0:0:0:
270,280,10694,1,8,0:0:0:0:
193,359,11037,1,0,0:0:0:0:
84,342,11380,6,0,L|77:210,1,110,4|0,0:0|0:0,0:0:0:0:
42,127,12066,2,0,P|100:108|173:124,1,110,4|0,0:0|0:0,0:0:0:0:
218,197,12751,2,0,P|276:216|349:200,1,110,4|0,0:0|0:0,0:0:0:0:
419,155,13437,2,0,L|420:288,1,110,4|0,0:0|0:0,0:0:0:0:
323,320,14123,6,0,L|323:196,1,110,4|0,0:0|0:0,0:0:0:0:
275,110,14808,2,0,B|223:99|223:99|136:116,1,110,4|0,0:0|0:0,0:0:0:0:
103,200,15494,2,0,B|155:211|155:211|242:194,1,110,4|0,0:0|0:0,0:0:0:0:
319,180,16180,2,0,L|383:179,2,55,4|0|0,0:0|0:0|0:0,0:0:0:0:
215,141,16866,6,0,L|212:274,1,110,4|0,0:0|0:0,0:0:0:0:
112,292,17551,2,0,L|115:159,1,110,4|0,0:0|0:0,0:0:0:0:
92,76,18237,2,0,P|164:56|212:76,1,110,4|0,0:0|0:0,0:0:0:0:
224,172,18923,2,0,P|296:192|344:172,1,110,4|0,0:0|0:0,0:0:0:0:
412,112,19608,6,0,B|440:164|440:164|440:236,1,110,4|0,0:0|0:0,0:0:0:0:
355,285,20294,2,0,B|327:233|327:233|327:161,1,110,4|0,0:0|0:0,0:0:0:0:
412,112,20980,1,4,0:0:0:0:
316,56,21323,2,0,L|248:56,2,55,4|0|0,0:0|0:0|0:0,0:0:0:0:
364,84,21837,1,0,0:0:0:0:
412,112,22008,6,0,L|444:228,1,110,2|4,0:0|0:0,0:0:0:0:
356,292,22694,2,0,P|332:248|336:180,1,110,0|4,0:0|0:0,0:0:0:0:
412,112,23380,1,0,0:0:0:0:
441,218,23723,1,4,0:0:0:0:
356,292,24066,1,0,0:0:0:0:
248,292,24408,1,4,0:0:0:0:
168,216,24751,6,0,P|112:204|52:208,1,110,0|4,0:0|0:0,0:0:0:0:
20,104,25437,2,0,P|76:92|136:96,1,110,0|4,0:0|0:0,0:0:0:0:
224,40,26123,2,0,B|232:120|232:120|212:172,1,110,2|4,0:0|0:0,0:0:0:0:
172,244,26808,1,0,0:0:0:0:
80,184,27151,6,0,L|20:184,2,55,0|0|4,0:0|0:0|0:0,0:0:0:0:
172,244,27837,2,0,P|232:232|288:264,1,110
360,324,28523,6,0,L|424:324,2,55,0|0|4,0:0|0:0|0:0,0:0:0:0:
260,360,29208,2,0,L|276:240,1,110
240,148,29894,6,0,L|176:148,2,55,0|0|4,0:0|0:0|0:0,0:0:0:0:
340,100,30580,1,0,0:0:0:0:
420,176,30923,1,4,0:0:0:0:
360,268,31266,1,0,0:0:0:0:
256,228,31608,6,0,L|184:228,2,55,8|0|0,0:0|0:0|0:0,0:0:0:0:
284,180,32123,1,0,0:0:0:0:
312,132,32294,2,0,L|376:128,1,55,2|0,0:0|0:0,0:0:0:0:
416,152,32637,2,0,L|476:148,1,55,2|0,0:0|0:0,0:0:0:0:
500,100,32980,5,8,0:0:0:0:
420,24,33323,1,4,0:0:0:0:
320,68,33666,2,0,P|304:124|324:184,1,110,0|4,0:0|0:0,0:0:0:0:
356,276,34351,2,0,L|232:272,1,110,0|4,0:0|0:0,0:0:0:0:
208,376,35037,2,0,L|332:372,1,110,0|4,0:0|0:0,0:0:0:0:
408,308,35723,5,0,0:0:0:0:
360,208,36066,1,4,0:0:0:0:
252,184,36408,1,0,0:0:0:0:
152,232,36751,1,4,0:0:0:0:
136,340,37094,2,0,P|71:347|6:323,2,110,0|4|0,0:0|0:0|0:0,0:0:0:0:
222,272,38123,1,4,0:0:0:0:
321,318,38466,6,0,P|386:325|451:301,1,110,0|4,0:0|0:0,0:0:0:0:
507,236,39151,2,0,L|500:122,1,110,0|4,0:0|0:0,0:0:0:0:
390,116,39837,2,0,L|397:230,1,110,0|4,0:0|0:0,0:0:0:0:
323,308,40523,2,0,P|264:318|195:293,2,110,0|4|0,0:0|0:0|0:0,0:0:0:0:
428,342,41551,6,0,L|435:210,1,110,4|0,0:0|0:0,0:0:0:0:
470,127,42237,2,0,P|412:108|339:124,1,110,4|0,0:0|0:0,0:0:0:0:
294,197,42923,2,0,P|236:216|163:200,1,110,4|0,0:0|0:0,0:0:0:0:
87,254,43608,2,0,L|28:254,2,55,4|0|8,0:0|0:0|0:0,0:0:0:0:
176,319,44294,6,0,L|193:177,1,110,4|0,0:0|0:0,0:0:0:0:
237,110,44980,2,0,B|289:99|289:99|376:116,1,110,4|0,0:0|0:0,0:0:0:0:
409,200,45666,2,0,B|357:211|357:211|270:194,1,110,4|0,0:0|0:0,0:0:0:0:
192,215,46351,2,0,B|182:159|182:159|192:104,1,110,4|0,0:0|0:0,0:0:0:0:
297,141,47037,6,0,L|300:274,1,110,4|0,0:0|0:0,0:0:0:0:
400,292,47723,2,0,L|397:159,1,110,4|0,0:0|0:0,0:0:0:0:
420,76,48408,2,0,P|348:56|300:76,1,110,4|0,0:0|0:0,0:0:0:0:
288,172,49094,2,0,P|216:192|168:172,1,110,4|0,0:0|0:0,0:0:0:0:
100,112,49780,6,0,B|72:164|72:164|72:236,1,110,4|0,0:0|0:0,0:0:0:0:
157,285,50466,2,0,B|185:233|185:233|185:161,1,110,4|0,0:0|0:0,0:0:0:0:
203,73,51151,2,0,P|266:60|314:78,2,110,4|0|4,0:0|0:0|0:0,0:0:0:0:
100,112,52180,2,0,L|68:228,1,110,2|4,0:0|0:0,0:0:0:0:
156,292,52866,2,0,P|180:248|176:180,1,110,0|4,0:0|0:0,0:0:0:0:
100,112,53551,5,8,0:0:0:0:
72,220,53894,1,4,0:0:0:0:
156,292,54237,1,8,0:0:0:0:
264,292,54580,1,4,0:0:0:0:
344,216,54923,6,0,P|400:204|460:208,1,110,0|4,0:0|0:0,0:0:0:0:
492,104,55608,2,0,P|436:92|376:96,1,110,0|4,0:0|0:0,0:0:0:0:
288,40,56294,2,0,B|280:120|280:120|300:172,1,110,0|4,0:0|0:0,0:0:0:0:
340,244,56980,1,0,0:0:0:0:
432,184,57323,2,0,L|492:184,2,55,4|0|0,0:0|0:0|0:0,0:0:0:0:
340,244,58008,6,0,P|280:232|224:264,1,110,4|0,0:0|0:0,0:0:0:0:
152,324,58694,2,0,L|88:324,2,55,4|0|0,0:0|0:0|0:0,0:0:0:0:
256,368,59380,2,0,L|237:252,1,110,4|0,0:0|0:0,0:0:0:0:
268,153,60066,2,0,L|332:153,2,55,4|0|0,0:0|0:0|0:0,0:0:0:0:
172,100,60751,5,4,0:0:0:0:
92,176,61094,1,0,0:0:0:0:
152,268,61437,1,4,0:0:0:0:
256,228,61780,2,0,L|328:228,2,55,0|0|4,0:0|0:0|0:0,0:0:0:0:
152,268,62466,2,0,P|144:208|156:156,1,110
240,92,63151,5,0,0:0:0:0:
348,120,63494,1,4,0:0:0:0:
376,228,63837,2,0,P|320:244|260:224,1,110,0|4,0:0|0:0,0:0:0:0:
172,180,64523,2,0,P|156:236|176:296,1,110,0|4,0:0|0:0,0:0:0:0:
268,336,65208,2,0,L|392:336,1,110
420,300,65723,1,0,0:0:0:0:
448,252,65894,6,0,L|444:124,1,110
336,128,66580,2,0,L|336:260,1,110
376,340,67266,2,0,P|441:347|506:323,2,110,0|4|0,0:0|0:0|0:0,0:0:0:0:
290,272,68294,1,4,0:0:0:0:
191,318,68637,6,0,P|126:325|61:301,1,110,0|4,0:0|0:0,0:0:0:0:
5,236,69323,2,0,L|12:122,1,110,0|4,0:0|0:0,0:0:0:0:
122,116,70008,2,0,L|115:230,1,110,0|4,0:0|0:0,0:0:0:0:
197,300,70694,1,0,0:0:0:0:
306,280,71037,1,4,0:0:0:0:
354,181,71380,6,0,B|412:175|412:175|472:200,1,110,0|4,0:0|0:0,0:0:0:0:
411,293,72066,2,0,B|353:299|353:299|293:274,1,110,0|4,0:0|0:0,0:0:0:0:
240,189,72751,2,0,P|187:170|118:182,1,110,0|4,0:0|0:0,0:0:0:0:
33,220,73437,2,0,L|41:95,1,110,0|4,0:0|0:0,0:0:0:0:
117,32,74123,5,0,0:0:0:0:
124,141,74466,1,4,0:0:0:0:
199,61,74808,1,0,0:0:0:0:
207,170,75151,1,4,0:0:0:0:
282,89,75494,6,0,B|336:81|336:81|404:95,1,110,0|4,0:0|0:0,0:0:0:0:
436,122,76008,2,0,B|430:244,1,110,2|0,0:0|0:0,0:0:0:0:
421,286,76523,2,0,L|364:295,2,55,4|0|8,0:0|0:0|0:0,0:0:0:0:
256,192,98808,12,0,100180,0:0:0:0:
98,66,101551,6,0,B|79:121|79:121|84:199,1,110,2|8,0:0|0:0,0:0:0:0:
168,241,102237,2,0,B|187:186|187:186|182:108,1,110,0|4,0:0|0:0,0:0:0:0:
98,66,102923,1,0,0:0:0:0:
82,172,103266,1,4,0:0:0:0:
168,241,103608,1,0,0:0:0:0:
267,194,103951,1,4,0:0:0:0:
345,117,104294,6,0,P|398:104|464:120,1,110,0|4,0:0|0:0,0:0:0:0:
480,220,104980,2,0,P|427:233|361:217,1,110,0|4,0:0|0:0,0:0:0:0:
267,194,105666,1,0,0:0:0:0:
216,291,106008,1,4,0:0:0:0:
169,191,106351,1,0,0:0:0:0:
115,287,106694,2,0,L|45:287,2,55,4|0|0,0:0|0:0|0:0,0:0:0:0:
210,342,107380,6,0,P|262:355|329:335,1,110,4|0,0:0|0:0,0:0:0:0:
396,267,108066,2,0,P|448:254|515:274,2,110,4|0|4,0:0|0:0|0:0,0:0:0:0:
292,302,109094,2,0,L|300:160,1,110,0|4,0:0|0:0,0:0:0:0:
344,92,109780,6,0,L|414:92,2,55,0|0|4,0:0|0:0|0:0,0:0:0:0:
298,192,110466,1,0,0:0:0:0:
225,109,110808,1,4,0:0:0:0:
193,214,111151,2,0,L|117:214,2,55,0|0|4,0:0|0:0|0:0,0:0:0:0:
298,249,111837,2,0,L|381:248,2,55,0|0|4,0:0|0:0|0:0,0:0:0:0:
263,292,112351,1,0,0:0:0:0:
227,334,112523,6,0,P|171:344|111:334,1,110,8|4,0:0|0:0,0:0:0:0:
46,253,113208,2,0,L|53:130,1,110,0|4,0:0|0:0,0:0:0:0:
157,109,113894,2,0,L|150:232,1,110,0|4,0:0|0:0,0:0:0:0:
239,284,114580,1,0,0:0:0:0:
337,234,114923,1,4,0:0:0:0:
323,124,115266,6,0,B|165:103|165:103|217:161,1,220,8|0,0:0|0:0,0:0:0:0:
273,230,116294,1,0,0:0:0:0:
354,304,116637,6,0,P|439:245|426:135,2,220,8|8|0,0:0|0:0|0:0,0:0:0:0:
273,230,118351,6,0,L|143:228,2,110,4|0|4,0:0|0:0|0:0,0:0:0:0:
384,216,119380,2,0,P|392:276|368:336,1,110,0|4,0:0|0:0,0:0:0:0:
270,349,120066,2,0,L|137:347,1,110,0|4,0:0|0:0,0:0:0:0:
64,296,120751,6,0,P|109:249|205:249,1,165,8|8,0:0|0:0,0:0:0:0:
80,140,121780,1,8,0:0:0:0:
172,80,122123,2,0,B|225:61|225:61|303:78,2,110,10|0|2,0:0|0:0|0:0,0:0:0:0:
80,140,123151,2,0,L|68:220,1,55,8|0,0:0|0:0,0:0:0:0:
37,239,123494,6,0,P|31:305|52:360,1,110,8|4,0:0|0:0,0:0:0:0:
149,313,124180,2,0,L|268:313,1,110,0|4,0:0|0:0,0:0:0:0:
361,271,124866,2,0,L|445:271,2,55,0|0|4,0:0|0:0|0:0,0:0:0:0:
260,225,125551,1,0,0:0:0:0:
359,177,125894,1,4,0:0:0:0:
258,131,126237,6,0,P|191:98|109:281,1,330,2|0,0:0|0:0,0:0:0:0:
197,219,127608,2,0,P|264:257|356:145,2,220,2|2|0,0:0|0:0|0:0,0:0:0:0:
102,273,129323,5,4,0:0:0:0:
12,208,129666,1,0,0:0:0:0:
53,106,130008,2,0,L|169:109,1,110,4|0,0:0|0:0,0:0:0:0:
226,198,130694,2,0,L|110:201,2,110,4|0|4,0:0|0:0|0:0,0:0:0:0:
330,234,131723,6,0,L|397:239,2,55,0|0|4,0:0|0:0|0:0,0:0:0:0:
291,273,132237,1,0,0:0:0:0:
252,312,132408,2,0,P|192:323|120:301,1,110,0|4,0:0|0:0,0:0:0:0:
63,238,133094,1,0,0:0:0:0:
101,135,133437,2,0,L|159:111,1,55,4|0,0:0|0:0,0:0:0:0:
205,210,133951,1,0,0:0:0:0:
228,259,134123,2,0,L|297:259,2,55,4|0|0,0:0|0:0|0:0,0:0:0:0:
122,289,134808,5,4,0:0:0:0:
228,259,135151,2,0,L|233:141,1,110,0|4,0:0|0:0,0:0:0:0:
302,63,135837,2,0,P|208:42|122:139,2,220,0|0|2,0:0|0:0|0:0,0:0:0:0:
342,165,137551,2,0,P|397:171|454:155,2,110,4|2|4,0:0|0:0|0:0,0:0:0:0:
232,149,138580,2,0,P|177:143|120:159,1,110,2|4,0:0|0:0,0:0:0:0:
33,218,139266,2,0,L|25:96,1,110,0|4,0:0|0:0,0:0:0:0:
105,32,139951,1,0,0:0:0:0:
147,134,140294,5,4,0:0:0:0:
237,71,140637,2,0,L|296:68,1,55
335,102,140980,2,0,L|394:99,1,55,4|0,0:0|0:0,0:0:0:0:
434,67,141323,2,0,P|450:125|437:202,1,110,0|4,0:0|0:0,0:0:0:0:
375,258,142008,1,0,0:0:0:0:
286,192,142351,2,0,P|228:176|151:189,2,110,4|0|4,0:0|0:0|0:0,0:0:0:0:
375,258,143380,1,0,0:0:0:0:
300,338,143723,1,4,0:0:0:0:
202,287,144066,6,0,L|124:330,2,55,0|0|2,0:0|0:0|0:0,0:0:0:0:
238,245,144580,2,0,L|252:127,1,110
263,81,145094,2,0,L|271:11,2,55,2|0|8,0:0|0:0|0:0,0:0:0:0:
256,192,145780,12,0,148866,0:0:0:0:
