osu file format v14

[General]
AudioFilename: eos.mp3
AudioLeadIn: 2000
PreviewTime: 54841
Countdown: 0
SampleSet: Soft
StackLeniency: 0.5
Mode: 0
LetterboxInBreaks: 0
WidescreenStoryboard: 0

[Editor]
Bookmarks: 21323,100180
DistanceSpacing: 0.8
BeatDivisor: 4
GridSize: 16
TimelineZoom: 2.5

[Metadata]
Title:EOS
TitleUnicode:EOS
Artist:ginkiha
ArtistUnicode:ginkiha
Creator:flawful
Version:Insane
Source:BMS
Tags:Akitoshi Dawn DnB abanes16 drum'n'bass of fighters Trent83
BeatmapID:963228
BeatmapSetID:448829

[Difficulty]
HPDrainRate:6.5
CircleSize:4
OverallDifficulty:8.2
ApproachRate:9.2
SliderMultiplier:1.4
SliderTickRate:2

[Events]
//Background and Video events
0,0,"Snow-and-sunset.jpg",0,0
//Break Periods
2,77065,84524
//Storyboard Layer 0 (Background)
//Storyboard Layer 1 (Fail)
//Storyboard Layer 2 (Pass)
//Storyboard Layer 3 (Foreground)
//Storyboard Sound Samples

[TimingPoints]
66,342.857142857143,4,2,2,27,1,0
66,-100,4,2,1,27,0,0
408,-100,4,2,2,27,0,0
1608,-100,4,2,2,36,0,0
2123,-90.9090909090909,4,2,2,42,0,0
2466,-90.9090909090909,4,2,2,70,0,0
2808,-83.3333333333333,4,2,2,39,0,0
4351,-83.3333333333333,4,2,2,45,0,0
5208,-83.3333333333333,4,2,2,70,0,0
5551,-76.9230769230769,4,2,1,28,0,0
6066,-76.9230769230769,4,2,2,28,0,0
7608,-76.9230769230769,4,2,2,35,0,0
7951,-76.9230769230769,4,2,2,48,0,0
9666,-76.9230769230769,4,2,2,48,0,0
11037,-90.9090909090909,4,2,2,10,0,0
11380,-71.4285714285714,4,2,2,60,0,0
11723,-71.4285714285714,4,2,2,60,0,0
21323,-71.4285714285714,4,2,2,60,0,0
21666,-71.4285714285714,4,2,2,60,0,0
22008,-71.4285714285714,4,2,2,60,0,0
22351,-71.4285714285714,4,2,2,60,0,0
26123,-71.4285714285714,4,2,1,60,0,0
27494,-71.4285714285714,4,2,2,60,0,0
31608,-71.4285714285714,4,2,2,60,0,0
32294,-71.4285714285714,4,2,2,60,0,0
33323,-71.4285714285714,4,2,2,60,0,0
42751,-71.4285714285714,4,2,2,56,0,0
42923,-71.4285714285714,4,2,2,47,0,0
43094,-71.4285714285714,4,2,2,47,0,0
43437,-71.4285714285714,4,2,2,47,0,0
43951,-71.4285714285714,4,2,2,47,0,0
44294,-71.4285714285714,4,2,2,47,0,0
52180,-71.4285714285714,4,2,2,60,0,0
53551,-71.4285714285714,4,2,2,67,0,0
54923,-71.4285714285714,4,2,2,60,0,1
56294,-71.4285714285714,4,2,2,47,0,1
56980,-71.4285714285714,4,2,2,60,0,1
60751,-71.4285714285714,4,2,2,51,0,1
61094,-71.4285714285714,4,2,2,51,0,1
63151,-71.4285714285714,4,2,2,60,0,1
64523,-58.8235294117647,4,2,2,60,0,1
65037,-71.4285714285714,4,2,2,60,0,1
70008,-71.4285714285714,4,2,1,60,0,1
70351,-71.4285714285714,4,2,2,60,0,1
76866,-71.4285714285714,4,2,1,69,0,0
77037,-71.4285714285714,4,2,2,69,0,0
87666,-71.4285714285714,4,2,2,5,0,0
87837,-125,4,2,2,60,0,0
90580,-90.9090909090909,4,2,2,60,0,0
93323,-90.9090909090909,4,2,2,60,0,0
93494,-90.9090909090909,4,2,2,60,0,0
96066,-66.6666666666667,4,2,2,60,0,0
97437,-66.6666666666667,4,2,2,74,0,0
98808,-133.333333333333,4,2,2,36,0,0
100180,-90.9090909090909,4,2,2,60,0,0
100866,-90.9090909090909,4,2,2,56,0,0
101037,-90.9090909090909,4,2,2,50,0,0
101208,-90.9090909090909,4,2,2,45,0,0
101380,-90.9090909090909,4,2,2,42,0,0
101551,-71.4285714285714,4,2,2,69,0,1
112523,-71.4285714285714,4,2,1,69,0,1
112866,-71.4285714285714,4,2,2,69,0,1
118008,-71.4285714285714,4,2,2,69,0,1
122123,-71.4285714285714,4,2,2,69,0,1
123494,-71.4285714285714,4,2,1,60,0,1
123837,-71.4285714285714,4,2,2,60,0,1
131723,-71.4285714285714,4,2,2,60,0,1
133094,-58.8235294117647,4,2,2,60,0,1
133608,-90.9090909090909,4,2,2,60,0,1
133951,-71.4285714285714,4,2,2,60,0,1
135151,-71.4285714285714,4,2,2,60,0,1
139266,-71.4285714285714,4,2,2,60,0,1
142694,-71.4285714285714,4,2,2,60,0,0
144066,-58.8235294117647,4,2,1,60,0,0
144580,-71.4285714285714,4,2,2,60,0,0
145437,-71.4285714285714,4,2,1,60,0,0
148866,-71.4285714285714,4,2,2,5,0,0

[Colours]
Combo1 : 228,202,133
Combo2 : 164,32,240
Combo3 : 255,0,128

[HitObjects]
99,274,66,38,0,B|147:266|147:266|187:278|187:278|239:270,1,140,8|0,0:0|0:0,0:0:0:0:
272,188,580,2,0,B|224:180|224:180|184:192|184:192|132:184,1,140
325,250,1094,2,0,P|353:190|316:121,1,140
232,72,1608,21,0,0:0:0:0:
232,72,1780,2,0,L|224:168,1,70
324,128,2123,2,0,L|320:232,1,77.0000023498536
297,323,2466,1,8,0:0:0:0:
40,228,2808,22,0,P|48:136|144:124,1,167.999994873047
270,189,3323,2,0,B|186:157|186:217|82:181,1,167.999994873047
114,23,3837,2,0,B|102:71|102:71|114:127|114:127|102:203,1,167.999994873047
188,172,4351,5,0,0:0:0:0:
188,172,4523,2,0,L|288:156,1,83.9999974365235
244,260,4866,2,0,L|156:252,1,83.9999974365235
52,276,5208,1,8,0:0:0:0:
220,344,5551,5,8,0:0:0:0:
304,312,5723,1,0,0:0:0:0:
136,272,5894,1,0,0:0:0:0:
288,220,6066,2,0,L|388:240,2,90.9999958343508,2|0|0,0:0|0:0|0:0,0:0:0:0:
192,184,6580,2,0,B|96:184,2,90.9999958343508
316,160,7094,6,0,L|428:136,2,90.9999958343508
192,184,7608,1,0,0:0:0:0:
232,59,7780,1,0,0:0:0:0:
276,236,7951,1,8,0:0:0:0:
247,242,8037,1,0,0:0:0:0:
219,248,8123,1,0,0:0:0:0:
194,254,8208,1,0,0:0:0:0:
166,260,8294,5,6,3:0:0:0:
320,236,8466,1,0,0:0:0:0:
204,184,8637,1,0,0:0:0:0:
400,196,8808,1,6,0:0:0:0:
284,80,8980,1,0,0:0:0:0:
260,204,9151,1,0,0:0:0:0:
432,204,9323,1,6,0:0:0:0:
296,72,9494,1,0,0:0:0:0:
300,256,9666,5,0,0:3:0:0:
364,336,9837,1,0,0:0:0:0:
300,256,10008,1,0,0:0:0:0:
324,168,10180,1,0,0:0:0:0:
180,80,10351,5,6,2:0:0:0:
120,175,10523,1,0,0:0:0:0:
129,205,10608,1,0,0:0:0:0:
152,228,10694,1,0,0:0:0:0:
180,244,10780,1,0,0:0:0:0:
212,248,10866,1,0,0:0:0:0:
244,240,10951,1,0,0:0:0:0:
264,224,11037,6,0,L|288:352,1,115.50000352478
285,337,11380,1,12,0:0:0:0:
420,368,11551,1,0,0:0:0:0:
504,264,11723,2,0,P|474:228|410:212,1,97.9999970092774
295,241,12066,2,0,B|303:205|303:205|295:157|319:121,1,97.9999970092774,8|0,0:0|0:0,0:0:0:0:
426,211,12408,2,0,B|418:247|418:247|426:295|402:331,1,97.9999970092774
294,242,12751,2,0,B|250:218|186:242,1,97.9999970092774,8|0,0:0|0:0,0:0:0:0:
88,160,13094,5,0,0:0:0:0:
199,238,13266,1,0,0:0:0:0:
80,304,13437,1,8,0:0:0:0:
215,361,13608,1,0,0:0:0:0:
215,361,13694,1,0,0:0:0:0:
215,361,13780,6,0,P|268:368|324:352,1,97.9999970092774
400,252,14123,2,0,B|448:236|496:252,1,97.9999970092774,8|0,0:0|0:0,0:0:0:0:
392,164,14466,1,0,0:0:0:0:
272,232,14637,1,0,0:0:0:0:
344,348,14808,1,0,0:0:0:0:
464,276,14980,1,0,0:0:0:0:
272,232,15151,6,0,P|224:222|175:226,1,97.9999970092774
456,164,15494,1,0,0:0:0:0:
456,164,15666,1,0,0:0:0:0:
376,220,15837,2,0,P|360:172|368:124,1,97.9999970092774
453,47,16180,1,8,0:0:0:0:
480,160,16351,1,0,0:0:0:0:
376,220,16523,6,0,P|304:224|228:208,1,146.999995513916
207,213,16866,2,0,P|186:261|202:321,1,97.9999970092774,8|0,0:0|0:0,0:0:0:0:
328,284,17208,1,0,0:0:0:0:
340,120,17380,1,0,0:0:0:0:
395,227,17551,1,8,0:0:0:0:
208,188,17723,1,0,0:0:0:0:
292,248,17894,6,0,L|400:232,1,97.9999970092774
200,172,18237,2,0,L|92:152,1,97.9999970092774,8|0,0:0|0:0,0:0:0:0:
203,268,18580,1,0,0:0:0:0:
324,208,18751,1,0,0:0:0:0:
192,280,18923,2,0,B|165:276|165:276|126:287|74:270,1,97.9999970092774,8|0,0:0|0:0,0:0:0:0:
336,200,19266,5,0,0:0:0:0:
384,320,19437,1,0,0:0:0:0:
320,208,19608,1,8,0:0:0:0:
256,328,19780,1,0,0:0:0:0:
256,328,19866,1,0,0:0:0:0:
256,328,19951,1,0,0:0:0:0:
192,200,20123,1,0,0:0:0:0:
400,224,20294,1,8,0:0:0:0:
388,232,20466,1,0,0:0:0:0:
405,78,20637,5,0,0:0:0:0:
388,232,20808,1,0,0:0:0:0:
264,136,20980,1,8,0:0:0:0:
467,206,21151,1,0,0:0:0:0:
412,144,21323,2,0,P|460:128|520:140,1,97.9999970092774
315,102,21666,1,2,0:0:0:0:
282,111,21751,1,2,0:0:0:0:
247,113,21837,1,2,0:0:0:0:
213,106,21923,1,2,0:0:0:0:
182,91,22008,6,0,P|108:112|36:104,1,146.999995513916,4|0,0:0|0:0,0:0:0:0:
15,100,22351,2,0,L|24:211,1,97.9999970092774,8|0,0:0|0:0,0:0:0:0:
193,259,22694,1,0,0:0:0:0:
38,286,22866,1,0,0:0:0:0:
144,171,23037,1,8,0:0:0:0:
289,228,23208,1,0,0:0:0:0:
439,181,23380,6,0,L|451:301,1,97.9999970092774
388,356,23723,2,0,B|340:372|340:372|284:364,1,97.9999970092774,8|0,0:0|0:0,0:0:0:0:
257,361,23980,1,0,0:0:0:0:
220,356,24066,2,0,L|112:344,1,97.9999970092774
41,270,24408,1,8,0:0:0:0:
173,144,24580,1,0,0:0:0:0:
40,184,24751,6,0,B|72:196|72:196|100:192|100:192|136:220|184:220,1,146.999995513916
144,296,25094,2,0,B|198:298|198:298|251:271,1,97.9999970092774,8|0,0:0|0:0,0:0:0:0:
304,328,25437,1,0,0:0:0:0:
332,184,25608,1,0,0:0:0:0:
416,240,25780,1,8,0:0:0:0:
235,273,25951,1,0,0:0:0:0:
416,240,26123,6,0,P|448:344|346:273,1,293.999991027832,8|0,0:0|0:0,0:0:0:0:
179,172,26808,2,0,B|304:209|304:209|240:221,1,195.999994018555,8|0,0:0|0:0,0:0:0:0:
340,288,27323,1,0,0:0:0:0:
436,340,27494,6,0,L|448:228,1,97.9999970092774,4|0,0:0|0:0,0:0:0:0:
404,50,27837,1,8,0:0:0:0:
361,187,28008,1,0,0:0:0:0:
304,100,28180,2,0,B|196:100,1,97.9999970092774
264,187,28523,2,0,P|312:195|360:187,1,97.9999970092774,8|0,0:0|0:0,0:0:0:0:
448,168,28780,1,0,0:0:0:0:
448,168,28866,6,0,L|440:324,1,146.999995513916,4|0,0:0|0:0,0:0:0:0:
440,314,29208,2,0,P|392:300|340:312,1,97.9999970092774,8|0,0:0|0:0,0:0:0:0:
268,344,29551,2,0,L|148:340,1,97.9999970092774
88,308,29894,1,8,0:0:0:0:
240,264,30066,1,0,0:0:0:0:
119,214,30237,5,4,0:0:0:0:
171,342,30408,1,0,0:0:0:0:
303,306,30580,1,4,0:0:0:0:
122,228,30751,5,4,0:0:0:0:
200,340,30922,1,0,0:0:0:0:
320,273,31094,1,4,0:0:0:0:
120,199,31266,5,2,0:0:0:0:
288,252,31437,1,0,0:0:0:0:
79,252,31608,5,4,0:0:0:0:
279,184,31780,1,2,0:0:0:0:
160,336,31951,1,2,0:0:0:0:
232,112,32123,1,2,0:0:0:0:
43,120,32294,5,0,0:0:0:0:
67,136,32380,1,0,0:0:0:0:
91,152,32466,1,0,0:0:0:0:
115,144,32551,1,0,0:0:0:0:
147,136,32637,1,0,0:0:0:0:
179,136,32723,1,0,0:0:0:0:
203,144,32808,1,0,0:0:0:0:
227,160,32894,1,0,0:0:0:0:
244,176,32980,6,0,B|284:160|284:160|336:192|400:160,1,146.999995513916
404,156,33323,2,0,L|421:269,1,97.9999970092774,8|0,0:0|0:0,0:0:0:0:
349,360,33666,2,0,L|332:247,1,97.9999970092774
300,92,34008,1,8,0:0:0:0:
408,180,34180,1,0,0:0:0:0:
334,263,34351,6,0,P|289:282|242:275,1,97.9999970092774
76,249,34694,2,0,P|121:233|169:244,1,97.9999970092774,8|0,0:0|0:0,0:0:0:0:
232,80,35037,2,0,B|240:152|240:152|232:192,1,97.9999970092774
61,352,35380,1,0,0:0:0:0:
93,344,35466,1,0,0:0:0:0:
125,344,35551,1,0,0:0:0:0:
157,352,35637,1,0,0:0:0:0:
180,368,35723,6,0,B|228:377|228:377|291:365,1,97.9999970092774
300,220,36066,2,0,P|252:208|192:224,1,97.9999970092774,8|0,0:0|0:0,0:0:0:0:
137,242,36323,1,0,0:0:0:0:
137,242,36408,2,0,P|125:190|133:134,1,97.9999970092774
321,130,36751,2,0,P|336:181|325:238,1,97.9999970092774,8|0,0:0|0:0,0:0:0:0:
144,240,37094,5,0,0:0:0:0:
136,120,37266,1,0,0:0:0:0:
240,184,37437,1,8,0:0:0:0:
104,208,37608,1,0,0:0:0:0:
245,176,37780,2,0,L|357:196,1,97.9999970092774
236,348,38123,2,0,P|232:288|256:252,1,97.9999970092774,8|0,0:0|0:0,0:0:0:0:
356,120,38466,6,0,P|408:160|340:268,1,195.999994018555,0|8,0:0|0:0,0:0:0:0:
208,288,38980,2,0,P|212:236|256:184,1,97.9999970092774
119,180,39323,2,0,P|147:140|211:120,1,97.9999970092774,0|8,0:0|0:0,0:0:0:0:
343,159,39666,2,0,P|339:211|295:263,1,97.9999970092774
430,269,40009,2,0,P|402:309|338:329,1,97.9999970092774,0|8,0:0|0:0,0:0:0:0:
216,272,40351,5,0,0:0:0:0:
212,280,40437,1,0,0:0:0:0:
208,288,40523,2,0,L|100:304,1,97.9999970092774
24,320,40866,1,8,0:0:0:0:
208,288,41037,1,0,0:0:0:0:
156,216,41208,6,0,L|48:232,1,97.9999970092774
208,288,41551,2,0,P|240:248|236:184,1,97.9999970092774,8|0,0:0|0:0,0:0:0:0:
172,148,41894,2,0,L|188:40,1,97.9999970092774
244,200,42237,2,0,P|196:232|140:228,1,97.9999970092774,8|0,0:0|0:0,0:0:0:0:
80,160,42580,1,0,0:0:0:0:
80,160,42751,6,0,L|92:60,1,97.9999970092774
176,104,43094,6,0,L|160:224,1,97.9999970092774
176,280,43437,6,0,P|120:288|72:272,1,97.9999970092774
224,352,43780,1,0,0:0:0:0:
396,256,43951,6,0,L|228:268,1,146.999995513916,4|0,0:0|0:0,0:0:0:0:
220,248,44294,2,0,L|324:240,1,97.9999970092774,8|0,0:0|0:0,0:0:0:0:
404,232,44637,1,0,0:0:0:0:
336,372,44808,1,0,0:0:0:0:
256,172,44980,1,8,0:0:0:0:
200,296,45151,1,0,0:0:0:0:
332,328,45323,6,0,L|320:220,1,97.9999970092774
196,288,45666,2,0,L|208:184,1,97.9999970092774,8|0,0:0|0:0,0:0:0:0:
321,230,46008,2,0,P|381:242|429:226,1,97.9999970092774
192,176,46351,2,0,P|136:164|80:180,1,97.9999970092774,8|0,0:0|0:0,0:0:0:0:
184,335,46694,6,0,L|208:179,1,146.999995513916
216,200,47037,2,0,P|266:195|322:227,1,97.9999970092774,8|0,0:0|0:0,0:0:0:0:
360,280,47380,1,0,0:0:0:0:
408,136,47551,1,0,0:0:0:0:
476,240,47723,1,8,0:0:0:0:
324,168,47894,1,0,0:0:0:0:
484,236,48066,5,0,0:0:0:0:
320,300,48237,2,0,P|260:304|200:280,2,97.9999970092774,0|8|0,0:0|0:0|0:0,0:0:0:0:
408,256,48751,2,0,L|401:353,1,97.9999970092774
484,204,49094,2,0,P|480:160|424:112,1,97.9999970092774,8|0,0:0|0:0,0:0:0:0:
248,152,49437,5,0,0:0:0:0:
344,48,49608,1,0,0:0:0:0:
400,192,49780,2,0,P|408:256|384:308,1,97.9999970092774,8|0,0:0|0:0,0:0:0:0:
344,356,50037,1,0,0:0:0:0:
344,356,50123,2,0,L|228:348,1,97.9999970092774
72,312,50466,2,0,L|188:304,1,97.9999970092774,8|0,0:0|0:0,0:0:0:0:
252,272,50808,6,0,P|264:224|256:168,1,97.9999970092774
108,140,51151,2,0,P|96:188|104:244,1,97.9999970092774,8|0,0:0|0:0,0:0:0:0:
240,164,51494,2,0,B|292:156|292:156|340:176,1,97.9999970092774
260,252,51837,1,8,0:0:0:0:
208,248,51923,1,0,0:0:0:0:
164,216,52009,1,0,0:0:0:0:
152,164,52094,1,0,0:0:0:0:
164,112,52180,6,0,B|204:84|204:84|272:84,1,97.9999970092774,4|0,0:0|0:0,0:0:0:0:
300,212,52523,2,0,B|260:240|260:240|192:240,1,97.9999970092774,8|0,0:0|0:0,0:0:0:0:
52,240,52866,1,0,0:0:0:0:
112,116,53037,1,0,0:0:0:0:
232,180,53208,1,8,0:0:0:0:
172,304,53380,1,0,0:0:0:0:
76,204,53551,5,4,0:0:0:0:
314,172,53723,1,0,0:0:0:0:
192,172,53894,5,2,0:0:0:0:
430,204,54066,1,0,0:0:0:0:
295,257,54237,5,0,0:0:0:0:
258,241,54323,1,0,0:0:0:0:
219,234,54408,1,0,0:0:0:0:
179,237,54494,1,0,0:0:0:0:
141,248,54580,1,0,0:0:0:0:
107,268,54666,1,0,0:0:0:0:
77,293,54751,1,0,0:0:0:0:
53,324,54837,1,0,0:0:0:0:
36,348,54923,6,0,B|16:264|52:212|52:212|76:268,1,195.999994018555,4|8,0:0|0:0,0:0:0:0:
136,360,55437,1,0,0:0:0:0:
136,360,55608,2,0,P|192:376|240:360,1,97.9999970092774
308,324,55951,2,0,P|364:308|412:324,1,97.9999970092774,8|0,0:0|0:0,0:0:0:0:
480,276,56294,6,0,L|488:220,3,48.9999985046387
444,224,56637,2,0,L|436:172,3,48.9999985046387,8|0|0|0,0:0|0:0|0:0|0:0,0:0:0:0:
460,152,56980,2,0,L|480:40,2,97.9999970092774,0|0|8,0:0|0:0|0:0,0:0:0:0:
288,156,57494,2,0,P|336:128|448:204,1,195.999994018555
464,280,58008,5,8,0:0:0:0:
372,356,58180,1,0,0:0:0:0:
338,172,58351,1,0,0:0:0:0:
260,260,58523,1,0,0:0:0:0:
376,268,58694,1,8,0:0:0:0:
271,143,58866,1,0,0:0:0:0:
271,143,59037,6,0,L|160:144,2,97.9999970092774,0|0|8,0:0|0:0|0:0,0:0:0:0:
353,144,59551,1,0,0:0:0:0:
353,144,59637,1,0,0:0:0:0:
353,144,59723,2,0,B|365:188|365:188|357:256,2,97.9999970092774,0|0|8,0:0|0:0|0:0,0:0:0:0:
412,83,60237,2,0,P|336:59|267:141,1,195.999994018555
329,235,60751,6,0,B|353:187|353:187|353:135,1,97.9999970092774,8|0,0:0|0:0,0:0:0:0:
231,45,61094,1,0,0:0:0:0:
231,192,61266,1,0,0:0:0:0:
105,115,61437,1,8,0:0:0:0:
16,232,61608,6,0,L|8:288,1,48.9999985046387
84,284,61780,2,0,L|96:344,1,48.9999985046387
160,300,61951,2,0,L|192:348,1,48.9999985046387
216,256,62123,2,0,B|268:228|268:268|320:248,1,97.9999970092774,8|0,0:0|0:0,0:0:0:0:
487,206,62466,1,0,0:0:0:0:
376,166,62637,1,0,0:0:0:0:
365,312,62808,1,8,0:0:0:0:
488,250,62980,1,0,0:0:0:0:
282,187,63151,6,0,P|234:179|178:195,2,97.9999970092774,0|0|8,0:0|0:0|0:0,0:0:0:0:
356,280,63666,1,0,0:0:0:0:
126,270,63837,6,0,P|83:193|138:98,1,195.999994018555,0|8,0:0|0:0,0:0:0:0:
180,188,64351,2,0,L|194:238,1,48.9999985046387
300,224,64523,6,0,B|320:280|320:280|384:184|332:96,1,238.00000453949,0|8,0:0|0:0,0:0:0:0:
300,224,65037,2,0,B|368:208|368:208|400:228,2,97.9999970092774
184,224,65551,1,8,0:0:0:0:
172,252,65637,1,0,0:0:0:0:
160,280,65723,2,0,L|92:288,1,48.9999985046387
4,196,65894,6,0,B|60:176|60:176|104:196,1,97.9999970092774
160,280,66237,2,0,B|216:300|216:300|260:280,1,97.9999970092774,8|0,0:0|0:0,0:0:0:0:
419,196,66580,1,0,0:0:0:0:
307,349,66751,1,0,0:0:0:0:
306,186,66923,1,8,0:0:0:0:
422,322,67094,1,0,0:0:0:0:
243,252,67266,5,4,0:0:0:0:
197,229,67351,1,0,0:0:0:0:
167,188,67437,1,0,0:0:0:0:
167,135,67523,1,0,0:0:0:0:
186,89,67608,1,8,0:0:0:0:
228,59,67694,1,0,0:0:0:0:
281,59,67780,1,0,0:0:0:0:
326,81,67866,1,0,0:0:0:0:
348,120,67951,6,0,P|356:168|352:224,2,97.9999970092774,0|0|8,0:0|0:0|0:0,0:0:0:0:
212,52,68466,2,0,P|164:104|188:228,1,195.999994018555
280,320,68980,1,8,0:0:0:0:
308,324,69066,1,0,0:0:0:0:
336,328,69151,1,0,0:0:0:0:
136,284,69323,5,0,0:0:0:0:
264,208,69494,1,0,0:0:0:0:
76,156,69666,1,8,0:0:0:0:
240,72,69837,1,0,0:0:0:0:
176,256,70008,5,2,0:0:0:0:
128,64,70180,1,2,0:0:0:0:
320,104,70351,2,0,P|340:168|332:264,1,146.999995513916,8|0,0:0|0:0,0:0:0:0:
336,247,70694,2,0,L|224:244,2,97.9999970092774,0|0|8,0:0|0:0|0:0,0:0:0:0:
408,300,71208,2,0,B|432:244|432:244|416:212|416:212|436:172|408:112,1,195.999994018555
148,64,71723,6,0,P|132:116|140:176,1,97.9999970092774,8|0,0:0|0:0,0:0:0:0:
310,208,72066,2,0,P|322:148|314:104,1,97.9999970092774
168,28,72408,1,8,0:0:0:0:
228,196,72580,1,0,0:0:0:0:
156,36,72751,1,2,0:0:0:0:
316,112,72923,1,0,0:0:0:0:
132,140,73094,1,8,0:0:0:0:
260,4,73266,1,0,0:0:0:0:
298,208,73437,6,0,L|318:96,2,97.9999970092774,2|0|8,0:0|0:0|0:0,0:0:0:0:
281,305,73951,2,0,B|337:345|337:281|405:325|405:325|441:305|441:305|477:313,1,195.999994018555
411,111,74466,2,0,P|356:103|297:122,1,97.9999970092774,8|0,0:0|0:0,0:0:0:0:
281,207,74808,2,0,P|336:215|395:196,1,97.9999970092774
160,136,75151,5,12,0:0:0:0:
152,188,75237,1,0,0:0:0:0:
164,240,75323,1,0,0:0:0:0:
156,292,75408,1,0,0:0:0:0:
164,344,75494,6,0,B|304:328|304:328|244:304,1,195.999994018555,2|8,0:0|0:0,0:0:0:0:
92,264,76008,1,0,0:0:0:0:
180,76,76180,1,0,0:0:0:0:
248,284,76351,1,0,0:0:0:0:
248,284,76437,1,0,0:0:0:0:
248,284,76523,2,0,B|392:272|392:272|344:304,1,195.999994018555,10|8,0:0|0:0,0:0:0:0:
256,192,85094,12,0,87666,0:0:0:0:
136,236,87837,5,6,0:0:0:0:
176,96,88008,1,2,0:0:0:0:
212,284,88180,2,0,L|348:288,1,112
136,236,88694,6,0,B|112:276|112:276|124:356,1,112,4|0,0:0|0:0,0:0:0:0:
184,128,89208,6,0,B|144:120|144:120|108:132|108:132|64:128,1,112,2|0,0:0|0:0,0:0:0:0:
276,196,89723,6,0,P|304:148|292:88,1,112,4|2,0:0|0:0,0:0:0:0:
160,264,90237,1,2,0:0:0:0:
320,336,90408,1,2,0:0:0:0:
252,160,90580,5,4,0:0:0:0:
208,332,90751,1,0,0:0:0:0:
92,208,90923,2,0,L|84:264,1,38.5000011749268,8|0,0:0|0:0,0:0:0:0:
68,320,91094,1,0,0:0:0:0:
68,320,91180,1,0,0:0:0:0:
68,320,91266,1,0,0:0:0:0:
280,296,91437,6,0,P|220:300|152:276,1,115.50000352478,4|0,0:0|0:0,0:0:0:0:
228,183,91780,2,0,L|224:239,1,38.5000011749268,4|0,1:0|0:0,0:0:0:0:
176,113,91951,6,0,P|240:105|304:129,1,115.50000352478,2|0,0:0|0:0,0:0:0:0:
384,124,92294,2,0,L|388:72,1,38.5000011749268,4|0,1:0|0:0,0:0:0:0:
327,190,92466,6,0,P|331:250|307:318,1,115.50000352478,4|0,0:0|0:0,0:0:0:0:
204,234,92808,2,0,L|256:238,1,38.5000011749268,4|0,1:0|0:0,0:0:0:0:
420,272,92980,1,2,0:0:0:0:
314,181,93151,1,2,0:0:0:0:
306,319,93323,5,0,0:0:0:0:
360,164,93494,1,0,0:0:0:0:
312,340,93666,2,0,P|260:348|196:320,1,115.50000352478,8|0,0:0|0:0,0:0:0:0:
148,272,94008,1,0,0:0:0:0:
124,268,94094,1,0,0:0:0:0:
100,264,94180,1,0,0:0:0:0:
236,192,94351,1,8,0:0:0:0:
176,336,94523,1,0,0:0:0:0:
108,156,94694,6,0,L|100:92,1,38.5000011749268
72,248,94866,2,0,L|64:304,1,38.5000011749268
176,216,95037,2,0,P|232:224|272:212,1,77.0000023498536,8|0,0:0|0:0,0:0:0:0:
288,248,95294,1,0,0:0:0:0:
280,276,95380,1,0,0:0:0:0:
272,304,95466,1,0,0:0:0:0:
264,332,95551,1,0,0:0:0:0:
184,308,95723,1,8,0:0:0:0:
384,272,95894,1,0,0:0:0:0:
212,152,96066,5,4,0:0:0:0:
308,336,96237,1,2,0:0:0:0:
208,164,96408,1,8,3:0:0:0:
364,224,96580,1,0,0:0:0:0:
164,280,96751,5,4,0:0:0:0:
299,147,96923,1,2,0:0:0:0:
308,336,97094,1,8,3:0:0:0:
164,152,97266,2,4,L|168:224,1,52.5000020027161,2|0,0:0|0:0,0:0:0:0:
212,300,97437,5,2,0:0:0:0:
256,316,97523,1,2,0:0:0:0:
304,320,97608,1,2,0:0:0:0:
352,312,97694,1,2,0:0:0:0:
384,276,97780,5,2,0:0:0:0:
348,264,97866,1,2,0:0:0:0:
312,264,97951,1,2,0:0:0:0:
280,280,98037,1,2,0:0:0:0:
249,300,98123,6,0,L|245:236,1,52.5000020027161,4|0,0:0|0:0,0:0:0:0:
172,144,98294,2,0,L|168:208,1,52.5000020027161
140,340,98466,2,0,L|136:264,1,52.5000020027161,4|0,0:0|0:0,0:0:0:0:
176,148,98637,2,4,L|180:216,1,52.5000020027161
152,344,98808,6,0,B|192:336|192:336|208:328|208:328|224:336|224:336|240:328|240:328|256:336|256:336|280:353|336:362|368:333|378:286|367:247|336:222|292:215|261:249,1,367.500014019013
424,360,100180,5,2,0:0:0:0:
436,192,100351,2,4,L|440:144,2,38.5000011749268,4|4|4,1:0|1:0|1:0,1:0:0:0:
298,289,100694,1,0,0:0:0:0:
500,292,100866,2,4,L|504:260,15,19.2500005874634,4|4|4|4|4|4|4|4|4|4|4|4|4|4|4|4,1:0|1:0|1:0|1:0|1:0|1:0|1:0|1:0|1:0|1:0|1:0|1:0|1:0|1:0|1:0|1:0,1:0:0:0:
500,292,101551,6,0,P|448:304|384:288,1,97.9999970092774,2|0,0:0|0:0,0:0:0:0:
352,128,101894,2,0,P|408:116|468:132,1,97.9999970092774,8|0,0:0|0:0,0:0:0:0:
328,208,102237,1,0,0:0:0:0:
292,36,102408,1,0,0:0:0:0:
244,164,102580,1,8,0:0:0:0:
216,12,102751,1,0,0:0:0:0:
364,64,102923,5,0,0:0:0:0:
172,92,103094,1,0,0:0:0:0:
324,124,103266,2,0,L|344:244,1,97.9999970092774,8|0,0:0|0:0,0:0:0:0:
192,172,103608,2,0,L|176:280,1,97.9999970092774
324,364,103951,1,8,0:0:0:0:
340,364,104037,1,0,0:0:0:0:
356,364,104123,1,0,0:0:0:0:
372,364,104208,1,0,0:0:0:0:
388,364,104294,6,0,P|444:368|496:344,1,97.9999970092774
444,192,104637,2,0,P|424:244|428:296,1,97.9999970092774,8|0,0:0|0:0,0:0:0:0:
380,136,104980,1,0,0:0:0:0:
332,304,105151,1,0,0:0:0:0:
300,192,105323,1,8,0:0:0:0:
456,192,105494,1,0,0:0:0:0:
291,201,105666,6,0,L|191:209,1,97.9999970092774
276,108,106008,2,0,L|374:115,1,97.9999970092774,8|0,0:0|0:0,0:0:0:0:
104,172,106351,1,0,0:0:0:0:
180,332,106523,1,0,0:0:0:0:
260,176,106694,1,8,0:0:0:0:
284,184,106780,1,0,0:0:0:0:
308,192,106866,1,0,0:0:0:0:
332,200,106951,1,0,0:0:0:0:
356,208,107037,5,0,0:0:0:0:
300,356,107208,1,0,0:0:0:0:
187,234,107380,2,0,L|179:342,1,97.9999970092774,8|0,0:0|0:0,0:0:0:0:
356,208,107723,2,0,L|364:316,1,97.9999970092774
216,192,108066,2,0,L|208:300,1,97.9999970092774,8|0,0:0|0:0,0:0:0:0:
364,344,108408,5,0,0:0:0:0:
292,180,108580,1,0,0:0:0:0:
228,280,108751,1,8,0:0:0:0:
208,289,108923,1,0,0:0:0:0:
328,304,109094,2,0,P|376:308|444:300,1,97.9999970092774
420,128,109437,2,0,P|372:124|304:132,1,97.9999970092774,8|0,0:0|0:0,0:0:0:0:
152,176,109780,6,0,B|132:124|160:68,2,97.9999970092774,0|0|8,0:0|0:0|0:0,0:0:0:0:
324,128,110294,2,0,P|371:119|419:127,2,97.9999970092774
244,288,110808,2,0,P|252:232|240:184,1,97.9999970092774,8|0,0:0|0:0,0:0:0:0:
104,192,111151,1,0,0:0:0:0:
228,287,111323,1,0,0:0:0:0:
204,168,111494,1,8,0:0:0:0:
132,316,111666,1,0,0:0:0:0:
324,156,111837,5,2,0:0:0:0:
364,148,112008,5,2,0:0:0:0:
400,160,112180,5,8,0:0:0:0:
424,188,112351,5,2,0:0:0:0:
423,223,112523,6,0,P|404:268|412:364,1,146.999995513916,8|0,0:0|0:0,0:0:0:0:
411,363,112866,2,0,L|300:356,1,97.9999970092774,8|0,0:0|0:0,0:0:0:0:
160,272,113208,2,0,L|271:264,1,97.9999970092774
416,188,113551,2,0,L|304:180,1,97.9999970092774,8|0,0:0|0:0,0:0:0:0:
116,168,113894,5,0,0:0:0:0:
156,260,114066,1,0,0:0:0:0:
196,88,114237,1,8,0:0:0:0:
236,240,114408,1,0,0:0:0:0:
276,56,114580,1,0,0:0:0:0:
308,168,114751,1,0,0:0:0:0:
116,120,114923,1,8,0:0:0:0:
292,176,115094,1,0,0:0:0:0:
213,17,115266,6,0,B|178:90|245:90|201:177,1,146.999995513916
198,178,115608,2,0,P|147:168|87:188,1,97.9999970092774,8|0,0:0|0:0,0:0:0:0:
26,236,115951,1,0,0:0:0:0:
117,82,116123,1,0,0:0:0:0:
151,258,116294,1,8,0:0:0:0:
10,154,116466,1,0,0:0:0:0:
228,96,116637,6,0,P|280:88|336:104,1,97.9999970092774
269,266,116980,2,0,P|217:274|161:258,1,97.9999970092774,8|0,0:0|0:0,0:0:0:0:
373,209,117323,2,0,P|425:201|481:217,1,97.9999970092774
328,372,117666,5,10,0:0:0:0:
314,352,117751,1,0,0:0:0:0:
302,332,117837,1,0,0:0:0:0:
290,312,117923,1,0,0:0:0:0:
276,292,118008,6,0,P|264:248|276:184,1,97.9999970092774,2|0,0:0|0:0,0:0:0:0:
456,164,118351,2,0,P|468:208|456:272,1,97.9999970092774,8|0,0:0|0:0,0:0:0:0:
280,216,118694,1,0,0:0:0:0:
460,268,118866,1,0,0:0:0:0:
340,140,119037,1,8,0:0:0:0:
360,324,119208,1,0,0:0:0:0:
360,324,119294,1,0,0:0:0:0:
360,324,119380,5,0,0:0:0:0:
288,208,119551,1,0,0:0:0:0:
172,344,119723,2,8,B|220:360|276:344,1,97.9999970092774,8|0,0:0|0:0,0:0:0:0:
93,297,120066,1,0,0:0:0:0:
93,297,120237,1,0,0:0:0:0:
136,120,120408,1,8,0:0:0:0:
204,240,120580,1,0,0:0:0:0:
45,203,120751,5,4,0:0:0:0:
238,140,120923,1,0,0:0:0:0:
76,265,121094,1,8,0:0:0:0:
237,152,121266,5,0,0:0:0:0:
143,306,121437,1,0,0:0:0:0:
238,161,121608,1,0,0:0:0:0:
220,321,121780,1,8,0:0:0:0:
239,170,121951,1,0,0:0:0:0:
159,206,122123,6,0,L|156:157,1,48.9999985046387,4|0,0:0|0:0,0:0:0:0:
233,218,122294,2,0,L|239:170,1,48.9999985046387,2|0,0:0|0:0,0:0:0:0:
332,280,122466,2,0,L|337:231,1,48.9999985046387,2|0,0:0|0:0,0:0:0:0:
256,296,122637,2,0,L|253:247,1,48.9999985046387,4|0,0:0|0:0,0:0:0:0:
184,332,122808,5,0,0:0:0:0:
176,284,122894,1,0,0:0:0:0:
168,236,122980,1,0,0:0:0:0:
160,188,123066,1,0,0:0:0:0:
200,168,123151,5,0,0:0:0:0:
232,156,123237,1,0,0:0:0:0:
268,152,123323,1,0,0:0:0:0:
300,160,123408,1,0,0:0:0:0:
328,176,123494,6,0,P|336:240|328:284,1,97.9999970092774,8|0,0:0|0:0,0:0:0:0:
128,276,123837,2,0,P|120:212|128:168,1,97.9999970092774,8|0,0:0|0:0,0:0:0:0:
148,68,124180,2,0,P|104:68|104:156,1,146.999995513916
123,177,124523,2,0,B|159:213|159:213|163:269,1,97.9999970092774,8|0,0:0|0:0,0:0:0:0:
280,144,124866,5,2,0:0:0:0:
336,136,124951,1,0,0:0:0:0:
388,160,125037,1,0,0:0:0:0:
420,212,125123,1,0,0:0:0:0:
420,268,125208,2,0,L|412:336,3,48.9999985046387,8|0|0|0,0:0|0:0|0:0|0:0,0:0:0:0:
464,364,125551,2,0,L|476:260,1,97.9999970092774,2|0,0:0|0:0,0:0:0:0:
380,200,125894,1,8,0:0:0:0:
304,372,126066,2,0,P|308:308|284:224,1,146.999995513916
270,238,126408,6,0,B|220:254|172:234,2,97.9999970092774,0|8|0,0:0|0:0|0:0,0:0:0:0:
444,212,126923,1,0,0:0:0:0:
296,144,127094,1,0,0:0:0:0:
484,136,127266,1,8,0:0:0:0:
400,292,127437,1,0,0:0:0:0:
388,88,127608,6,0,L|398:40,1,48.9999985046387
256,76,127780,2,0,L|256:27,1,48.9999985046387
124,88,127951,2,0,L|113:40,1,48.9999985046387,8|0,0:0|0:0,0:0:0:0:
64,196,128123,5,0,0:0:0:0:
68,216,128208,1,0,0:0:0:0:
72,236,128294,2,0,P|128:244|176:232,1,97.9999970092774
228,160,128637,1,8,0:0:0:0:
276,328,128808,1,0,0:0:0:0:
340,256,128980,6,0,B|476:268|476:268|428:228,1,195.999994018555,0|8,0:0|0:0,0:0:0:0:
272,176,129494,2,0,P|264:128|280:72,2,97.9999970092774,0|2|0,0:0|0:0|0:0,0:0:0:0:
444,132,130008,1,8,0:0:0:0:
352,28,130180,1,0,0:0:0:0:
324,220,130351,5,0,0:0:0:0:
240,44,130523,1,0,0:0:0:0:
152,148,130694,2,0,P|200:136|272:152,1,97.9999970092774,8|0,0:0|0:0,0:0:0:0:
208,244,131037,1,2,0:0:0:0:
208,244,131208,1,0,0:0:0:0:
168,112,131380,1,8,0:0:0:0:
168,112,131551,1,0,0:0:0:0:
80,240,131723,5,4,1:0:0:0:
244,188,131894,1,0,0:0:0:0:
80,160,132066,1,8,0:0:0:0:
243,95,132237,1,0,0:0:0:0:
244,272,132408,5,0,0:0:0:0:
244,244,132494,1,0,0:0:0:0:
244,216,132580,1,0,0:0:0:0:
244,188,132666,1,0,0:0:0:0:
244,160,132751,2,0,L|252:104,1,48.9999985046387,8|0,0:0|0:0,0:0:0:0:
332,152,132923,2,0,L|340:220,1,48.9999985046387,0|0,1:0|0:0,0:0:0:0:
424,136,133094,6,0,B|428:192|464:232|464:232|424:240|392:276|392:276|444:276,1,238.00000453949,2|8,0:0|0:0,0:0:0:0:
264,195,133608,2,0,B|288:203|288:203|308:195|308:195|352:203,1,77.0000023498536,0|2,0:0|0:0,0:0:0:0:
348,336,133951,2,0,B|324:328|324:328|292:340|292:340|252:328,1,97.9999970092774,0|8,0:0|0:0,0:0:0:0:
232,320,134208,1,0,0:0:0:0:
208,316,134294,1,0,0:0:0:0:
184,316,134380,1,0,0:0:0:0:
160,324,134466,5,2,0:0:0:0:
85,164,134637,1,0,0:0:0:0:
36,236,134808,2,0,P|92:248|140:232,1,97.9999970092774,8|0,0:0|0:0,0:0:0:0:
288,176,135151,1,0,0:0:0:0:
268,340,135323,1,0,0:0:0:0:
130,237,135494,1,8,0:0:0:0:
288,176,135666,1,0,0:0:0:0:
270,350,135837,5,0,0:0:0:0:
230,342,135923,1,0,0:0:0:0:
190,334,136008,1,0,0:0:0:0:
150,326,136094,1,0,0:0:0:0:
112,316,136180,2,0,L|60:308,1,48.9999985046387,8|0,0:0|0:0,0:0:0:0:
224,176,136351,1,0,0:0:0:0:
29,125,136523,5,0,0:0:0:0:
164,324,136694,1,0,0:0:0:0:
160,92,136866,1,8,0:0:0:0:
36,268,137037,2,0,P|48:208|24:116,1,146.999995513916
29,125,137380,6,0,P|84:132|132:120,2,97.9999970092774,0|8|0,0:0|0:0|0:0,0:0:0:0:
80,276,137894,1,0,0:0:0:0:
132,128,138066,1,0,0:0:0:0:
172,280,138237,1,8,0:0:0:0:
224,124,138408,1,0,0:0:0:0:
36,136,138580,5,0,0:0:0:0:
220,204,138751,1,0,0:0:0:0:
63,279,138923,1,8,0:0:0:0:
152,124,139094,1,0,0:0:0:0:
152,124,139180,1,0,0:0:0:0:
152,124,139266,5,0,0:0:0:0:
212,308,139437,1,0,0:0:0:0:
272,144,139608,1,8,0:0:0:0:
324,252,139780,2,0,P|335:304|327:348,2,97.9999970092774
195,135,140294,6,0,L|291:117,1,97.9999970092774,8|0,0:0|0:0,0:0:0:0:
452,212,140637,2,0,L|355:194,1,97.9999970092774,2|0,0:0|0:0,0:0:0:0:
260,220,140980,2,0,P|264:160|288:120,1,97.9999970092774,8|0,0:0|0:0,0:0:0:0:
460,116,141323,5,2,0:0:0:0:
364,204,141494,1,2,0:0:0:0:
404,44,141666,1,8,0:0:0:0:
448,204,141837,1,0,0:0:0:0:
280,204,142008,1,2,0:0:0:0:
372,88,142180,1,0,0:0:0:0:
376,264,142351,1,8,0:0:0:0:
376,264,142523,1,0,0:0:0:0:
372,179,142694,6,0,B|372:115|372:115|345:63,2,97.9999970092774,0|0|8,0:0|0:0|0:0,0:0:0:0:
192,140,143208,2,0,B|264:132|264:132|292:148,2,97.9999970092774
144,224,143723,2,0,B|216:216|216:216|244:232,1,97.9999970092774,8|0,0:0|0:0,0:0:0:0:
320,296,144066,6,0,B|300:202|328:140|328:140|349:181|340:220,1,238.00000453949,8|0,0:0|0:0,0:0:0:0:
244,320,144580,1,0,0:0:0:0:
416,252,144751,1,2,0:0:0:0:
244,180,144923,1,2,0:0:0:0:
332,332,145094,5,10,0:0:0:0:
332,292,145180,1,0,0:0:0:0:
332,252,145266,1,0,0:0:0:0:
332,212,145351,1,0,0:0:0:0:
332,172,145437,1,12,0:0:0:0:
256,192,145523,12,0,148866,0:0:0:0:
