osu file format v14

[General]
AudioFilename: eos.mp3
AudioLeadIn: 2000
PreviewTime: 54841
Countdown: 0
SampleSet: Soft
StackLeniency: 0.5
Mode: 0
LetterboxInBreaks: 0
WidescreenStoryboard: 0

[Editor]
Bookmarks: 21327,100184
DistanceSpacing: 1.2
BeatDivisor: 4
GridSize: 4
TimelineZoom: 4.699998

[Metadata]
Title:EOS
TitleUnicode:EOS
Artist:ginkiha
ArtistUnicode:ginkiha
Creator:flawful
Version:Hard
Source:BMS
Tags:Akitoshi Dawn DnB abanes16 drum'n'bass of fighters Trent83
BeatmapID:963229
BeatmapSetID:448829

[Difficulty]
HPDrainRate:6
CircleSize:4
OverallDifficulty:6.5
ApproachRate:8
SliderMultiplier:1.4
SliderTickRate:1

[Events]
//Background and Video events
0,0,"Snow-and-sunset.jpg",0,0
//Break Periods
2,77065,81601
//Storyboard Layer 0 (Background)
//Storyboard Layer 1 (Fail)
//Storyboard Layer 2 (Pass)
//Storyboard Layer 3 (Foreground)
//Storyboard Sound Samples

[TimingPoints]
66,342.857142857143,4,2,1,45,1,0
8294,-100,4,2,1,60,0,0
54923,-100,4,2,1,60,0,1
76866,-100,4,2,1,60,0,0
87666,-100,4,2,1,5,0,0
87837,-100,4,3,0,54,0,0
100008,-100,4,3,0,54,0,0
100180,-100,4,2,1,60,0,0
101551,-100,4,2,1,60,0,1
123494,-100,4,2,1,60,0,1
134466,-100,4,2,1,60,0,0
148866,-100,4,2,1,5,0,0

[Colours]
Combo1 : 225,211,113
Combo2 : 164,32,240
Combo3 : 255,0,128

[HitObjects]
129,160,66,6,0,L|209:160,2,70,8|0|8,0:0|0:0|0:0,0:0:0:0:
72,92,580,2,0,P|43:157|80:235,1,140
120,292,1094,2,0,B|192:256|192:316|272:284,1,140
336,308,1608,5,2,0:0:0:0:
412,276,1780,2,0,P|424:228|416:192,1,70,2|0,0:0|0:0,0:0:0:0:
340,220,2123,2,0,P|328:172|336:136,1,70
376,80,2466,1,4,0:0:0:0:
376,80,2808,6,0,L|448:80,2,70
300,116,3323,2,0,L|224:120,2,70
372,160,3837,2,0,P|388:224|376:308,1,140
312,348,4351,6,0,B|244:312|244:368|164:344,1,140,2|0,0:0|0:0,0:0:0:0:
80,328,4866,1,0,0:0:0:0:
144,256,5037,1,0,0:0:0:0:
52,224,5208,1,4,0:0:0:0:
52,224,5551,6,0,L|48:180,4,35,8|0|0|0|0,0:0|0:0|0:0|0:0|0:0,0:0:0:0:
136,212,6066,2,0,P|204:220|276:200,1,140
224,132,6580,2,0,P|292:124|364:144,1,140
420,200,7094,1,0,0:0:0:0:
296,312,7437,2,0,L|212:308,2,70
420,296,7951,1,8,1:0:0:0:
420,296,8123,1,0,0:0:0:0:
336,204,8294,5,4,2:0:0:0:
256,280,8466,1,0,0:0:0:0:
176,204,8637,1,0,0:0:0:0:
256,128,8808,1,4,0:0:0:0:
256,204,8980,1,0,0:0:0:0:
256,280,9151,1,0,0:0:0:0:
256,360,9323,6,0,B|300:344|300:344|340:372|392:348,1,140,4|0,0:0|0:0,0:0:0:0:
464,312,9837,1,0,0:0:0:0:
392,272,10008,1,0,0:0:0:0:
464,228,10180,1,0,0:0:0:0:
392,188,10351,2,0,L|320:164,1,70,4|0,0:0|0:0,0:0:0:0:
316,248,10694,2,0,L|232:256,1,70,4|0,0:0|0:0,0:0:0:0:
148,308,11037,6,0,L|152:184,1,105
172,176,11380,2,0,B|204:164|204:164|252:172,1,70,4|0,0:0|0:0,0:0:0:0:
300,248,11723,2,0,B|267:259|267:259|219:251,1,70
160,292,12066,1,4,0:0:0:0:
84,260,12237,1,0,0:0:0:0:
84,260,12408,2,0,P|84:212|92:188,1,70
176,188,12751,2,0,P|176:140|168:116,1,70,4|0,0:0|0:0,0:0:0:0:
96,80,13094,2,0,P|64:88|24:84,2,70,0|0|4,0:0|0:0|0:0,0:0:0:0:
176,52,13608,1,0,0:0:0:0:
244,120,13780,5,0,0:0:0:0:
244,120,13951,1,0,0:0:0:0:
244,120,14123,2,0,L|260:204,1,70,4|0,0:0|0:0,0:0:0:0:
180,220,14466,1,0,0:0:0:0:
180,220,14637,1,0,0:0:0:0:
180,220,14808,2,0,L|168:308,1,70,4|0,0:0|0:0,0:0:0:0:
216,360,15151,2,0,P|252:368|300:352,1,70
324,288,15494,2,0,P|288:280|240:296,1,70,4|0,0:0|0:0,0:0:0:0:
170,289,15837,2,8,B|188:152|188:152|216:228,1,210
292,248,16523,6,0,P|336:264|400:224,1,105,8|0,0:0|0:0,0:0:0:0:
404,228,16866,2,0,L|408:328,1,70,4|0,0:0|0:0,0:0:0:0:
328,320,17208,1,0,0:0:0:0:
276,252,17380,1,0,0:0:0:0:
328,184,17551,2,0,L|408:188,1,70,4|0,0:0|0:0,0:0:0:0:
276,252,17894,2,0,L|200:256,2,70,0|0|4,0:0|0:0|0:0,0:0:0:0:
348,296,18408,1,0,0:0:0:0:
408,200,18580,2,0,L|492:200,2,70,0|0|4,0:0|0:0|0:0,0:0:0:0:
320,156,19094,1,0,0:0:0:0:
228,196,19266,5,0,0:0:0:0:
228,196,19437,1,0,0:0:0:0:
228,196,19608,2,0,P|192:192|148:200,1,70,4|0,0:0|0:0,0:0:0:0:
100,276,19951,2,0,P|136:280|180:272,1,70
252,264,20294,1,4,0:0:0:0:
252,264,20466,1,0,0:0:0:0:
328,228,20637,6,0,P|376:220|416:236,1,70
428,304,20980,2,0,P|380:312|340:296,1,70,4|0,0:0|0:0,0:0:0:0:
260,260,21323,1,4,1:0:0:0:
268,372,21494,1,4,1:0:0:0:
360,306,21666,1,4,1:0:0:0:
256,264,21837,1,4,1:0:0:0:
172,336,22008,6,0,P|119:324|68:340,1,105,8|0,0:0|0:0,0:0:0:0:
71,338,22351,2,0,L|76:254,1,70,4|0,0:0|0:0,0:0:0:0:
152,244,22694,2,0,P|159:195|147:159,1,70
112,104,23037,1,4,0:0:0:0:
72,180,23208,1,0,0:0:0:0:
154,175,23380,6,0,L|238:171,1,70
304,196,23723,2,0,L|392:192,1,70,4|0,0:0|0:0,0:0:0:0:
440,244,24066,2,0,P|452:288|440:324,1,70
340,340,24408,2,0,P|328:296|340:260,1,70,4|0,0:0|0:0,0:0:0:0:
380,188,24751,5,0,0:0:0:0:
380,188,24923,1,0,0:0:0:0:
380,188,25094,2,0,L|468:196,1,70,4|0,0:0|0:0,0:0:0:0:
492,284,25437,1,0,0:0:0:0:
492,284,25608,1,0,0:0:0:0:
492,284,25780,2,0,L|404:292,1,70,4|0,0:0|0:0,0:0:0:0:
336,336,26123,6,8,B|288:324|240:340|240:340|208:309|200:292|200:292|228:280|272:296,1,210
128,344,26808,2,8,P|116:292|228:212,1,210
276,296,27494,6,0,P|232:300|192:284,1,70,2|0,0:0|0:0,0:0:0:0:
226,211,27837,2,0,P|180:212|144:236,1,70,4|0,0:0|0:0,0:0:0:0:
72,264,28180,2,0,P|68:220|84:180,1,70
159,221,28523,2,0,P|163:265|147:305,1,70,4|0,0:0|0:0,0:0:0:0:
36,372,28866,6,0,B|50:362|50:362|102:362,1,70,2|0,0:0|0:0,0:0:0:0:
204,372,29208,2,0,B|256:372|256:372|280:356,1,70,4|0,0:0|0:0,0:0:0:0:
356,364,29551,2,0,P|364:320|352:276,1,70
276,280,29894,2,0,P|272:236|288:204,1,70,4|0,0:0|0:0,0:0:0:0:
344,160,30237,5,10,0:0:0:0:
344,160,30408,2,0,P|384:156|420:172,1,70
284,104,30751,2,0,P|236:100|208:108,2,70,0|2|0,0:0|0:0|0:0,0:0:0:0:
344,160,31266,2,0,L|424:156,1,70
384,236,31608,2,0,L|312:232,1,70,6|0,0:0|0:0,0:0:0:0:
344,312,31951,2,0,L|424:304,1,70,6|0,0:0|0:0,0:0:0:0:
488,344,32294,2,0,L|496:296,3,35,4|0|0|0,0:0|0:0|0:0|0:0,0:0:0:0:
476,272,32637,2,0,L|472:224,3,35,4|0|0|0,0:0|0:0|0:0|0:0,0:0:0:0:
484,196,32980,6,0,P|496:148|488:116,1,70,8|0,0:0|0:0,0:0:0:0:
412,148,33323,2,0,P|400:100|408:68,1,70,4|0,0:0|0:0,0:0:0:0:
328,44,33666,2,0,L|248:40,1,70
160,120,34008,2,0,L|252:116,1,70,4|0,0:0|0:0,0:0:0:0:
296,172,34351,6,0,P|316:216|312:252,2,70,0|0|4,0:0|0:0|0:0,0:0:0:0:
296,172,34866,1,0,0:0:0:0:
220,208,35037,2,0,P|180:224|136:224,2,70,0|0|4,0:0|0:0|0:0,0:0:0:0:
220,208,35551,1,0,0:0:0:0:
296,176,35723,6,0,L|388:188,1,70
244,116,36066,2,0,L|152:128,1,70,4|0,0:0|0:0,0:0:0:0:
232,280,36408,2,0,P|236:244|224:208,1,70
144,200,36751,2,0,P|140:236|152:272,1,70,4|0,0:0|0:0,0:0:0:0:
240,288,37094,5,0,0:0:0:0:
240,288,37266,1,0,0:0:0:0:
240,288,37437,2,0,L|332:292,1,70,4|0,0:0|0:0,0:0:0:0:
456,340,37780,1,0,0:0:0:0:
456,340,37951,1,0,0:0:0:0:
456,340,38123,2,0,L|372:344,1,70,4|0,0:0|0:0,0:0:0:0:
257,340,38466,6,0,P|253:288|241:256,1,70
112,300,38808,2,0,P|116:352|128:384,1,70,4|0,0:0|0:0,0:0:0:0:
176,240,39151,2,0,P|172:188|160:156,1,70
31,200,39494,2,0,P|35:252|52:288,1,70,4|0,0:0|0:0,0:0:0:0:
108,144,39837,5,0,0:0:0:0:
108,144,40008,1,0,0:0:0:0:
160,228,40180,1,4,0:0:0:0:
160,228,40351,1,0,0:0:0:0:
216,148,40523,2,0,P|260:148|296:164,1,70
364,184,40866,2,0,P|408:184|444:168,1,70,4|0,0:0|0:0,0:0:0:0:
500,224,41208,6,0,L|488:360,1,105,8|0,0:0|0:0,0:0:0:0:
490,328,41551,2,0,P|452:320|404:332,1,70,4|0,0:0|0:0,0:0:0:0:
348,364,41894,2,0,P|309:372|261:360,1,70
212,320,42237,1,4,0:0:0:0:
212,320,42408,1,0,0:0:0:0:
112,284,42580,6,0,L|32:296,1,70
172,236,42923,2,0,L|252:224,2,70
112,284,43437,2,0,L|32:272,2,70
212,320,43951,6,0,P|248:312|324:328,1,105,8|0,0:0|0:0,0:0:0:0:
314,323,44294,2,0,L|392:316,1,70,4|0,0:0|0:0,0:0:0:0:
416,240,44637,2,0,L|338:232,1,70
308,160,44980,2,0,L|385:152,1,70,4|0,0:0|0:0,0:0:0:0:
448,108,45323,5,0,0:0:0:0:
376,64,45494,1,0,0:0:0:0:
377,152,45666,2,0,P|369:192|381:236,1,70,4|0,0:0|0:0,0:0:0:0:
416,292,46008,2,0,P|424:332|412:376,1,70
336,344,46351,1,4,0:0:0:0:
256,376,46523,1,0,0:0:0:0:
181,329,46694,6,0,P|129:313|57:329,1,105,8|0,0:0|0:0,0:0:0:0:
80,319,47037,2,0,B|81:233,1,70,4|0,0:0|0:0,0:0:0:0:
140,152,47380,1,0,0:0:0:0:
192,252,47551,1,0,0:0:0:0:
82,250,47723,1,4,0:0:0:0:
140,152,47894,1,0,0:0:0:0:
200,248,48066,6,0,P|208:284|196:328,1,70
128,356,48408,2,0,P|120:320|132:276,1,70,4|0,0:0|0:0,0:0:0:0:
172,216,48751,2,0,L|248:212,1,70
112,164,49094,2,0,L|32:160,1,70,4|0,0:0|0:0,0:0:0:0:
168,96,49437,5,0,0:0:0:0:
168,96,49608,1,0,0:0:0:0:
168,96,49780,2,0,L|248:100,1,70,4|0,0:0|0:0,0:0:0:0:
284,168,50123,2,0,L|196:180,1,70
172,248,50466,2,0,L|244:252,1,70,4|0,0:0|0:0,0:0:0:0:
316,296,50808,5,0,0:0:0:0:
316,296,50980,1,0,0:0:0:0:
316,296,51151,2,0,P|328:232|320:176,1,105,12|0,0:0|0:0,0:0:0:0:
324,192,51494,2,0,L|232:188,1,70
176,152,51837,2,0,P|160:200|164:236,1,70,4|0,0:0|0:0,0:0:0:0:
204,352,52180,6,0,P|220:304|216:268,1,70,10|0,0:0|0:0,0:0:0:0:
168,220,52523,1,4,0:0:0:0:
168,220,52694,1,0,0:0:0:0:
84,216,52866,1,0,0:0:0:0:
84,216,53037,1,0,0:0:0:0:
24,276,53208,1,4,0:0:0:0:
24,276,53380,1,0,0:0:0:0:
100,308,53551,6,0,P|152:312|196:296,1,70,2|0,0:0|0:0,0:0:0:0:
244,268,53894,2,0,P|296:264|340:280,1,70,2|0,0:0|0:0,0:0:0:0:
384,316,54237,2,0,L|392:276,3,35,8|0|0|0,0:0|0:0|0:0|0:0,0:0:0:0:
396,240,54580,2,0,L|376:196,3,35,8|0|0|0,0:0|0:0|0:0|0:0,0:0:0:0:
396,168,54923,6,0,P|404:116|392:56,1,105,8|0,0:0|0:0,0:0:0:0:
395,64,55266,2,0,B|360:68|360:68|312:64,1,70,4|0,0:0|0:0,0:0:0:0:
244,52,55608,1,0,0:0:0:0:
160,52,55780,1,0,0:0:0:0:
80,72,55951,2,0,P|44:80|4:76,1,70,4|0,0:0|0:0,0:0:0:0:
44,156,56294,6,0,L|52:216,3,35,2|0|0|0,0:0|0:0|0:0|0:0,0:0:0:0:
100,212,56637,2,0,L|88:264,3,35,6|0|0|0,0:0|0:0|0:0|0:0,0:0:0:0:
68,296,56980,2,0,L|64:376,2,70,0|0|4,0:0|0:0|0:0,0:0:0:0:
160,218,57494,2,0,P|176:262|164:358,1,140
166,353,58008,5,4,0:0:0:0:
166,353,58180,1,0,0:0:0:0:
80,308,58351,1,0,0:0:0:0:
80,308,58523,1,0,0:0:0:0:
108,216,58694,1,4,0:0:0:0:
108,216,58866,1,0,0:0:0:0:
48,136,59037,6,0,P|104:120|140:128,1,70,2|0,0:0|0:0,0:0:0:0:
184,172,59380,2,0,P|196:92|156:44,1,140,2|8,0:0|0:0,0:0:0:0:
48,136,59894,1,2,0:0:0:0:
100,200,60066,1,0,0:0:0:0:
84,284,60237,1,2,0:0:0:0:
128,356,60408,2,0,B|176:336|176:336|248:348,1,105
228,344,60751,6,0,P|236:292|228:256,1,70,4|0,0:0|0:0,0:0:0:0:
224,176,61094,2,0,L|132:160,1,70
300,144,61437,2,0,L|308:64,1,70
332,220,61780,2,0,L|424:228,2,70,0|0|4,0:0|0:0|0:0,0:0:0:0:
233,275,62294,2,0,P|213:195|241:139,1,140
168,96,62808,2,0,B|132:104|132:104|92:96,1,70,4|0,0:0|0:0,0:0:0:0:
44,180,63151,5,0,0:0:0:0:
44,180,63323,1,0,0:0:0:0:
160,228,63494,1,4,0:0:0:0:
160,228,63666,1,0,0:0:0:0:
85,258,63837,2,0,B|99:293|136:322|181:312|204:292|204:292|219:322|266:330,1,210,0|4,0:0|0:0,0:0:0:0:
372,284,64523,6,0,P|356:244|268:256,1,140,8|4,0:0|0:0,0:0:0:0:
136,208,65037,2,0,L|212:200,2,70
52,260,65551,1,8,0:0:0:0:
48,268,65637,1,0,0:0:0:0:
44,276,65723,2,0,L|100:288,1,35
132,316,65894,6,0,L|220:308,1,70
357,253,66237,2,0,L|288:260,1,70,4|0,0:0|0:0,0:0:0:0:
216,304,66580,2,0,P|212:220|344:196,1,210
368,236,67266,6,0,L|380:288,3,35,2|0|0|0,0:0|0:0|0:0|0:0,0:0:0:0:
356,308,67608,2,0,L|344:348,3,35,2|0|0|0,0:0|0:0|0:0|0:0,0:0:0:0:
368,376,67951,6,0,L|444:368,2,70,0|0|4,0:0|0:0|0:0,0:0:0:0:
260,340,68466,2,0,P|196:336|148:364,1,105
152,364,68808,6,0,L|60:371,2,70,0|4|0,0:0|0:0|0:0,0:0:0:0:
276,296,69323,1,0,0:0:0:0:
276,296,69494,1,0,0:0:0:0:
156,234,69666,1,4,0:0:0:0:
156,234,69837,1,0,0:0:0:0:
244,180,70008,6,0,L|340:180,1,70,2|2,0:0|0:0,0:0:0:0:
172,106,70351,2,0,P|141:181|162:242,1,140,4|0,0:0|0:0,0:0:0:0:
260,264,70866,1,0,0:0:0:0:
184,336,71037,1,4,0:0:0:0:
284,364,71208,1,0,0:0:0:0:
184,344,71380,2,0,B|112:328|112:328|80:352,1,105,8|0,0:0|0:0,0:0:0:0:
88,348,71723,6,0,P|72:293|84:240,1,105,4|0,0:0|0:0,0:0:0:0:
81,246,72066,2,0,L|168:232,1,70
224,172,72408,5,4,0:0:0:0:
224,172,72580,1,0,0:0:0:0:
316,200,72751,1,0,0:0:0:0:
316,200,72923,1,0,0:0:0:0:
328,292,73094,2,0,L|416:300,1,70,4|0,0:0|0:0,0:0:0:0:
256,336,73437,2,0,P|240:292|248:252,1,70
342,225,73780,2,0,P|342:260|328:292,1,70,4|0,0:0|0:0,0:0:0:0:
276,176,74123,6,0,P|308:144|392:156,1,105,8|0,0:0|0:0,0:0:0:0:
388,156,74466,2,0,B|380:228|380:228|408:212,1,105,4|0,0:0|0:0,0:0:0:0:
432,200,74808,2,0,L|508:192,2,70,0|0|4,0:0|0:0|0:0,0:0:0:0:
357,239,75323,1,0,0:0:0:0:
352,248,75408,1,0,0:0:0:0:
348,256,75494,6,0,P|292:224|328:144,1,140,8|4,0:0|0:0,0:0:0:0:
252,224,76008,2,0,B|176:232|176:232|156:204,1,105
136,172,76351,2,0,L|60:176|60:176,1,70,2|0,0:0|0:0,0:0:0:0:
60,164,76608,1,0,0:0:0:0:
52,152,76694,2,0,L|16:152,2,35,0|0|8,0:0|0:0|0:0,0:0:0:0:
256,192,82351,12,0,87494,0:0:0:0:
112,120,87837,6,0,L|192:116,1,70,4|0,0:0|0:0,0:0:0:0:
236,52,88180,2,0,P|268:112|224:192,1,140,8|0,0:0|0:0,0:0:0:0:
180,229,88694,2,0,B|152:285|152:285|224:273|248:293,1,140,4|0,0:0|0:0,0:0:0:0:
296,224,89208,2,0,B|392:204|392:204|448:216,1,140,0|8,0:0|0:0,0:0:0:0:
476,288,89723,2,0,B|380:308|380:308|324:296,1,140
248,296,90237,1,0,0:0:0:0:
160,324,90408,2,0,L|152:352,3,23.3333333333333,8|0|0|0,0:0|0:0|0:0|0:0,0:0:0:0:
93,269,90751,5,0,0:0:0:0:
108,172,90923,2,0,P|160:124|216:156,1,140,8|0,0:0|0:0,0:0:0:0:
228,236,91437,2,0,P|287:263|333:215,1,140,4|0,0:0|0:0,0:0:0:0:
312,136,91951,2,0,P|364:88|420:120,1,140
468,184,92466,2,0,B|460:232|460:232|472:280|472:280|464:336,1,140,4|0,0:0|0:0,0:0:0:0:
384,336,92980,2,0,B|392:296|392:296|384:256,1,70
316,224,93323,2,0,B|308:264|308:264|316:304,1,70
252,352,93666,5,8,0:0:0:0:
224,228,93837,2,0,L|232:172,4,35,8|0|0|0|0,0:0|0:0|0:0|0:0|0:0,0:0:0:0:
296,276,94351,1,8,0:0:0:0:
324,152,94523,1,0,0:0:0:0:
324,152,94608,1,0,0:0:0:0:
324,152,94694,6,0,L|408:156,1,70
432,284,95037,2,0,P|428:248|452:204,1,70,8|0,0:0|0:0,0:0:0:0:
476,80,95380,2,0,P|480:116|456:160,1,70
328,152,95723,2,0,P|364:148|408:172,1,70,8|0,0:0|0:0,0:0:0:0:
448,224,96066,6,0,L|444:316,1,70,4|0,0:0|0:0,0:0:0:0:
368,321,96408,2,0,L|372:252,1,70,8|0,0:0|0:0,0:0:0:0:
292,288,96751,1,4,0:0:0:0:
240,308,96923,1,0,0:0:0:0:
188,328,97094,1,8,0:0:0:0:
136,352,97266,1,0,0:0:0:0:
84,372,97437,6,0,L|36:360,3,35,4|0|0|0,0:0|0:0|0:0|0:0,0:0:0:0:
108,332,97780,2,0,L|160:324,3,35,4|0|0|0,0:0|0:0|0:0|0:0,0:0:0:0:
88,292,98123,2,0,L|40:280,3,35,4|0|0|0,0:0|0:0|0:0|0:0,0:0:0:0:
108,252,98466,2,0,L|160:244,3,35,4|0|0|0,0:0|0:0|0:0|0:0,0:0:0:0:
256,192,98808,12,0,100008,0:0:0:0:
200,204,100180,6,8,B|148:192|148:192|88:204,2,105,8|8|8,3:0|3:0|3:0,3:0:0:0:
276,268,100866,2,0,L|276:292,12,17.5,8|0|0|0|0|0|0|0|0|0|0|0|0,3:0|3:0|3:0|3:0|3:0|3:0|3:0|3:0|3:0|3:0|3:0|3:0|3:0,3:0:0:0:
276,268,101551,6,0,L|360:264,1,70,8|0,0:0|0:0,0:0:0:0:
476,212,101894,2,0,L|396:208,1,70,4|0,0:0|0:0,0:0:0:0:
276,160,102237,2,0,L|356:156,1,70
476,104,102580,2,0,L|400:100,1,70,4|0,0:0|0:0,0:0:0:0:
316,60,102923,5,0,0:0:0:0:
316,60,103094,1,0,0:0:0:0:
232,112,103266,2,0,L|152:108,1,70,4|0,0:0|0:0,0:0:0:0:
92,176,103608,1,0,0:0:0:0:
92,176,103780,1,0,0:0:0:0:
172,232,103951,2,0,L|252:228,1,70,4|0,0:0|0:0,0:0:0:0:
316,184,104294,6,0,P|336:248|324:304,1,105,2|0,0:0|0:0,0:0:0:0:
312,320,104637,2,0,L|232:316,1,70,4|0,0:0|0:0,0:0:0:0:
160,296,104980,2,0,L|80:296,2,70,0|0|4,0:0|0:0|0:0,0:0:0:0:
242,316,105494,1,0,0:0:0:0:
209,238,105666,2,0,P|201:198|209:158,1,70
110,195,106008,2,0,P|122:151|158:119,1,70,4|0,0:0|0:0,0:0:0:0:
46,94,106351,2,0,P|94:62|134:58,1,70
199,79,106694,1,4,0:0:0:0:
199,79,106866,1,0,0:0:0:0:
124,136,107037,6,0,B|124:252,1,105,2|0,0:0|0:0,0:0:0:0:
124,241,107380,2,0,P|160:229|196:245,1,70,4|0,0:0|0:0,0:0:0:0:
132,312,107723,2,0,P|96:324|60:308,1,70
203,353,108066,2,0,P|239:365|275:349,1,70,4|0,0:0|0:0,0:0:0:0:
344,324,108408,6,0,L|424:328,2,70,2|0|4,0:0|0:0|0:0,0:0:0:0:
244,276,108923,2,0,L|168:280,2,70,2|0|2,0:0|0:0|0:0,0:0:0:0:
340,220,109437,2,0,L|432:224,1,70,6|0,0:0|0:0,0:0:0:0:
469,298,109780,6,0,P|457:218|501:162,1,140,8|4,0:0|0:0,0:0:0:0:
360,172,110294,2,0,P|372:92|328:36,1,140,8|0,0:0|0:0,0:0:0:0:
228,128,110808,2,0,P|264:116|296:116,1,70,12|0,0:0|0:0,0:0:0:0:
360,172,111151,6,0,P|396:180|436:172,1,70
492,268,111494,2,0,P|456:260|416:268,1,70,4|0,0:0|0:0,0:0:0:0:
380,336,111837,2,0,P|344:344|304:336,2,70,0|0|4,0:0|0:0|0:0,0:0:0:0:
423,265,112351,1,0,0:0:0:0:
344,232,112523,6,0,L|274:221,1,70,8|0,0:0|0:0,0:0:0:0:
160,172,112866,2,0,L|227:155,1,70,4|0,0:0|0:0,0:0:0:0:
312,104,113208,2,0,L|392:116,1,70
264,27,113551,2,0,L|184:47,1,70,4|0,0:0|0:0,0:0:0:0:
68,160,113894,5,0,0:0:0:0:
108,56,114066,1,0,0:0:0:0:
148,176,114237,1,4,0:0:0:0:
197,44,114408,1,0,0:0:0:0:
68,160,114580,5,0,0:0:0:0:
108,56,114751,1,0,0:0:0:0:
148,176,114923,1,4,0:0:0:0:
196,44,115094,1,0,0:0:0:0:
200,48,115266,6,0,B|304:28|304:28|264:68,1,140,10|0,0:0|0:0,0:0:0:0:
264,160,115780,6,0,P|332:208|380:116,1,210,2|8,0:0|0:0,0:0:0:0:
308,52,116466,6,0,B|272:120|292:244|292:244|244:244|204:252,1,280,0|8,0:0|0:0,0:0:0:0:
120,235,117323,2,0,P|85:240|52:230,1,70,4|0,0:0|0:0,0:0:0:0:
171,168,117666,2,0,P|206:163|239:173,1,70,4|0,0:0|0:0,0:0:0:0:
200,248,118008,6,0,P|240:284|332:248,1,140,0|4,0:0|0:0,0:0:0:0:
404,268,118523,2,0,P|376:200|312:180,2,140
360,340,119380,2,0,P|328:344|264:332,1,70,2|0,0:0|0:0,0:0:0:0:
248,268,119723,2,0,P|284:260|332:272,1,70,4|0,0:0|0:0,0:0:0:0:
160,272,120066,5,4,1:0:0:0:
232,228,120237,1,4,1:0:0:0:
156,196,120408,1,4,0:0:0:0:
228,152,120580,1,0,1:0:0:0:
152,120,120751,6,0,L|64:128,1,70,8|0,0:0|0:0,0:0:0:0:
120,200,121094,2,0,L|32:208,1,70,4|0,0:0|0:0,0:0:0:0:
228,152,121437,6,0,L|316:160,1,70
260,232,121780,2,0,L|348:240,1,70,4|0,0:0|0:0,0:0:0:0:
432,260,122123,6,0,L|428:188,1,70,8|0,0:0|0:0,0:0:0:0:
360,312,122466,2,0,L|364:384,1,70,8|0,0:0|0:0,0:0:0:0:
276,340,122808,6,0,L|228:324,3,35,10|0|0|0,0:0|0:0|0:0|0:0,0:0:0:0:
204,344,123151,2,0,L|148:356,3,35,10|0|0|0,0:0|0:0|0:0|0:0,0:0:0:0:
124,332,123494,6,0,P|80:320|16:336,1,105
22,332,123837,2,0,L|28:256,1,70,4|0,0:0|0:0,0:0:0:0:
4,168,124180,2,0,B|112:124|112:212|224:152,1,210
168,84,124866,6,0,P|124:144|216:248,1,210
260,224,125551,2,0,P|292:216|344:224,2,70,0|0|4,0:0|0:0|0:0,0:0:0:0:
184,248,126066,2,0,B|130:273|80:252|80:252|22:277,1,140
124,176,126580,6,0,P|80:172|36:188,1,70,2|0,0:0|0:0,0:0:0:0:
184,248,126923,2,0,P|228:252|272:236,1,70
132,320,127266,2,0,P|88:316|44:332,1,70,2|0,0:0|0:0,0:0:0:0:
196,372,127608,6,0,L|288:364,2,70,8|0|4,0:0|0:0|0:0,0:0:0:0:
100,236,128123,1,0,0:0:0:0:
52,376,128294,1,0,0:0:0:0:
152,344,128466,1,0,0:0:0:0:
108,244,128637,1,4,0:0:0:0:
12,280,128808,1,0,0:0:0:0:
116,252,128980,6,0,B|156:224|156:224|188:260|244:248,1,140
336,228,129494,1,0,0:0:0:0:
348,324,129666,1,4,1:0:0:0:
348,324,129837,1,4,1:0:0:0:
252,340,130008,1,4,0:0:0:0:
252,340,130180,1,0,0:0:0:0:
184,268,130351,5,0,0:0:0:0:
176,288,130523,1,0,0:0:0:0:
168,308,130694,2,0,P|128:312|88:304,1,70,4|0,0:0|0:0,0:0:0:0:
228,252,131037,2,0,P|268:248|308:256,1,70
352,316,131380,2,0,P|392:320|432:312,1,70,4|0,0:0|0:0,0:0:0:0:
496,280,131723,5,0,0:0:0:0:
496,280,131894,1,4,1:0:0:0:
428,232,132066,1,4,0:0:0:0:
428,232,132237,1,0,0:0:0:0:
468,152,132408,2,0,P|480:88|452:4,1,140,0|4,0:0|0:0,0:0:0:0:
452,12,132923,1,0,0:0:0:0:
444,8,133094,6,0,B|395:21|395:21|355:13|355:13|303:17,1,140,8|0,0:0|0:0,0:0:0:0:
239,55,133608,6,0,B|203:63|203:63|143:51,1,70,2|0,0:0|0:0,0:0:0:0:
48,116,133951,2,0,B|84:108|84:108|144:120,2,70,0|4|0,0:0|0:0|0:0,0:0:0:0:
184,160,134466,6,0,B|184:232|184:232|164:284,1,105,8|0,0:0|0:0,0:0:0:0:
148,296,134808,2,0,L|72:300,1,70,4|0,0:0|0:0,0:0:0:0:
212,348,135151,2,0,L|288:352,1,70
364,268,135494,1,4,0:0:0:0:
320,372,135666,1,0,0:0:0:0:
368,272,135837,6,0,L|384:220,3,35,2|0|0|0,0:0|0:0|0:0|0:0,0:0:0:0:
364,208,136180,2,0,L|352:160,3,35,2|0|0|0,0:0|0:0|0:0|0:0,0:0:0:0:
372,144,136523,6,0,P|408:148|456:136,2,70,0|0|4,0:0|0:0|0:0,0:0:0:0:
292,112,137037,2,0,P|224:100|160:132,1,140
80,140,137551,6,0,L|56:224,1,70,4|0,0:0|0:0,0:0:0:0:
129,276,137894,2,0,L|144:208,1,70
212,272,138237,2,0,L|204:356,1,70,4|0,0:0|0:0,0:0:0:0:
306,335,138580,5,0,0:0:0:0:
306,335,138751,1,0,0:0:0:0:
436,288,138923,2,0,B|400:280|400:280|344:292,1,70,4|0,0:0|0:0,0:0:0:0:
306,335,139266,2,0,B|270:343|270:343|214:331,2,70,0|0|4,0:0|0:0|0:0,0:0:0:0:
367,286,139780,2,0,P|372:244|360:204,1,70
136,100,140294,6,0,P|120:168|128:212,1,105,8|0,0:0|0:0,0:0:0:0:
152,236,140637,6,0,L|228:248,1,70,4|0,1:0|0:0,0:0:0:0:
304,152,140980,2,0,L|228:164,1,70,4|0,1:0|0:0,0:0:0:0:
232,172,141237,1,0,0:0:0:0:
228,180,141323,1,2,0:0:0:0:
152,236,141494,1,0,0:0:0:0:
148,136,141666,1,6,0:0:0:0:
72,200,141837,1,0,0:0:0:0:
144,132,142008,2,0,L|236:144,1,70
304,104,142351,2,0,P|304:148|288:192,1,70,6|0,0:0|0:0,0:0:0:0:
232,244,142694,5,0,0:0:0:0:
232,244,142866,2,0,L|332:256,2,70,0|4|0,0:0|0:0|0:0,0:0:0:0:
152,300,143380,5,0,0:0:0:0:
152,300,143551,2,0,L|52:312,2,70,0|4|0,0:0|0:0|0:0,0:0:0:0:
252,244,144066,5,2,0:0:0:0:
344,276,144237,1,2,0:0:0:0:
224,348,144408,1,4,0:0:0:0:
316,384,144580,1,0,0:0:0:0:
257,244,144751,5,2,0:0:0:0:
349,276,144923,1,2,0:0:0:0:
229,348,145094,1,4,0:0:0:0:
321,384,145266,1,0,0:0:0:0:
256,244,145437,1,10,0:0:0:0:
256,192,145523,12,0,148866,0:0:0:0:
