osu file format v12

[General]
AudioFilename: eos.mp3
AudioLeadIn: 2000
PreviewTime: 123520
Countdown: 0
SampleSet: Soft
StackLeniency: 0.7
LetterboxInBreaks: 0
EpilepsyWarning: 1
WidescreenStoryboard: 1

[Editor]
Bookmarks:
DistanceSpacing: 0.8
BeatDivisor: 4
GridSize: 4

[Metadata]
Title:EOS
TitleUnicode:EOS
Artist:ginkiha
ArtistUnicode:ginkiha
Creator:alacat
Version:Normal
Source:BMS
Tags:wk. the bms of fighters 2012 bof foe F.O.E. RLC 11t
BeatmapID:381986
BeatmapSetID:151720

[Difficulty]
HPDrainRate: 4
CircleSize: 3
OverallDifficulty: 4
ApproachRate: 5
SliderMultiplier: 1.2
SliderTickRate: 1

[Events]
//Background and Video events
0,0,"bg.jpg",0,0
//Break Periods
2,77091,83920
//Storyboard Layer 0 (Background)
//Storyboard Layer 1 (Fail)
//Storyboard Layer 2 (Pass)
//Storyboard Layer 3 (Foreground)
Sprite,Foreground,Centre,"sb\ring.png",300,252 P,0,8320,9005,A S,1,8320,9005,0.3,1 F,0,8320,9005,1,0
Sprite,Foreground,Centre,"sb\ring.png",532,204 P,0,10720,11405,A S,1,10720,11405,0.3,1 F,0,10720,11405,1,0
Sprite,Foreground,Centre,"sb\ring.png",368,144 P,0,30263,30948,A S,1,30263,30948,0.3,1 F,0,30263,30948,1,0
Sprite,Foreground,Centre,"sb\ring.png",424,80 P,0,53577,54262,A S,1,53577,54262,0.3,1 F,0,53577,54262,1,0
Sprite,Foreground,Centre,"sb\ring.png",112,128 P,0,54606,55291,A S,1,54606,55291,0.3,1 F,0,54606,55291,1,0
Sprite,Foreground,Centre,"sb\ring.png",132,220 P,0,54949,55634,A S,1,54949,55634,0.3,1 F,0,54949,55634,1,0
Sprite,Foreground,Centre,"sb\highlight.png",132,220 F,2,54949,56320,0.4,0 S,0,54949,54949,2.4,2.4 C,0,54949,56320,255,255,200,255,255,200 P,0,54949,56320,A
Sprite,Foreground,Centre,"sb\highlight.png",80,300 F,2,55291,56662,0.4,0 S,0,55291,55291,1.2,1.2 C,0,55291,56662,252,167,188,252,167,188 P,0,55291,56662,A
Sprite,Foreground,Centre,"sb\highlight.png",116,388 F,2,55634,57005,0.4,0 S,0,55634,55634,1.2,1.2 C,0,55634,57005,252,167,188,252,167,188 P,0,55634,57005,A M,0,55634,55805,116,388,176,408 M,0,55805,55976,176,408,232,404
Sprite,Foreground,Centre,"sb\highlight.png",320,364 F,2,56320,57691,0.4,0 S,0,56320,56320,1.2,1.2 C,0,56320,57691,252,167,188,252,167,188 P,0,56320,57691,A M,0,56320,56548,320,364,384,364 M,0,56548,56777,384,364,428,404 M,0,56777,57005,428,404,452,280
Sprite,Foreground,Centre,"sb\highlight.png",424,192 F,2,57349,58720,0.4,0 S,0,57349,57349,1.2,1.2 C,0,57349,58720,252,167,188,252,167,188 P,0,57349,58720,A
Sprite,Foreground,Centre,"sb\highlight.png",340,236 F,2,57691,59062,0.4,0 S,0,57691,57691,1.2,1.2 C,0,57691,59062,130,235,247,130,235,247 P,0,57691,59062,A M,0,57691,57862,340,236,280,240 M,0,57862,58033,280,240,220,224 M,0,58033,58205,220,224,280,240 M,0,58205,58376,280,240,340,236
Sprite,Foreground,Centre,"sb\highlight.png",424,192 F,2,58720,60091,0.4,0 S,0,58720,58720,1.2,1.2 C,0,58720,60091,130,235,247,130,235,247 P,0,58720,60091,A
Sprite,Foreground,Centre,"sb\highlight.png",344,136 F,2,59063,60434,0.4,0 S,0,59063,59063,1.2,1.2 C,0,59063,60434,130,235,247,130,235,247 P,0,59063,60434,A M,0,59063,59405,344,136,448,96 M,0,59405,59748,448,96,524,184
Sprite,Foreground,Centre,"sb\highlight.png",500,276 F,2,60091,61462,0.4,0 S,0,60091,60091,1.2,1.2 C,0,60091,61462,130,235,247,130,235,247 P,0,60091,61462,A
Sprite,Foreground,Centre,"sb\highlight.png",424,336 F,2,60434,61805,0.4,0 S,0,60434,60434,1.2,1.2 C,0,60434,61805,200,200,255,200,200,255 P,0,60434,61805,A M,0,60434,60605,424,336,432,396 M,0,60605,60776,432,396,488,416 M,0,60776,60948,488,416,432,396 M,0,60948,61119,432,396,424,336
Sprite,Foreground,Centre,"sb\highlight.png",344,284 F,2,61463,62834,0.4,0 S,0,61463,61463,1.2,1.2 C,0,61463,62834,200,200,255,200,200,255 P,0,61463,62834,A M,0,61463,61805,344,284,368,164
Sprite,Foreground,Centre,"sb\highlight.png",304,92 F,2,62149,63520,0.4,0 S,0,62149,62149,1.2,1.2 C,0,62149,63520,200,200,255,200,200,255 P,0,62149,63520,A
Sprite,Foreground,Centre,"sb\highlight.png",224,144 F,2,62491,63862,0.4,0 S,0,62491,62491,1.2,1.2 C,0,62491,63862,200,200,255,200,200,255 P,0,62491,63862,A M,0,62491,62662,224,144,164,148 M,0,62662,62833,164,148,108,124
Sprite,Foreground,Centre,"sb\highlight.png",64,208 F,2,63177,64548,0.4,0 S,0,63177,63177,1.2,1.2 C,0,63177,64548,191,255,223,191,255,223 P,0,63177,64548,A M,0,63177,63348,64,208,98,257 M,0,63348,63519,98,257,106,317
Sprite,Foreground,Centre,"sb\highlight.png",156,396 F,2,63863,65234,0.4,0 S,0,63863,63863,1.2,1.2 C,0,63863,65234,191,255,223,191,255,223 P,0,63863,65234,A
Sprite,Foreground,Centre,"sb\highlight.png",244,356 F,2,64206,65577,0.4,0 S,0,64206,64206,1.2,1.2 C,0,64206,65577,191,255,223,191,255,223 P,0,64206,65577,A
Sprite,Foreground,Centre,"sb\highlight.png",332,316 F,2,64549,65920,0.4,0 S,0,64549,64549,1.2,1.2 C,0,64549,65920,191,255,223,191,255,223 P,0,64549,65920,A M,0,64549,64777,332,316,388,292 M,0,64777,65006,388,292,432,384 M,0,65006,65234,432,384,532,376 M,0,65234,65463,532,376,432,384 M,0,65463,65691,432,384,388,292 M,0,65691,65920,388,292,332,316
Sprite,Foreground,Centre,"sb\highlight.png",244,356 F,2,66263,67634,0.4,0 S,0,66263,66263,1.2,1.2 C,0,66263,67634,252,167,188,252,167,188 P,0,66263,67634,A
Sprite,Foreground,Centre,"sb\highlight.png",184,280 F,2,66606,67977,0.4,0 S,0,66606,66606,1.2,1.2 C,0,66606,67977,252,167,188,252,167,188 P,0,66606,67977,A M,0,66606,66948,184,280,216,164
Sprite,Foreground,Centre,"sb\highlight.png",284,100 F,2,67291,68662,0.4,0 S,0,67291,67291,1.2,1.2 C,0,67291,68662,252,167,188,252,167,188 P,0,67291,68662,A M,0,67291,67462,284,100,335,132 M,0,67462,67633,335,132,402,118 M,0,67633,67805,402,118,443,165 M,0,67805,67976,443,165,512,168
Sprite,Foreground,Centre,"sb\highlight.png",560,248 F,2,68320,69691,0.4,0 S,0,68320,68320,1.2,1.2 C,0,68320,69691,252,167,188,252,167,188 P,0,68320,69691,A
Sprite,Foreground,Centre,"sb\highlight.png",480,300 F,2,68663,70034,0.4,0 S,0,68663,68663,1.2,1.2 C,0,68663,70034,130,235,247,130,235,247 P,0,68663,70034,A M,0,68663,69005,480,300,360,316
Sprite,Foreground,Centre,"sb\highlight.png",292,248 F,2,69349,70720,0.4,0 S,0,69349,69349,1.2,1.2 C,0,69349,70720,130,235,247,130,235,247 P,0,69349,70720,A M,0,69349,69520,292,248,232,228 M,0,69520,69691,232,228,176,236
Sprite,Foreground,Centre,"sb\highlight.png",140,324 F,2,70034,71405,0.4,0 S,0,70034,70034,1.2,1.2 C,0,70034,71405,130,235,247,130,235,247 P,0,70034,71405,A M,0,70034,70262,140,324,124,204 M,0,70262,70491,124,204,116,140 M,0,70491,70719,116,140,176,104
Sprite,Foreground,Centre,"sb\highlight.png",268,132 F,2,71063,72434,0.4,0 S,0,71063,71063,1.2,1.2 C,0,71063,72434,130,235,247,130,235,247 P,0,71063,72434,A
Sprite,Foreground,Centre,"sb\highlight.png",352,88 F,2,71406,72777,0.4,0 S,0,71406,71406,1.2,1.2 C,0,71406,72777,200,200,255,200,200,255 P,0,71406,72777,A M,0,71406,71577,352,88,412,84 M,0,71577,71748,412,84,468,104 M,0,71748,71920,468,104,412,84 M,0,71920,72091,412,84,352,88
Sprite,Foreground,Centre,"sb\highlight.png",292,164 F,2,72434,73805,0.4,0 S,0,72434,72434,1.2,1.2 C,0,72434,73805,200,200,255,200,200,255 P,0,72434,73805,A M,0,72434,72776,292,164,312,284
Sprite,Foreground,Centre,"sb\highlight.png",364,364 F,2,73120,74491,0.4,0 S,0,73120,73120,1.2,1.2 C,0,73120,74491,200,200,255,200,200,255 P,0,73120,74491,A
Sprite,Foreground,Centre,"sb\highlight.png",456,392 F,2,73463,74834,0.4,0 S,0,73463,73463,1.2,1.2 C,0,73463,74834,200,200,255,200,200,255 P,0,73463,74834,A
Sprite,Foreground,Centre,"sb\highlight.png",528,328 F,2,73806,75177,0.4,0 S,0,73806,73806,1.2,1.2 C,0,73806,75177,200,200,255,200,200,255 P,0,73806,75177,A
Sprite,Foreground,Centre,"sb\highlight.png",512,232 F,2,74149,75520,0.4,0 S,0,74149,74149,1.2,1.2 C,0,74149,75520,191,255,223,191,255,223 P,0,74149,75520,A M,0,74149,74491,512,232,531,113
Sprite,Foreground,Centre,"sb\highlight.png",448,64 F,2,74834,76205,0.4,0 S,0,74834,74834,1.2,1.2 C,0,74834,76205,191,255,223,191,255,223 P,0,74834,76205,A M,0,74834,75176,448,64,428,182
Sprite,Foreground,Centre,"sb\highlight.png",360,248 F,2,75520,76891,0.4,0 S,0,75520,75520,1.2,1.2 C,0,75520,76891,191,255,223,191,255,223 P,0,75520,76891,A M,0,75520,75862,360,248,244,272 M,0,75862,76205,244,272,160,192 M,0,76205,76548,160,192,244,272 M,0,76548,76891,244,272,360,248
Sprite,Foreground,Centre,"sb\ring.png",460,348 P,0,90606,91291,A S,1,90606,91291,0.3,1 F,0,90606,91291,1,0
Sprite,Foreground,Centre,"sb\ring.png",168,312 P,0,93349,94034,A S,1,93349,94034,0.3,1 F,0,93349,94034,1,0
Sprite,Foreground,Centre,"sb\ring.png",464,96 P,0,96777,97462,A S,1,96777,97462,0.3,1 F,0,96777,97462,1,0
Sprite,Foreground,Centre,"sb\ring.png",564,268 P,0,97463,98148,A S,1,97463,98148,0.3,1 F,0,97463,98148,1,0
Sprite,Foreground,Centre,"sb\ring.png",276,220 P,0,122149,122834,A S,1,122149,122834,0.3,1 F,0,122149,122834,1,0
Sprite,Foreground,Centre,"sb\ring.png",568,300 P,0,123177,123862,A S,1,123177,123862,0.3,1 F,0,123177,123862,1,0
Sprite,Foreground,Centre,"sb\ring.png",520,384 P,0,123520,124205,A S,1,123520,124205,0.3,1 F,0,123520,124205,1,0
Sprite,Foreground,Centre,"sb\highlight.png",520,384 F,2,123520,124891,0.4,0 S,0,123520,123520,2.4,2.4 C,0,123520,124891,255,255,200,255,255,200 P,0,123520,124891,A
Sprite,Foreground,Centre,"sb\highlight.png",428,352 F,2,123863,125234,0.4,0 S,0,123863,123863,1.2,1.2 C,0,123863,125234,130,235,247,130,235,247 P,0,123863,125234,A
Sprite,Foreground,Centre,"sb\highlight.png",352,412 F,2,124206,125577,0.4,0 S,0,124206,124206,1.2,1.2 C,0,124206,125577,130,235,247,130,235,247 P,0,124206,125577,A M,0,124206,124377,352,412,292,415 M,0,124377,124548,292,415,236,395
Sprite,Foreground,Centre,"sb\highlight.png",188,312 F,2,124891,126262,0.4,0 S,0,124891,124891,1.2,1.2 C,0,124891,126262,130,235,247,130,235,247 P,0,124891,126262,A M,0,124891,125119,188,312,211,192 M,0,125119,125348,211,192,276,188 M,0,125348,125576,276,188,319,232
Sprite,Foreground,Centre,"sb\highlight.png",340,324 F,2,125920,127291,0.4,0 S,0,125920,125920,1.2,1.2 C,0,125920,127291,130,235,247,130,235,247 P,0,125920,127291,A
Sprite,Foreground,Centre,"sb\highlight.png",404,396 F,2,126263,127634,0.4,0 S,0,126263,126263,1.2,1.2 C,0,126263,127634,200,200,255,200,200,255 P,0,126263,127634,A M,0,126263,126434,404,396,461,410 M,0,126434,126605,461,410,520,400
Sprite,Foreground,Centre,"sb\highlight.png",544,308 F,2,126949,128320,0.4,0 S,0,126949,126949,1.2,1.2 C,0,126949,128320,200,200,255,200,200,255 P,0,126949,128320,A
Sprite,Foreground,Centre,"sb\highlight.png",564,216 F,2,127291,128662,0.4,0 S,0,127291,127291,1.2,1.2 C,0,127291,128662,200,200,255,200,200,255 P,0,127291,128662,A
Sprite,Foreground,Centre,"sb\highlight.png",500,144 F,2,127634,129005,0.4,0 S,0,127634,127634,1.2,1.2 C,0,127634,129005,200,200,255,200,200,255 P,0,127634,129005,A M,0,127634,127976,500,144,396,104 M,0,127976,128319,396,104,320,192
Sprite,Foreground,Centre,"sb\highlight.png",348,280 F,2,128663,130034,0.4,0 S,0,128663,128663,1.2,1.2 C,0,128663,130034,200,200,255,200,200,255 P,0,128663,130034,A
Sprite,Foreground,Centre,"sb\highlight.png",300,364 F,2,129006,130377,0.4,0 S,0,129006,129006,1.2,1.2 C,0,129006,130377,191,255,223,191,255,223 P,0,129006,130377,A M,0,129006,129177,300,364,236,384 M,0,129177,129348,236,384,176,384 M,0,129348,129520,176,384,236,384 M,0,129520,129691,236,384,300,364
Sprite,Foreground,Centre,"sb\highlight.png",396,364 F,2,130034,131405,0.4,0 S,0,130034,130034,1.2,1.2 C,0,130034,131405,191,255,223,191,255,223 P,0,130034,131405,A
Sprite,Foreground,Centre,"sb\highlight.png",348,280 F,2,130377,131748,0.4,0 S,0,130377,130377,1.2,1.2 C,0,130377,131748,191,255,223,191,255,223 P,0,130377,131748,A M,0,130377,130548,348,280,324,224 M,0,130548,130719,324,224,328,164
Sprite,Foreground,Centre,"sb\highlight.png",244,116 F,2,131063,132434,0.4,0 S,0,131063,131063,1.2,1.2 C,0,131063,132434,191,255,223,191,255,223 P,0,131063,132434,A M,0,131063,131405,244,116,124,132
Sprite,Foreground,Centre,"sb\highlight.png",100,224 F,2,131749,133120,0.4,0 S,0,131749,131749,1.2,1.2 C,0,131749,133120,252,167,188,252,167,188 P,0,131749,133120,A M,0,131749,132091,100,224,218,208
Sprite,Foreground,Centre,"sb\highlight.png",248,300 F,2,132434,133805,0.4,0 S,0,132434,132434,1.2,1.2 C,0,132434,133805,252,167,188,252,167,188 P,0,132434,133805,A
Sprite,Foreground,Centre,"sb\highlight.png",276,392 F,2,132777,134148,0.4,0 S,0,132777,132777,1.2,1.2 C,0,132777,134148,252,167,188,252,167,188 P,0,132777,134148,A
Sprite,Foreground,Centre,"sb\highlight.png",340,320 F,2,133120,134491,0.4,0 S,0,133120,133120,1.2,1.2 C,0,133120,134491,252,167,188,252,167,188 P,0,133120,134491,A M,0,133120,133348,340,320,396,296 M,0,133348,133577,396,296,440,388 M,0,133577,133805,440,388,540,380 M,0,133805,134034,540,380,440,388 M,0,134034,134262,440,388,396,296 M,0,134262,134491,396,296,340,320
Sprite,Foreground,Centre,"sb\highlight.png",248,300 F,2,134834,136205,0.4,0 S,0,134834,134834,1.2,1.2 C,0,134834,136205,130,235,247,130,235,247 P,0,134834,136205,A
Sprite,Foreground,Centre,"sb\highlight.png",212,212 F,2,135177,136548,0.4,0 S,0,135177,135177,1.2,1.2 C,0,135177,136548,130,235,247,130,235,247 P,0,135177,136548,A M,0,135177,135519,212,212,244,96
Sprite,Foreground,Centre,"sb\highlight.png",332,136 F,2,135863,137234,0.4,0 S,0,135863,135863,1.2,1.2 C,0,135863,137234,130,235,247,130,235,247 P,0,135863,137234,A M,0,135863,136091,332,136,394,144 M,0,136091,136320,394,144,449,109 M,0,136320,136548,449,109,498,217
Sprite,Foreground,Centre,"sb\highlight.png",540,304 F,2,136891,138262,0.4,0 S,0,136891,136891,1.2,1.2 C,0,136891,138262,130,235,247,130,235,247 P,0,136891,138262,A
Sprite,Foreground,Centre,"sb\highlight.png",492,388 F,2,137234,138605,0.4,0 S,0,137234,137234,1.2,1.2 C,0,137234,138605,200,200,255,200,200,255 P,0,137234,138605,A M,0,137234,137576,492,388,373,403
Sprite,Foreground,Centre,"sb\highlight.png",296,348 F,2,137920,139291,0.4,0 S,0,137920,137920,1.2,1.2 C,0,137920,139291,200,200,255,200,200,255 P,0,137920,139291,A
Sprite,Foreground,Centre,"sb\highlight.png",208,388 F,2,138263,139634,0.4,0 S,0,138263,138263,1.2,1.2 C,0,138263,139634,200,200,255,200,200,255 P,0,138263,139634,A
Sprite,Foreground,Centre,"sb\highlight.png",128,336 F,2,138606,139977,0.4,0 S,0,138606,138606,1.2,1.2 C,0,138606,139977,200,200,255,200,200,255 P,0,138606,139977,A M,0,138606,138834,128,336,69,300 M,0,138834,139063,69,300,77,236 M,0,139063,139291,77,236,93,116
Sprite,Foreground,Centre,"sb\highlight.png",184,88 F,2,139634,141005,0.4,0 S,0,139634,139634,1.2,1.2 C,0,139634,141005,200,200,255,200,200,255 P,0,139634,141005,A
Sprite,Foreground,Centre,"sb\highlight.png",244,164 F,2,139977,141348,0.4,0 S,0,139977,139977,1.2,1.2 C,0,139977,141348,191,255,223,191,255,223 P,0,139977,141348,A M,0,139977,140148,244,164,248,224 M,0,140148,140319,248,224,228,280 M,0,140319,140491,228,280,248,224 M,0,140491,140662,248,224,244,164
Sprite,Foreground,Centre,"sb\highlight.png",336,196 F,2,141006,142377,0.4,0 S,0,141006,141006,1.2,1.2 C,0,141006,142377,191,255,223,191,255,223 P,0,141006,142377,A M,0,141006,141348,336,196,456,176
Sprite,Foreground,Centre,"sb\highlight.png",528,240 F,2,141691,143062,0.4,0 S,0,141691,141691,1.2,1.2 C,0,141691,143062,191,255,223,191,255,223 P,0,141691,143062,A
Sprite,Foreground,Centre,"sb\highlight.png",544,144 F,2,142034,143405,0.4,0 S,0,142034,142034,1.2,1.2 C,0,142034,143405,191,255,223,191,255,223 P,0,142034,143405,A
Sprite,Foreground,Centre,"sb\highlight.png",468,84 F,2,142377,143748,0.4,0 S,0,142377,142377,1.2,1.2 C,0,142377,143748,191,255,223,191,255,223 P,0,142377,143748,A
Sprite,Foreground,Centre,"sb\highlight.png",372,96 F,2,142720,144091,0.4,0 S,0,142720,142720,1.2,1.2 C,0,142720,144091,252,167,188,252,167,188 P,0,142720,144091,A M,0,142720,143062,372,96,253,115
Sprite,Foreground,Centre,"sb\highlight.png",196,192 F,2,143406,144777,0.4,0 S,0,143406,143406,1.2,1.2 C,0,143406,144777,252,167,188,252,167,188 P,0,143406,144777,A
Sprite,Foreground,Centre,"sb\highlight.png",248,272 F,2,143749,145120,0.4,0 S,0,143749,143749,1.2,1.2 C,0,143749,145120,252,167,188,252,167,188 P,0,143749,145120,A
Sprite,Foreground,Centre,"sb\highlight.png",340,248 F,2,144091,145462,0.4,0 S,0,144091,144091,1.2,1.2 C,0,144091,145462,252,167,188,252,167,188 P,0,144091,145462,A M,0,144091,144433,340,248,456,224 M,0,144433,144776,456,224,540,304
Sprite,Foreground,Centre,"sb\highlight.png",512,392 F,2,145120,146491,0.4,0 S,0,145120,145120,1.2,1.2 C,0,145120,146491,252,167,188,252,167,188 P,0,145120,146491,A
//Storyboard Sound Samples
//Background Colour Transformations
3,100,163,162,255

[TimingPoints]
92,342.857142857,4,2,2,60,1,0
92,-133.333333333,4,2,2,60,0,0
2491,-133.333333333,4,2,1,60,0,0
2834,-133.333333333,4,2,2,60,0,0
5234,-133.333333333,4,2,1,60,0,0
5577,-133.333333333,4,2,2,60,0,0
7977,-133.333333333,4,2,1,60,0,0
8320,-133.333333333,4,2,2,60,0,0
10720,-133.333333333,4,2,1,60,0,0
11063,-100.0,4,2,1,70,0,0
54949,-100.0,4,2,1,80,0,1
76891,-100.0,4,2,1,80,0,0
85120,-100.0,4,2,1,60,0,0
87863,-133.333333333,4,2,1,80,0,0
89834,-133.333333333,4,2,2,60,0,0
90006,-133.333333333,4,2,1,60,0,0
92577,-133.333333333,4,2,2,60,0,0
92749,-133.333333333,4,2,1,60,0,0
93949,-133.333333333,4,2,2,60,0,0
94120,-133.333333333,4,2,1,60,0,0
95320,-133.333333333,4,2,2,60,0,0
95492,-133.333333333,4,2,1,60,0,0
98834,-100.0,4,2,1,20,0,0
99520,-100.0,4,2,1,40,0,0
100206,-100.0,4,2,1,60,0,0
101149,-100.0,4,2,2,60,0,0
101320,-100.0,4,2,1,60,0,0
101577,-100.0,4,2,1,70,0,0
123520,-100.0,4,2,1,80,0,1
145463,-100.0,4,2,1,70,0,0
145806,-100.0,4,2,1,60,0,0
146149,-100.0,4,2,1,50,0,0
146492,-100.0,4,2,1,40,0,0
146834,-100.0,4,2,1,30,0,0
147177,-100.0,4,2,1,20,0,0
147520,-100.0,4,2,1,10,0,0
147863,-100.0,4,2,1,5,0,0

[Colours]
Combo1 : 191,255,223
Combo2 : 252,167,188
Combo3 : 130,235,247
Combo4 : 200,200,255

[HitObjects]
256,124,92,6,0,P|188:132|124:108,2,135.00000515,2|2|2,0:0|0:0|0:0,0:0:0:0:
388,60,1634,2,0,P|432:112|444:176,1,135.00000515,2|2,0:0|0:0,0:0:0:0:
388,260,2491,1,8,0:0:0:0:
300,216,2834,6,0,L|164:216,2,135.00000515,2|2|2,0:0|0:0|0:0,0:0:0:0:
192,112,4377,2,0,B|92:112|92:112|64:132,1,135.00000515,2|2,0:0|0:0,0:0:0:0:
16,220,5234,1,8,0:0:0:0:
116,216,5577,6,0,P|140:276|124:344,2,135.00000515,2|2|2,0:0|0:0|0:0,0:0:0:0:
60,80,7120,2,0,P|117:41|181:37,1,135.00000515,2|2,0:0|0:0,0:0:0:0:
256,100,7977,1,8,0:0:0:0:
236,196,8320,6,0,B|245:248|245:248|235:278|235:278|246:333,2,135.00000515,4|4|4,0:0|0:0|0:0,0:0:0:0:
256,100,9691,2,0,P|328:48|412:68,1,180.000006866,2|4,0:0|0:0,0:0:0:0:
468,148,10720,1,4,0:0:0:0:
412,228,11063,6,0,L|436:348,1,120.0,0|4,0:0|0:0,0:0:0:0:
340,328,11749,2,0,P|280:316|220:324,1,120.0,0|8,0:0|0:0,0:0:0:0:
132,352,12434,1,0,0:0:0:0:
56,292,12777,1,8,0:0:0:0:
148,260,13120,1,0,0:0:0:0:
76,196,13463,1,8,0:0:0:0:
12,124,13806,6,0,P|-4:64|4:8,2,120.0,0|8|0,0:0|0:0|0:0,0:0:0:0:
104,100,14834,1,8,0:0:0:0:
176,160,15177,2,0,P|296:176|396:112,1,240.0,0|0,0:0|0:0,0:0:0:0:
484,80,16206,2,0,L|472:20,2,60.0,8|0|0,0:0|0:0|0:0,0:0:0:0:
468,176,16891,5,8,0:0:0:0:
396,240,17234,2,0,P|336:248|280:232,1,120.0,0|8,0:0|0:0,0:0:0:0:
204,288,17920,2,0,P|146:272|87:280,2,120.0,0|8|0,0:0|0:0|0:0,0:0:0:0:
276,352,18949,1,8,0:0:0:0:
368,324,19291,6,0,P|472:272|484:156,1,240.0,0|0,0:0|0:0,0:0:0:0:
420,88,20320,1,8,0:0:0:0:
328,120,20663,1,0,0:0:0:0:
256,56,21006,1,8,0:0:0:0:
168,92,21349,2,0,B|108:84|108:84|52:108,2,120.0,0|8|4,0:0|0:0|0:0,0:0:0:0:
188,184,22377,5,8,0:0:0:0:
280,208,22720,2,0,L|404:208,1,120.0,0|8,0:0|0:0,0:0:0:0:
436,296,23406,2,0,L|316:296,1,120.0,0|8,0:0|0:0,0:0:0:0:
228,336,24091,1,0,0:0:0:0:
160,268,24434,1,8,0:0:0:0:
212,188,24777,6,0,P|220:128|204:72,1,120.0,0|8,0:0|0:0,0:0:0:0:
124,16,25463,1,0,0:0:0:0:
40,60,25806,1,8,0:0:0:0:
76,148,26149,2,0,B|112:228|60:312|60:312|124:288,1,240.0,0|0,0:0|0:0,0:0:0:0:
200,232,27177,2,0,L|208:172,2,60.0,8|0|4,0:0|0:0|0:0,0:0:0:0:
212,328,27863,5,8,0:0:0:0:
292,276,28206,1,0,0:0:0:0:
380,316,28549,2,0,L|388:376,2,60.0,8|0|4,0:0|0:0|0:0,0:0:0:0:
448,248,29234,2,0,L|472:124,1,120.0,8|0,0:0|0:0,0:0:0:0:
408,56,29920,2,0,L|348:72,1,60.0,8|0,0:0|0:0,0:0:0:0:
304,88,30263,6,0,B|252:128|264:192|264:192|200:216|144:184,1,240.0,4|4,0:0|0:0,0:0:0:0:
96,104,31291,1,8,0:0:0:0:
256,192,31634,12,4,33006,0:0:0:0:
265,44,33691,6,0,B|208:44|208:44|180:100,1,120.0,0|8,0:0|0:0,0:0:0:0:
208,192,34377,1,0,0:0:0:0:
232,284,34720,1,8,0:0:0:0:
304,220,35063,2,0,B|420:192|420:192|388:308,1,240.0,0|0,0:0|0:0,0:0:0:0:
300,352,36091,5,8,0:0:0:0:
232,284,36434,2,0,L|112:296,1,120.0,0|8,0:0|0:0,0:0:0:0:
28,248,37120,2,0,P|12:188|28:132,1,120.0,0|8,0:0|0:0,0:0:0:0:
96,68,37806,2,0,B|152:88|152:88|224:24|320:68,1,240.0,0|0,0:0|0:0,0:0:0:0:
360,156,38834,5,8,0:0:0:0:
292,224,39177,2,0,L|176:184,2,120.0,0|8|0,0:0|0:0|0:0,0:0:0:0:
332,312,40206,1,8,0:0:0:0:
424,292,40549,2,0,B|492:192|492:192|480:124|420:104,1,240.0,0|0,0:0|0:0,0:0:0:0:
336,148,41577,6,0,P|272:152|216:140,1,120.0,8|0,0:0|0:0,0:0:0:0:
140,84,42263,1,8,0:0:0:0:
68,148,42606,2,0,L|88:268,1,120.0,0|8,0:0|0:0,0:0:0:0:
148,340,43291,1,0,0:0:0:0:
244,328,43634,2,0,L|304:340,2,60.0,8|0|4,0:0|0:0|0:0,0:0:0:0:
188,252,44320,5,8,0:0:0:0:
272,208,44663,2,0,P|284:144|264:92,1,120.0,0|8,0:0|0:0,0:0:0:0:
344,40,45349,2,0,P|392:83|447:92,1,120.0,0|8,0:0|0:0,0:0:0:0:
496,176,46034,2,0,P|388:208|340:324,1,240.0,0|0,0:0|0:0,0:0:0:0:
248,288,47063,5,8,0:0:0:0:
164,336,47406,2,0,P|104:336|48:308,1,120.0,0|8,0:0|0:0,0:0:0:0:
16,220,48091,2,0,L|36:100,1,120.0,0|8,0:0|0:0,0:0:0:0:
120,52,48777,2,0,P|236:36|300:128,1,240.0,0|0,0:0|0:0,0:0:0:0:
276,220,49806,5,8,0:0:0:0:
368,192,50149,2,0,L|492:192,2,120.0,0|8|0,0:0|0:0|0:0,0:0:0:0:
348,284,51177,1,8,0:0:0:0:
256,312,51520,2,0,P|136:296|92:196,1,240.0,0|4,0:0|0:0,0:0:0:0:
156,124,52549,5,8,0:0:0:0:
240,172,52891,1,0,0:0:0:0:
324,124,53234,2,0,L|344:68,1,60.0,8|0,0:0|0:0,0:0:0:0:
360,24,53577,2,0,P|248:60|132:28,1,240.0,4|4,0:0|0:0,0:0:0:0:
48,72,54606,1,4,0:0:0:0:
68,164,54949,5,4,0:0:0:0:
16,244,55291,1,8,0:0:0:0:
52,332,55634,2,0,P|112:352|168:348,1,120.0,0|8,0:0|0:0,0:0:0:0:
256,308,56320,2,0,B|320:308|364:348|364:348|388:224,1,240.0,0|0,0:0|0:0,0:0:0:0:
360,136,57349,1,8,0:0:0:0:
276,180,57691,6,0,P|216:184|156:168,2,120.0,0|8|0,0:0|0:0|0:0,0:0:0:0:
360,136,58720,1,8,0:0:0:0:
280,80,59063,2,0,P|384:40|460:128,1,240.0,0|0,0:0|0:0,0:0:0:0:
436,220,60091,1,8,0:0:0:0:
360,280,60434,6,0,B|368:340|368:340|424:360,2,120.0,0|8|0,0:0|0:0|0:0,0:0:0:0:
280,228,61463,2,0,L|304:108,1,120.0,8|0,0:0|0:0,0:0:0:0:
240,36,62149,1,8,0:0:0:0:
160,88,62491,2,0,P|100:92|44:68,1,120.0,0|8,0:0|0:0,0:0:0:0:
0,152,63177,6,0,P|34:201|42:261,1,120.0,0|8,0:0|0:0,0:0:0:0:
92,340,63863,1,0,0:0:0:0:
180,300,64206,1,8,0:0:0:0:
268,260,64549,2,0,B|324:236|324:236|368:328|468:320,2,240.0,0|0|4,0:0|0:0|0:0,0:0:0:0:
180,300,66263,5,8,0:0:0:0:
120,224,66606,2,0,L|152:108,1,120.0,0|8,0:0|0:0,0:0:0:0:
220,44,67291,2,0,B|271:76|338:62|338:62|379:109|448:112,1,240.0,0|0,0:0|0:0,0:0:0:0:
496,192,68320,1,8,0:0:0:0:
416,244,68663,6,0,L|296:260,1,120.0,0|8,0:0|0:0,0:0:0:0:
228,192,69349,2,0,P|168:172|112:180,1,120.0,0|8,0:0|0:0,0:0:0:0:
76,268,70034,2,0,B|60:148|60:148|52:84|112:48,1,240.0,0|0,0:0|0:0,0:0:0:0:
204,76,71063,1,8,0:0:0:0:
288,32,71406,6,0,P|348:28|404:48,2,120.0,0|8|0,0:0|0:0|0:0,0:0:0:0:
228,108,72434,2,0,L|248:228,1,120.0,8|0,0:0|0:0,0:0:0:0:
300,308,73120,1,8,0:0:0:0:
392,336,73463,1,0,0:0:0:0:
464,272,73806,1,8,0:0:0:0:
448,176,74149,6,0,L|467:57,1,120.0,0|8,0:0|0:0,0:0:0:0:
384,8,74834,2,0,L|364:126,1,120.0,0|8,0:0|0:0,0:0:0:0:
296,192,75520,2,0,P|180:216|96:136,2,240.0,0|0|4,0:0|0:0|0:0,0:0:0:0:
256,192,85120,12,4,87863,0:0:0:0:
480,236,89234,6,0,P|496:168|480:104,2,135.00000515,0|8|8,0:0|0:0|0:0,0:0:0:0:
396,292,90606,6,0,L|304:292,1,90.0000034332,4|8,0:0|0:0,0:0:0:0:
28,192,91977,2,0,P|12:124|28:60,2,135.00000515,0|8|8,0:0|0:0|0:0,0:0:0:0:
104,256,93349,5,4,0:0:0:0:
196,216,93691,2,0,L|332:216,2,135.00000515,8|8|4,0:0|0:0|0:0,0:0:0:0:
220,120,95063,2,0,L|84:120,2,135.00000515,8|8|4,0:0|0:0|0:0,0:0:0:0:
400,40,96777,5,4,0:0:0:0:
500,212,97463,2,0,P|424:316|296:304,1,270.0000103,4|8,0:0|0:0,0:0:0:0:
256,192,98834,12,8,100206,0:0:0:0:
136,340,100891,6,0,B|53:299|53:191|53:191|93:147,1,240.0,8|4,0:0|0:0,0:0:0:0:
184,116,101920,6,0,P|244:112|300:84,1,120.0,8|0,0:0|0:0,0:0:0:0:
392,72,102606,1,8,0:0:0:0:
440,156,102949,1,0,0:0:0:0:
376,228,103291,1,8,0:0:0:0:
280,220,103634,2,0,B|216:208|164:248|164:248|112:220|100:152,1,240.0,0|0,0:0|0:0,0:0:0:0:
140,68,104663,5,8,0:0:0:0:
44,68,105006,1,0,0:0:0:0:
8,156,105349,1,8,0:0:0:0:
48,244,105691,2,0,P|63:301|47:358,1,120.0,0|8,0:0|0:0,0:0:0:0:
144,348,106377,2,0,B|200:328|200:328|272:392|368:348,1,240.0,0|0,0:0|0:0,0:0:0:0:
424,268,107406,5,8,0:0:0:0:
388,180,107749,2,0,P|384:116|412:60,2,120.0,0|8|0,0:0|0:0|0:0,0:0:0:0:
424,268,108777,1,8,0:0:0:0:
372,348,109120,2,0,B|316:375|259:336|259:336|237:217,1,240.0,0|0,0:0|0:0,0:0:0:0:
164,156,110149,6,0,P|100:152|44:164,1,120.0,8|0,0:0|0:0,0:0:0:0:
4,252,110834,1,8,0:0:0:0:
52,336,111177,2,0,P|116:340|172:328,1,120.0,0|8,0:0|0:0,0:0:0:0:
252,276,111863,1,0,0:0:0:0:
256,180,112206,2,0,L|196:168,2,60.0,8|0|4,0:0|0:0|0:0,0:0:0:0:
340,228,112891,5,8,0:0:0:0:
428,192,113234,2,0,P|440:128|420:76,1,120.0,0|8,0:0|0:0,0:0:0:0:
336,32,113920,1,0,0:0:0:0:
252,80,114263,1,8,0:0:0:0:
168,32,114606,2,0,P|60:64|12:180,1,240.0,0|0,0:0|0:0,0:0:0:0:
56,260,115634,5,8,0:0:0:0:
144,224,115977,2,0,P|204:224|260:252,1,120.0,0|8,0:0|0:0,0:0:0:0:
352,236,116663,2,0,L|332:356,1,120.0,0|8,0:0|0:0,0:0:0:0:
424,332,117349,2,0,B|456:152|456:152|428:100,1,240.0,0|0,0:0|0:0,0:0:0:0:
336,76,118377,5,8,0:0:0:0:
256,128,118720,2,0,L|132:128,2,120.0,0|8|0,0:0|0:0|0:0,0:0:0:0:
296,216,119749,1,8,0:0:0:0:
212,264,120091,2,0,B|140:264|140:264|100:292|100:292|40:296|0:236,1,240.0,0|4,0:0|0:0,0:0:0:0:
20,144,121120,5,8,0:0:0:0:
48,52,121463,1,0,0:0:0:0:
112,124,121806,2,0,L|168:144,1,60.0,8|0,0:0|0:0,0:0:0:0:
212,164,122149,2,0,B|336:192|336:120|448:164,1,240.0,4|4,0:0|0:0,0:0:0:0:
504,244,123177,1,4,0:0:0:0:
456,328,123520,5,4,0:0:0:0:
364,296,123863,1,8,0:0:0:0:
288,356,124206,2,0,P|228:359|172:339,1,120.0,0|8,0:0|0:0,0:0:0:0:
124,256,124891,2,0,B|147:136|147:136|212:132|255:176,1,240.0,0|0,0:0|0:0,0:0:0:0:
276,268,125920,1,8,0:0:0:0:
340,340,126263,6,0,P|397:354|456:344,1,120.0,0|8,0:0|0:0,0:0:0:0:
480,252,126949,1,0,0:0:0:0:
500,160,127291,1,8,0:0:0:0:
436,88,127634,2,0,P|332:48|256:136,1,240.0,0|0,0:0|0:0,0:0:0:0:
284,224,128663,1,8,0:0:0:0:
236,308,129006,6,0,B|172:328|172:328|112:328,2,120.0,0|8|0,0:0|0:0|0:0,0:0:0:0:
332,308,130034,1,8,0:0:0:0:
284,224,130377,2,0,P|260:168|264:108,1,120.0,0|8,0:0|0:0,0:0:0:0:
180,60,131063,2,0,L|60:76,1,120.0,0|8,0:0|0:0,0:0:0:0:
36,168,131749,6,0,L|154:152,1,120.0,0|8,0:0|0:0,0:0:0:0:
184,244,132434,1,0,0:0:0:0:
212,336,132777,1,8,0:0:0:0:
276,264,133120,2,0,B|332:240|332:240|376:332|476:324,2,240.0,0|0|4,0:0|0:0|0:0,0:0:0:0:
184,244,134834,5,8,0:0:0:0:
148,156,135177,2,0,L|180:40,1,120.0,0|8,0:0|0:0,0:0:0:0:
268,80,135863,2,0,B|330:88|385:53|385:53|434:161,1,240.0,0|0,0:0|0:0,0:0:0:0:
476,248,136891,1,8,0:0:0:0:
428,332,137234,6,0,L|309:347,1,120.0,0|8,0:0|0:0,0:0:0:0:
232,292,137920,1,0,0:0:0:0:
144,332,138263,1,8,0:0:0:0:
64,280,138606,2,0,B|5:244|13:180|13:180|29:60,1,240.0,0|0,0:0|0:0,0:0:0:0:
120,32,139634,1,8,0:0:0:0:
180,108,139977,6,0,P|184:168|164:224,2,120.0,0|8|0,0:0|0:0|0:0,0:0:0:0:
272,140,141006,2,0,L|392:120,1,120.0,8|0,0:0|0:0,0:0:0:0:
464,184,141691,1,8,0:0:0:0:
480,88,142034,1,0,0:0:0:0:
404,28,142377,1,8,0:0:0:0:
308,40,142720,6,0,L|189:59,1,120.0,0|8,0:0|0:0,0:0:0:0:
132,136,143406,1,0,0:0:0:0:
184,216,143749,1,8,0:0:0:0:
276,192,144091,2,0,P|392:168|476:248,1,240.0,0|0,0:0|0:0,0:0:0:0:
448,336,145120,1,8,0:0:0:0:
256,192,145463,12,0,147863,0:0:0:0:
