osu file format v13

[General]
AudioFilename: eos.mp3
AudioLeadIn: 0
PreviewTime: 32320
Countdown: 0
SampleSet: Normal
StackLeniency: 0.7
Mode: 2
LetterboxInBreaks: 1
EpilepsyWarning: 1
WidescreenStoryboard: 0

[Editor]
Bookmarks: 20663,53577,56320,56834,57006,57177,57349,57520,123520
DistanceSpacing: 1
BeatDivisor: 2
GridSize: 8
TimelineZoom: 1

[Metadata]
Title:EOS
TitleUnicode:EOS
Artist:ginkiha
ArtistUnicode:ginkiha
Creator:Serena-
Version:Salad
Source:
Tags:Xinely Amir
BeatmapID:493304
BeatmapSetID:209600

[Difficulty]
HPDrainRate:5
CircleSize:3
OverallDifficulty:6.5
ApproachRate:6.5
SliderMultiplier:1.4
SliderTickRate:1

[Events]
//Background and Video events
0,0,"BG.jpg",0,0
//Break Periods
2,77091,83749
//Storyboard Layer 0 (Background)
//Storyboard Layer 1 (Fail)
//Storyboard Layer 2 (Pass)
//Storyboard Layer 3 (Foreground)
//Storyboard Sound Samples

[TimingPoints]
92,342.857142857143,4,1,39,50,1,0
5577,-100,4,1,39,70,0,0
5663,-100,4,1,39,50,0,0
8320,-100,4,1,39,70,0,0
9692,-100,4,1,39,50,0,0
11063,-100,4,1,39,60,0,0
11406,-100,4,1,39,70,0,0
54949,-100,4,1,39,80,0,1
76892,-100,4,1,39,75,0,0
97463,-100,4,3,0,100,0,0
98149,-100,4,1,39,75,0,0
100377,-100,4,1,39,60,0,0
123520,-100,4,1,39,80,0,1
145463,-100,4,1,39,5,0,0
148034,-100,4,1,39,5,0,0

[HitObjects]
360,200,92,6,0,P|276:264|168:232,2,210,2|2|2,0:0|0:0|0:0,0:0:0:0:
112,176,1634,1,0,0:0:0:0:
224,176,1806,2,0,L|364:176,1,140,2|2,0:0|0:0,0:0:0:0:
256,176,2492,1,8,0:0:0:0:
512,176,2834,5,2,0:0:0:0:
256,176,3349,1,2,0:0:0:0:
0,176,3863,1,2,0:0:0:0:
256,176,4377,5,2,0:0:0:0:
432,176,4720,1,0,0:0:0:0:
344,176,4892,2,0,L|200:176,1,140,2|8,0:0|0:0,0:0:0:0:
0,176,5577,1,4,0:0:0:0:
256,176,6092,1,2,0:0:0:0:
512,176,6606,1,2,0:0:0:0:
256,176,7120,5,0,0:0:0:0:
128,176,7463,1,0,0:0:0:0:
192,176,7634,2,0,P|240:240|448:176,1,280,0|4,0:0|0:1,0:0:0:0:
208,140,8834,1,4,0:1:0:0:
512,128,9349,1,4,0:1:0:0:
416,128,9692,6,0,L|304:128,1,70,2|0,0:0|0:0,0:0:0:0:
208,128,10034,2,0,L|96:128,1,70,2|0,0:0|0:0,0:0:0:0:
16,128,10377,2,0,L|224:128,1,140,4|0,0:1|0:0,0:0:0:0:
400,112,11063,6,0,P|272:192|160:96,1,280,2|0,0:0|0:0,0:0:0:0:
40,128,12092,1,8,0:0:0:0:
216,128,12434,2,0,L|376:128,1,140,0|8,0:0|0:0,0:0:0:0:
512,128,13120,2,0,L|352:128,1,140,0|8,0:0|0:0,0:0:0:0:
224,164,13806,6,0,P|106:223|0:144,1,280,0|0,0:0|0:0,0:0:0:0:
112,144,14834,2,0,L|256:144,1,140,8|4,0:0|0:0,0:0:0:0:
368,144,15520,2,0,L|512:144,1,140,8|0,0:0|0:0,0:0:0:0:
352,144,16206,1,8,0:0:0:0:
272,144,16377,1,0,0:0:0:0:
192,144,16549,6,0,P|320:224|432:128,1,280,0|0,0:0|0:0,0:0:0:0:
288,144,17577,1,8,0:0:0:0:
496,144,17920,2,0,L|496:304,1,140,0|8,0:0|0:0,0:0:0:0:
272,144,18606,2,0,L|272:304,1,140,0|8,0:0|0:0,0:0:0:0:
48,144,19292,6,0,P|176:224|288:128,1,280,0|0,0:0|0:0,0:0:0:0:
160,160,20320,1,8,0:0:0:0:
320,160,20663,1,0,0:0:0:0:
208,160,21006,1,8,0:0:0:0:
96,160,21349,2,0,L|176:112,3,70,0|0|8|0,0:0|0:0|0:0|0:0,0:0:0:0:
272,128,22034,6,0,P|400:208|512:112,1,280,4|0,0:1|0:0,0:0:0:0:
304,128,23063,2,0,L|144:128,2,140,8|0|8,0:0|0:0|0:0,0:0:0:0:
96,144,24092,2,0,L|240:144,1,140,0|8,0:0|0:0,0:0:0:0:
448,160,24777,6,0,P|320:240|208:144,1,280,0|0,0:0|0:0,0:0:0:0:
400,176,25806,1,8,0:0:0:0:
176,176,26149,2,0,P|304:256|416:160,1,280,4|4,0:0|0:0,0:0:0:0:
224,128,27177,1,8,0:0:0:0:
288,128,27349,1,0,0:0:0:0:
352,128,27520,6,0,P|448:128|464:320,1,280,4|0,0:1|0:0,0:0:0:0:
288,288,28549,2,0,L|192:288,2,70,8|0|4,0:0|0:0|0:1,0:0:0:0:
80,288,29234,2,0,L|208:192,2,140,8|0|8,0:0|0:0|0:0,0:0:0:0:
240,144,30263,5,4,0:1:0:0:
384,144,30434,1,0,0:0:0:0:
272,144,30777,5,0,0:0:0:0:
128,144,30948,1,4,0:1:0:0:
240,144,31292,5,8,0:0:0:0:
384,144,31463,1,0,0:0:0:0:
272,224,31806,5,2,0:0:0:0:
220,224,31977,1,0,0:0:0:0:
181,190,32149,1,2,0:0:0:0:
173,140,32320,5,8,0:0:0:0:
201,98,32492,1,0,0:0:0:0:
240,64,32663,1,0,0:0:0:0:
292,64,32835,1,8,0:0:0:0:
336,96,33006,6,0,P|438:142|454:190,1,140,4|8,0:1|0:0,0:0:0:0:
352,160,33520,2,0,P|250:206|234:254,1,140,0|0,0:0|0:0,0:0:0:0:
416,208,34206,2,0,L|176:208,1,210,0|8,0:0|0:0,0:0:0:0:
112,208,35063,6,0,L|400:208,1,280,0|4,0:0|0:0,0:0:0:0:
256,128,36092,1,8,0:0:0:0:
144,128,36263,2,0,L|368:128,1,210,0|8,0:0|0:0,0:0:0:0:
480,128,36949,2,0,L|256:128,1,210,0|8,0:0|0:0,0:0:0:0:
48,128,37806,5,8,0:0:0:0:
160,128,37977,2,0,P|80:128|64:80,1,140,0|8,0:0|0:0,0:0:0:0:
192,80,38492,2,0,L|336:80,1,140,0|8,0:0|0:0,0:0:0:0:
480,80,39006,2,0,L|336:80,2,140,0|0|0,0:0|0:0|0:0,0:0:0:0:
384,80,39863,1,0,0:0:0:0:
192,80,40206,1,8,0:0:0:0:
384,80,40549,6,0,L|384:240,1,140,0|8,0:0|0:0,0:0:0:0:
176,160,41234,2,0,L|336:160,1,140,4|8,0:0|0:0,0:0:0:0:
432,160,41749,2,0,L|208:160,1,210,0|8,0:0|0:0,0:0:0:0:
320,240,42434,2,0,L|96:240,1,210,0|8,0:0|0:0,0:0:0:0:
160,128,43292,6,0,L|288:128,2,105,8|8|8,0:0|0:0|0:0,0:0:0:0:
304,128,43977,2,0,P|368:128|432:48,1,140,4|8,0:1|0:0,0:0:0:0:
304,48,44492,2,0,P|240:48|176:128,2,140,0|0|0,0:0|0:0|0:0,0:0:0:0:
192,48,45349,2,0,L|112:176,1,140,0|8,0:0|0:0,0:0:0:0:
352,48,46034,6,0,L|432:176,1,140,0|8,0:0|0:0,0:0:0:0:
256,160,46720,2,0,P|368:176|384:208,1,140,4|8,0:0|0:0,0:0:0:0:
464,272,47234,2,0,P|336:288|304:224,1,210,0|8,0:0|0:0,0:0:0:0:
192,272,47920,2,0,P|320:288|352:224,1,210,0|8,0:0|0:0,0:0:0:0:
224,208,48777,6,0,L|352:208,2,105,8|8|8,0:0|0:0|0:0,0:0:0:0:
96,208,49463,2,0,P|144:176|160:80,1,140,0|8,0:0|0:0,0:0:0:0:
288,112,49977,2,0,P|320:160|416:176,2,140,0|0|0,0:0|0:0|0:0,0:0:0:0:
144,176,50834,2,0,L|218:57,1,140,4|8,0:0|0:0,0:0:0:0:
448,176,51520,6,0,L|373:57,1,140,8|0,0:0|0:0,0:0:0:0:
256,160,52206,2,0,P|368:176|384:208,1,140,4|8,0:1|0:0,0:0:0:0:
464,272,52719,2,0,P|336:288|304:224,1,210,0|8,0:0|0:0,0:0:0:0:
240,224,53406,1,0,0:0:0:0:
256,192,53577,12,0,54605,0:0:0:0:
128,176,54949,6,0,P|240:160|256:144,1,140,4|8,0:1|0:0,0:0:0:0:
384,208,55634,2,0,P|272:224|256:240,1,140,0|8,0:0|0:0,0:0:0:0:
112,288,56320,6,0,P|208:336|320:304,1,210,8|0,0:3|0:0,0:0:0:0:
416,320,57006,2,0,P|464:224|400:128,1,210,0|0,0:0|0:0,0:0:0:0:
304,208,57692,6,0,P|304:275|246:309,1,140,0|8,0:0|0:0,0:0:0:0:
128,256,58377,2,0,P|64:208|80:144,1,140,0|8,0:0|0:0,0:0:0:0:
240,176,59063,6,0,P|336:224|480:128,2,280,8|2|4,0:3|0:0|0:0,0:0:0:0:
80,176,60777,1,8,0:0:0:0:
288,288,61120,6,0,B|396:288|396:288|316:224,1,210,0|0,0:0|0:0,0:0:0:0:
176,128,61806,2,0,L|176:272,1,140,0|8,0:0|0:0,0:0:0:0:
64,272,62320,1,0,0:0:0:0:
240,272,62663,1,0,0:0:0:0:
416,272,63006,1,0,0:0:0:0:
304,272,63177,6,0,P|224:192|336:176,1,280,2|0,0:0|0:0,0:0:0:0:
480,176,64206,1,8,0:0:0:0:
336,176,64549,2,0,L|160:176,1,140,4|8,0:0|0:0,0:0:0:0:
288,96,65234,2,0,L|112:96,1,140,0|8,0:0|0:0,0:0:0:0:
80,96,65749,1,0,0:0:0:0:
160,96,65920,6,0,P|192:208|176:224,1,140,4|8,0:0|0:0,0:0:0:0:
416,96,66606,2,0,P|384:208|400:224,1,140,0|8,0:0|0:0,0:0:0:0:
224,224,67292,2,0,P|124:244|32:197,1,210,8|0,0:3|0:0,0:0:0:0:
160,160,67977,2,0,P|261:139|353:186,1,210,0|0,0:0|0:0,0:0:0:0:
480,192,68663,6,0,P|448:128|464:64,1,140,4|8,0:0|0:0,0:0:0:0:
176,208,69349,2,0,P|208:144|192:80,1,140,0|8,0:0|0:0,0:0:0:0:
400,64,70034,6,0,P|291:143|166:96,2,280,0|2|4,0:0|0:0|0:0,0:0:0:0:
256,96,71749,1,8,0:0:0:0:
400,96,72092,6,0,L|256:96,1,140,0|8,0:0|0:0,0:0:0:0:
144,192,72777,2,0,L|288:192,1,140,0|8,0:0|0:0,0:0:0:0:
400,192,73292,2,0,L|256:192,2,140,2|2|2,0:0|0:0|0:0,0:0:0:0:
256,128,74320,2,0,P|320:96|256:80,2,140,2|2|0,0:0|0:0|0:0,0:0:0:0:
112,112,75521,5,4,0:0:0:0:
272,176,75864,2,0,L|96:176,1,140,8|0,0:0|0:0,0:0:0:0:
0,176,76549,2,0,L|176:176,1,140,8|4,0:0|0:1,0:0:0:0:
256,192,85120,12,4,87863,0:1:0:0:
144,128,88206,5,2,0:0:0:0:
400,128,88549,2,0,L|144:128,1,210,2|0,0:0|0:0,0:0:0:0:
64,128,89406,1,0,0:3:0:0:
0,128,89577,1,2,0:0:0:0:
272,128,89920,2,0,L|528:128,1,210,0|0,0:0|0:0,0:0:0:0:
368,128,90606,5,4,0:1:0:0:
464,128,90949,1,2,0:0:0:0:
208,128,91292,2,0,L|464:128,1,210,0|2,0:0|0:0,0:0:0:0:
272,128,92149,1,0,0:0:0:0:
192,128,92320,1,2,0:0:0:0:
32,128,92663,2,0,L|288:128,1,210,2|2,0:0|0:0,0:0:0:0:
160,192,93349,6,0,L|368:192,1,140,4|2,0:1|0:0,0:0:0:0:
480,192,94035,2,0,L|224:192,1,210,0|0,0:0|0:0,0:0:0:0:
144,192,94720,2,0,L|-64:192,1,140,4|2,0:1|0:0,0:0:0:0:
224,192,95406,2,0,L|480:192,1,210,2|2,0:0|0:0,0:0:0:0:
320,224,96092,5,4,0:1:0:0:
241,207,96263,1,0,0:0:0:0:
192,144,96434,1,0,0:0:0:0:
196,64,96606,1,0,0:0:0:0:
251,6,96777,1,6,0:1:0:0:
330,0,96949,1,0,0:0:0:0:
396,43,97120,1,0,0:0:0:0:
432,112,97292,1,2,0:0:0:0:
256,192,97463,12,4,98663,0:1:0:0:
256,192,98834,12,0,100206,0:0:0:0:
112,176,100720,5,0,0:0:0:0:
224,176,100892,2,0,L|480:176,1,210,0|0,0:0|0:0,0:0:0:0:
320,288,101577,2,0,P|422:242|438:194,1,140,4|8,0:1|0:0,0:0:0:0:
304,208,102091,2,0,P|202:254|186:302,1,140,0|0,0:0|0:0,0:0:0:0:
16,288,102777,2,0,L|256:288,1,210,0|8,0:0|0:0,0:0:0:0:
112,208,103634,6,0,L|400:208,1,280,0|0,0:0|0:0,0:0:0:0:
256,128,104663,1,8,0:0:0:0:
368,128,104834,2,0,L|144:128,1,210,0|8,0:0|0:0,0:0:0:0:
32,128,105520,2,0,L|256:128,1,210,0|8,0:0|0:0,0:0:0:0:
144,240,106377,5,8,0:0:0:0:
256,240,106548,2,0,P|176:240|160:192,1,140,0|8,0:0|0:0,0:0:0:0:
80,80,107063,2,0,L|224:80,1,140,0|8,0:0|0:0,0:0:0:0:
320,80,107577,2,0,L|460:80,2,140,0|0|0,0:0|0:0|0:0,0:0:0:0:
448,80,108434,1,0,0:0:0:0:
208,80,108777,1,8,0:0:0:0:
16,64,109120,6,0,L|16:224,1,140,0|8,0:0|0:0,0:0:0:0:
224,160,109805,2,0,L|84:160,1,140,0|8,0:0|0:0,0:0:0:0:
222,160,110320,2,0,L|432:160,1,210,0|8,0:0|0:0,0:0:0:0:
320,240,111005,2,0,L|96:240,1,210,0|8,0:0|0:0,0:0:0:0:
160,160,111863,6,0,L|80:64,2,105,8|8|8,0:0|0:0|0:0,0:0:0:0:
304,160,112548,2,0,P|368:160|432:80,1,140,4|8,0:1|0:0,0:0:0:0:
288,160,113063,2,0,P|224:160|160:240,2,140,0|0|0,0:0|0:0|0:0,0:0:0:0:
160,304,113920,2,0,L|234:185,1,140,0|8,0:0|0:0,0:0:0:0:
432,304,114605,6,0,L|357:185,1,140,0|8,0:0|0:0,0:0:0:0:
160,160,115291,2,0,P|272:176|288:208,1,140,4|8,0:0|0:0,0:0:0:0:
176,224,115805,2,0,P|242:297|335:263,1,210,0|8,0:0|0:0,0:0:0:0:
208,224,116491,2,0,P|80:240|48:176,1,210,0|8,0:0|0:0,0:0:0:0:
224,208,117348,6,0,L|352:208,2,105,8|8|8,0:0|0:0|0:0,0:0:0:0:
96,208,118034,2,0,P|144:176|160:80,1,140,4|8,0:0|0:0,0:0:0:0:
288,112,118548,2,0,P|320:160|416:176,2,140,0|0|0,0:0|0:0|0:0,0:0:0:0:
218,57,119405,2,0,L|144:176,1,140,0|8,0:0|0:0,0:0:0:0:
373,57,120091,6,0,L|448:176,1,140,8|0,0:0|0:0,0:0:0:0:
400,176,120777,2,0,P|288:192|272:224,1,140,4|8,0:1|0:0,0:0:0:0:
160,288,121290,2,0,P|288:304|320:240,1,210,0|8,0:0|0:0,0:0:0:0:
224,240,121977,1,0,0:0:0:0:
256,192,122148,12,8,123176,0:0:0:0:
384,176,123520,6,0,P|272:160|256:144,1,140,4|8,0:1|0:0,0:0:0:0:
80,176,124205,2,0,P|138:139|207:145,1,140,0|8,0:0|0:0,0:0:0:0:
160,288,124891,6,0,P|272:320|368:304,1,210,8|0,0:3|0:0,0:0:0:0:
448,304,125577,2,0,P|496:208|432:112,1,210,0|0,0:0|0:0,0:0:0:0:
336,240,126263,6,0,P|278:205|278:139,1,140,0|8,0:0|0:0,0:0:0:0:
32,240,126948,2,0,P|89:206|89:139,1,140,0|8,0:0|0:0,0:0:0:0:
272,144,127634,6,0,P|368:192|512:96,2,280,8|2|4,0:3|0:0|0:0,0:0:0:0:
416,144,129348,1,8,0:0:0:0:
240,144,129691,6,0,B|160:208|160:208|268:208,1,210,0|0,0:0|0:0,0:0:0:0:
432,160,130377,2,0,L|432:304,1,140,0|8,0:0|0:0,0:0:0:0:
320,304,130891,1,0,0:0:0:0:
144,304,131234,1,0,0:0:0:0:
416,304,131577,1,0,0:0:0:0:
464,304,131748,6,0,P|544:224|432:208,1,280,4|0,0:0|0:0,0:0:0:0:
320,208,132777,1,8,0:0:0:0:
160,208,133120,2,0,L|300:208,1,140,4|8,0:0|0:0,0:0:0:0:
448,208,133805,2,0,L|272:208,1,140,0|8,0:0|0:0,0:0:0:0:
176,192,134320,1,0,0:0:0:0:
32,192,134491,6,0,P|0:304|16:320,1,140,4|8,0:1|0:0,0:0:0:0:
320,304,135177,2,0,P|335:238|291:187,1,140,0|8,0:0|0:0,0:0:0:0:
128,224,135863,2,0,P|228:244|320:197,1,210,8|0,0:3|0:0,0:0:0:0:
208,144,136548,2,0,P|309:123|401:170,1,210,0|0,0:0|0:0,0:0:0:0:
480,192,137234,6,0,P|448:128|464:64,1,140,4|8,0:0|0:0,0:0:0:0:
176,208,137920,2,0,P|208:144|192:80,1,140,0|8,0:0|0:0,0:0:0:0:
16,80,138605,6,0,P|125:159|250:112,2,280,0|2|4,0:0|0:0|0:1,0:0:0:0:
176,80,140320,1,8,0:0:0:0:
336,80,140663,6,0,L|192:80,1,140,0|8,0:0|0:0,0:0:0:0:
32,112,141348,2,0,L|172:112,1,140,4|8,0:0|0:0,0:0:0:0:
336,128,141863,2,0,L|476:128,2,140,2|2|2,0:0|0:0|0:0,0:0:0:0:
176,128,142891,2,0,P|112:96|176:80,2,140,2|2|2,0:0|0:0|0:0,0:0:0:0:
320,112,144092,5,4,0:0:0:0:
160,176,144435,2,0,L|336:176,1,140,8|0,0:0|0:0,0:0:0:0:
512,176,145120,2,0,L|336:176,1,140,8|0,0:0|0:0,0:0:0:0:
256,192,145634,12,0,148034,0:0:0:0:
