osu file format v12

[General]
AudioFilename: ginkiha - EOS.mp3
AudioLeadIn: 0
PreviewTime: 54940
Countdown: 0
SampleSet: Soft
StackLeniency: 0.7
Mode: 0
LetterboxInBreaks: 1
EpilepsyWarning: 1
WidescreenStoryboard: 1

[Editor]
Bookmarks: 11054,32997,54940,76883,87854,98825,101568,123511,145454
DistanceSpacing: 1.5
BeatDivisor: 4
GridSize: 4

[Metadata]
Title:EOS
TitleUnicode:EOS
Artist:ginkiha
ArtistUnicode:ginkiha
Creator:11t
Version:Another
Source:BMS
Tags:
BeatmapID:318562
BeatmapSetID:125079

[Difficulty]
HPDrainRate:6
CircleSize:4
OverallDifficulty:7
ApproachRate:9
SliderMultiplier:1.7
SliderTickRate:1

[Events]
//Background and Video events
0,0,"bg.jpg",0,0
//Break Periods
2,79625,86483
//Storyboard Layer 0 (Background)
//Storyboard Layer 1 (Fail)
//Storyboard Layer 2 (Pass)
//Storyboard Layer 3 (Foreground)
//Storyboard Sound Samples
//Background Colour Transformations
3,100,163,162,255

[TimingPoints]
83,342.857142857143,4,2,1,60,1,0
5568,-100,4,2,3,80,0,0
5654,-100,4,2,1,60,0,0
8311,-100,4,2,2,60,0,0
8825,-100,4,2,2,60,0,0
9340,-100,4,2,2,60,0,0
9425,-100,4,2,1,60,0,0
10368,-100,4,2,2,60,0,0
11397,-100,4,2,2,60,0,0
11483,-100,4,2,1,60,0,0
22025,-100,4,2,2,60,0,0
22111,-100,4,2,1,60,0,0
30254,-100,4,2,2,80,0,0
30340,-100,4,2,1,80,0,0
30940,-100,4,2,2,80,0,0
31025,-100,4,2,1,80,0,0
31625,-100,4,2,2,80,0,0
31711,-100,4,2,1,80,0,0
32311,-100,4,2,2,80,0,0
32397,-100,4,2,1,70,0,0
32568,-100,4,2,2,80,0,0
32654,-100,4,2,1,70,0,0
32825,-100,4,2,2,80,0,0
32911,-100,4,2,1,70,0,0
32997,-71.4285714285714,4,2,2,80,0,0
33083,-100,4,2,1,80,0,0
43968,-100,4,2,2,80,0,0
44054,-100,4,2,1,80,0,0
52197,-100,4,2,2,80,0,0
52283,-100,4,2,1,80,0,0
53911,-76.9230769230769,4,2,1,80,0,0
54254,-62.5,4,2,2,80,0,0
54340,-62.5,4,2,1,80,0,0
54425,-62.5,4,2,1,85,0,0
54597,-62.5,4,2,1,90,0,0
54768,-62.5,4,2,1,95,0,0
54940,-62.5,4,2,2,90,0,1
55025,-83.3333333333333,4,2,1,90,0,1
55454,-83.3333333333333,4,3,1,90,0,1
55625,-83.3333333333333,4,2,1,90,0,1
56311,-83.3333333333333,4,3,1,90,0,1
56997,-83.3333333333333,4,2,1,90,0,1
64197,-83.3333333333333,4,3,1,90,0,1
64540,-83.3333333333333,4,2,1,90,0,1
64711,-62.5,4,3,2,90,0,1
64797,-83.3333333333333,4,2,1,90,0,1
67283,-83.3333333333333,4,3,1,90,0,1
67968,-83.3333333333333,4,2,1,90,0,1
69854,-83.3333333333333,4,3,1,90,0,1
70368,-83.3333333333333,4,2,1,90,0,1
75683,-62.5,4,3,2,90,0,1
75768,-83.3333333333333,4,2,1,90,0,1
76797,-83.3333333333333,4,2,1,90,0,0
76883,-100,4,2,2,90,0,1
76968,-100,4,2,1,90,0,0
88368,-100,4,3,1,90,0,0
88797,-100,4,2,1,90,0,0
90425,-83.3333333333333,4,2,1,90,0,0
90597,-100,4,2,2,90,0,0
90683,-100,4,2,1,90,0,0
93340,-100,4,2,2,90,0,0
93425,-100,4,2,1,90,0,0
94711,-100,4,2,2,90,0,0
94797,-100,4,2,1,90,0,0
96083,-100,4,2,2,90,0,0
96168,-100,4,2,1,90,0,0
96768,-100,4,2,2,90,0,0
96854,-100,4,2,1,90,0,0
97454,-100,4,2,2,90,0,0
97540,-100,4,2,1,90,0,0
98825,-100,4,2,1,5,0,0
100883,-400,4,2,1,90,0,0
101568,-100,4,2,2,90,0,1
101654,-100,4,2,1,80,0,0
112540,-100,4,2,2,80,0,0
112625,-100,4,2,1,80,0,0
120768,-100,4,2,2,80,0,0
120854,-100,4,2,1,80,0,0
122140,-100,4,2,2,80,0,0
122225,-100,4,2,1,80,0,0
122483,-76.9230769230769,4,2,1,80,0,0
122825,-76.9230769230769,4,2,2,80,0,0
122911,-76.9230769230769,4,2,1,80,0,0
122997,-76.9230769230769,4,2,1,85,0,0
123168,-76.9230769230769,4,2,1,90,0,0
123340,-76.9230769230769,4,2,1,95,0,0
123511,-62.5,4,2,2,90,0,1
123597,-83.3333333333333,4,2,1,90,0,1
124025,-83.3333333333333,4,3,1,90,0,1
124197,-83.3333333333333,4,2,1,90,0,1
133283,-62.5,4,3,2,90,0,1
133368,-83.3333333333333,4,2,1,90,0,1
144254,-62.5,4,3,2,90,0,1
144340,-83.3333333333333,4,2,1,90,0,1
145368,-83.3333333333333,4,2,1,90,0,0
145454,-83.3333333333333,4,2,1,90,0,1
145540,-83.3333333333333,4,2,3,90,0,0

[Colours]
Combo1 : 100,150,220
Combo2 : 200,200,200

[HitObjects]
52,128,83,2,0,P|96:124|152:164,1,85,2|0,0:0|0:0,0:0:0:0:
80,208,425,1,0,0:0:0:0:
144,56,597,2,0,P|202:89|197:194,1,170,2|0,0:0|0:0,0:0:0:0:
136,268,1111,2,0,P|180:260|220:276,1,85,2|0,0:0|0:0,0:0:0:0:
218,273,1625,5,0,0:0:0:0:
340,316,1797,2,0,P|316:294|300:244,1,85
384,104,2140,1,0,0:0:0:0:
380,244,2311,1,0,0:0:0:0:
464,216,2483,1,8,0:0:0:0:
324,168,2654,1,0,0:0:0:0:
472,124,2825,6,0,P|468:72|444:36,1,85,2|0,0:0|0:0,0:0:0:0:
324,168,3168,1,0,0:0:0:0:
384,104,3340,2,0,P|296:85|240:152,1,170,2|0,0:0|0:0,0:0:0:0:
108,224,3854,2,0,P|156:220|212:184,1,85,2|0,0:0|0:0,0:0:0:0:
188,204,4368,5,0,0:0:0:0:
108,80,4540,1,0,0:0:0:0:
204,112,4711,1,0,0:0:0:0:
40,152,4883,1,0,0:0:0:0:
180,120,5054,1,0,0:0:0:0:
304,228,5225,1,8,0:0:0:0:
284,140,5397,1,0,0:0:0:0:
256,300,5568,6,0,P|304:316|360:296,1,85
172,280,5911,1,0,0:0:0:0:
400,256,6083,2,0,P|416:294|412:336,1,85,2|0,0:0|0:0,0:0:0:0:
256,300,6425,1,0,0:0:0:0:
376,176,6597,2,0,P|418:174|456:192,1,85,2|0,0:0|0:0,0:0:0:0:
304,228,6940,5,0,0:0:0:0:
400,256,7111,1,0,0:0:0:0:
372,96,7283,1,0,0:0:0:0:
224,200,7454,1,0,0:0:0:0:
376,176,7625,1,0,0:0:0:0:
288,56,7797,1,0,0:0:0:0:
304,228,7968,1,8,3:2:0:0:
306,186,8053,1,0,3:0:0:0:
289,147,8139,1,0,3:0:0:0:
255,122,8225,1,0,3:0:0:0:
214,116,8310,5,2,0:0:0:0:
376,176,8483,1,0,0:0:0:0:
240,284,8654,1,0,0:0:0:0:
224,200,8825,5,4,0:0:0:0:
324,312,8997,1,0,0:0:0:0:
172,344,9168,1,0,0:0:0:0:
240,284,9340,5,2,0:0:0:0:
84,340,9511,1,0,0:0:0:0:
148,268,9683,1,4,0:0:0:0:
64,104,9854,1,4,0:0:0:0:
148,152,10025,1,4,0:0:0:0:
152,56,10197,1,4,0:0:0:0:
52,200,10368,1,4,0:0:0:0:
152,56,10540,1,0,3:2:0:0:
175,79,10625,1,0,3:0:0:0:
206,93,10711,1,2,3:2:0:0:
240,96,10797,1,0,3:0:0:0:
272,84,10882,1,0,3:0:0:0:
297,62,10968,1,0,3:0:0:0:
313,32,11054,6,0,L|476:100,1,170,0|12,0:0|0:0,0:0:0:0:
420,236,11568,2,0,P|400:193|404:152,1,85,2|0,0:0|0:0,0:0:0:0:
470,97,11911,1,0,0:0:0:0:
496,276,12083,2,0,P|436:320|340:272,1,170,10|0,0:0|0:0,0:0:0:0:
185,263,12597,2,0,P|226:256|267:267,1,85,2|8,0:0|0:0,0:0:0:0:
224,340,12940,1,0,0:0:0:0:
108,236,13111,1,2,0:0:0:0:
200,84,13283,1,2,0:0:0:0:
192,168,13454,1,10,0:0:0:0:
272,136,13625,1,2,0:0:0:0:
120,124,13797,6,0,B|76:128|76:128|20:124,2,85,2|0|8,0:0|0:0|0:0,0:0:0:0:
192,168,14311,2,0,P|249:220|346:180,1,170,2|0,0:0|0:0,0:0:0:0:
418,161,14825,2,0,P|344:184|330:288,1,170,10|0,0:0|0:0,0:0:0:0:
472,300,15340,2,0,L|396:236,1,85,2|8,0:0|0:0,0:0:0:0:
240,244,15683,1,0,0:0:0:0:
268,328,15854,2,0,P|300:308|324:256,1,85,2|0,0:0|0:0,0:0:0:0:
320,60,16197,1,14,0:0:0:0:
312,84,16368,1,6,0:0:0:0:
304,108,16540,6,0,L|220:120,1,85,6|0,0:0|0:0,0:0:0:0:
76,104,16883,1,8,0:0:0:0:
48,232,17054,2,0,L|20:328,1,85,2|0,0:0|0:0,0:0:0:0:
88,68,17397,1,0,0:0:0:0:
76,200,17568,2,0,L|3:269,1,85,10|0,0:0|0:0,0:0:0:0:
100,28,17911,1,0,0:0:0:0:
108,172,18083,2,0,L|10:195,1,85,2|8,0:0|0:0,0:0:0:0:
204,124,18425,1,0,0:0:0:0:
216,208,18597,2,0,P|260:192|284:148,1,85,2|0,0:0|0:0,0:0:0:0:
312,40,18940,2,0,P|326:85|368:124,1,85,10|0,0:0|0:0,0:0:0:0:
496,176,19283,6,0,P|454:200|423:250,1,85,2|0,0:0|0:0,0:0:0:0:
416,320,19625,1,10,0:0:0:0:
260,284,19797,1,2,0:0:0:0:
328,348,19968,1,2,0:0:0:0:
364,176,20140,1,2,0:0:0:0:
280,200,20311,1,10,0:0:0:0:
432,228,20483,1,2,0:0:0:0:
260,196,20654,5,2,0:0:0:0:
380,40,20825,1,2,0:0:0:0:
288,92,20997,1,10,0:0:0:0:
184,60,21168,1,2,0:0:0:0:
127,219,21340,5,4,0:0:0:0:
132,224,21511,1,4,0:0:0:0:
138,230,21683,1,12,0:0:0:0:
143,235,21854,1,4,0:0:0:0:
148,240,22025,6,0,L|128:332,1,85,4|0,0:0|0:0,0:0:0:0:
112,136,22368,1,0,0:0:0:0:
235,259,22540,2,0,P|278:264|319:256,1,85,2|0,0:0|0:0,0:0:0:0:
148,240,22883,1,0,0:0:0:0:
376,324,23054,2,0,P|408:260|350:174,1,170,2|0,0:0|0:0,0:0:0:0:
280,60,23568,2,0,P|320:92|360:100,2,85
204,20,24083,1,2,0:0:0:0:
120,24,24254,1,2,0:0:0:0:
52,76,24425,1,2,0:0:0:0:
28,160,24597,1,2,0:0:0:0:
40,244,24768,6,0,B|88:256|88:256|124:204|196:224,1,170,2|0,0:0|0:0,0:0:0:0:
156,300,25283,2,0,P|204:312|252:280,1,85,2|0,0:0|0:0,0:0:0:0:
220,144,25625,1,0,0:0:0:0:
196,224,25797,2,0,P|255:221|297:121,1,170,2|0,0:0|0:0,0:0:0:0:
280,8,26311,1,2,0:0:0:0:
424,100,26483,1,2,0:0:0:0:
348,60,26654,1,2,0:0:0:0:
400,181,26825,2,0,P|448:180|484:160,1,85,2|0,0:0|0:0,0:0:0:0:
312,264,27168,1,0,0:0:0:0:
312,264,27340,1,0,0:0:0:0:
312,264,27511,6,0,L|284:360,1,85,2|0,0:0|0:0,0:0:0:0:
188,284,27854,1,0,0:0:0:0:
224,164,28025,2,0,P|211:129|216:56,1,85,2|0,0:0|0:0,0:0:0:0:
308,112,28368,1,0,0:0:0:0:
116,140,28540,1,0,0:0:0:0:
116,140,28711,1,0,0:0:0:0:
116,140,28883,6,0,P|66:140|28:124,2,85,2|0|0,0:0|0:0|0:0,0:0:0:0:
224,164,29397,1,2,0:0:0:0:
68,224,29568,1,2,0:0:0:0:
100,52,29740,1,2,0:0:0:0:
204,240,29911,1,0,0:0:0:0:
204,240,30083,1,0,0:0:0:0:
204,240,30254,5,4,0:0:0:0:
252,312,30425,2,0,P|281:280|284:212,1,85,2|8,0:0|0:0,0:0:0:0:
204,240,30768,1,2,0:0:0:0:
334,171,30939,2,0,P|293:160|252:168,1,85,2|0,0:0|0:0,0:0:0:0:
204,240,31283,1,10,0:0:0:0:
408,208,31454,2,0,P|413:161|385:104,1,85,2|2,0:0|0:0,0:0:0:0:
204,240,31797,1,10,0:0:0:0:
376,284,31968,2,0,P|421:287|476:254,1,85,10|0,0:0|0:0,0:0:0:0:
376,59,32311,5,12,0:0:0:0:
335,70,32397,1,8,0:0:0:0:
294,59,32483,1,8,0:0:0:0:
261,32,32568,5,12,0:0:0:0:
240,69,32654,1,8,0:0:0:0:
219,106,32740,1,8,0:0:0:0:
196,141,32825,5,12,0:0:0:0:
156,125,32911,1,8,0:0:0:0:
116,108,32997,6,0,B|127:133|127:133|111:205|111:205|135:241,2,118.999996368408,2|0|8,0:0|0:0|0:0,0:0:0:0:
74,282,33511,2,0,P|112:297|170:281,1,85,2|0,0:0|0:0,0:0:0:0:
334,233,33854,2,0,L|244:223,1,85,2|8,0:0|0:0,0:0:0:0:
155,290,34197,2,0,L|329:310,1,170,2|0,0:0|0:0,0:0:0:0:
412,200,34711,1,8,0:0:0:0:
480,248,34883,1,0,0:0:0:0:
334,234,35054,1,2,0:0:0:0:
420,120,35225,2,0,P|463:139|490:186,1,85,2|8,0:0|0:0,0:0:0:0:
412,200,35568,1,0,0:0:0:0:
339,151,35740,6,0,P|336:109|351:70,1,85,2|0,0:0|0:0,0:0:0:0:
392,0,36083,1,10,0:0:0:0:
216,139,36254,2,0,P|298:134|350:71,1,170,2|0,0:0|0:0,0:0:0:0:
236,232,36768,1,10,0:0:0:0:
333,234,36940,2,0,P|295:160|216:140,1,170,2|0,0:0|0:0,0:0:0:0:
178,290,37454,2,0,P|218:263|237:223,1,85,8|0,0:0|0:0,0:0:0:0:
32,140,37797,2,0,P|84:148|120:172,1,85,2|0,0:0|0:0,0:0:0:0:
132,128,38054,2,0,P|176:140|260:100,1,127.5,2|0,0:0|0:0,0:0:0:0:
352,288,38483,6,0,L|380:200,1,85,2|0,0:0|0:0,0:0:0:0:
236,232,38825,1,10,0:0:0:0:
440,264,38997,2,0,L|468:176,1,85,2|0,0:0|0:0,0:0:0:0:
280,220,39340,2,0,L|252:308,1,85,2|8,0:0|0:0,0:0:0:0:
424,184,39683,2,0,L|476:20,1,170,2|0,0:0|0:0,0:0:0:0:
364,68,40197,2,0,P|334:98|280:112,1,85,8|0,0:0|0:0,0:0:0:0:
144,84,40540,1,2,0:0:0:0:
164,200,40711,2,0,P|194:168|210:128,1,85,2|8,0:0|0:0,0:0:0:0:
88,232,41054,1,0,0:0:0:0:
277,253,41225,6,0,P|265:153|173:141,1,170,2|10,0:0|0:0,0:0:0:0:
195,278,41740,2,0,P|251:336|348:302,1,170,2|0,0:0|0:0,0:0:0:0:
360,164,42254,1,10,0:0:0:0:
294,114,42425,2,0,P|284:194|347:245,1,170,2|0,0:0|0:0,0:0:0:0:
376,80,42940,1,8,0:0:0:0:
200,152,43111,1,0,0:0:0:0:
188,344,43283,2,0,P|168:308|104:288,1,85,2|0,0:0|0:0,0:0:0:0:
88,292,43540,2,0,P|116:256|120:204,1,85,2|0,0:0|0:0,0:0:0:0:
116,176,43797,1,10,0:0:0:0:
72,36,43968,6,0,P|104:64|152:76,1,85,2|0,0:0|0:0,0:0:0:0:
332,8,44311,1,10,0:0:0:0:
332,8,44483,2,0,P|300:44|292:84,1,85,2|0,0:0|0:0,0:0:0:0:
420,152,44825,2,0,P|400:104|356:68,1,85,2|8,0:0|0:0,0:0:0:0:
206,57,45168,2,0,B|196:122|249:154|249:154|224:168|212:200,1,170,2|0,0:0|0:0,0:0:0:0:
236,304,45683,2,0,L|332:276,1,85,8|0,0:0|0:0,0:0:0:0:
160,328,46025,1,2,0:0:0:0:
368,336,46197,2,0,P|394:260|328:204,1,170,2|0,0:0|0:0,0:0:0:0:
208,192,46711,6,0,P|252:180|288:140,1,85,2|0,0:0|0:0,0:0:0:0:
312,40,47054,1,10,0:0:0:0:
312,40,47225,2,0,P|216:68|144:36,1,170,2|0,0:0|0:0,0:0:0:0:
68,180,47740,1,10,0:0:0:0:
142,155,47911,2,0,P|96:104|-5:155,1,170,2|0,0:0|0:0,0:0:0:0:
59,264,48425,2,0,L|71:164,1,85,8|0,0:0|0:0,0:0:0:0:
88,44,48768,2,0,P|117:79|128:120,1,85,2|0,0:0|0:0,0:0:0:0:
142,155,49025,2,0,B|232:136|232:136|282:151,1,127.5,2|0,0:0|0:0,0:0:0:0:
272,252,49454,6,0,P|308:244|356:196,1,85,2|0,0:0|0:0,0:0:0:0:
448,80,49797,1,10,0:0:0:0:
345,214,49968,2,0,L|352:298,1,85,2|0,0:0|0:0,0:0:0:0:
456,164,50311,2,0,L|448:79,1,85,2|8,0:0|0:0,0:0:0:0:
258,82,50654,2,0,L|272:251,1,170,2|0,0:0|0:0,0:0:0:0:
280,352,51168,2,0,P|238:344|202:322,1,85,8|0,0:0|0:0,0:0:0:0:
132,160,51511,1,2,0:0:0:0:
108,260,51683,2,0,P|92:304|44:332,1,85,2|8,0:0|0:0,0:0:0:0:
132,160,52025,1,0,0:0:0:0:
304,144,52197,6,0,P|255:155|192:156,1,85,4|0,0:0|0:0,0:0:0:0:
76,76,52540,1,10,0:0:0:0:
76,76,52711,2,0,P|116:80|176:80,1,85,2|0,0:0|0:0,0:0:0:0:
376,96,53054,1,0,0:0:0:0:
348,224,53225,1,10,0:0:0:0:
384,64,53397,1,10,0:0:0:0:
340,252,53568,6,0,L|297:252,1,42.5,12|0,0:0|0:0,0:0:0:0:
192,316,53740,2,0,L|234:316,1,42.5,8|0,0:0|0:0,0:0:0:0:
136,148,53911,2,0,L|224:148,1,55.2499974708558,8|0,0:0|0:0,0:0:0:0:
372,224,54083,2,0,L|304:224,1,55.2499974708558,8|0,0:0|0:0,0:0:0:0:
324,64,54254,6,0,L|248:64,1,68,12|8,0:0|0:0,0:0:0:0:
256,104,54425,1,8,0:0:0:0:
256,144,54511,1,8,0:0:0:0:
256,184,54597,1,8,0:0:0:0:
256,224,54683,1,8,0:0:0:0:
256,264,54768,1,0,0:0:0:0:
256,304,54854,1,8,0:0:0:0:
256,344,54940,6,0,B|280:372|328:376|360:352|360:352|376:372,1,136,6|0,0:0|0:0,0:0:0:0:
88,280,55283,1,8,0:0:0:0:
160,324,55454,1,0,0:0:0:0:
168,316,55540,1,0,0:0:0:0:
176,308,55625,2,0,P|180:260|124:192,1,101.999996887207,2|0,0:0|0:0,0:0:0:0:
80,104,55968,1,8,0:0:0:0:
256,164,56140,1,0,0:0:0:0:
156,212,56311,5,2,0:2:0:0:
172,236,56397,1,0,0:0:0:0:
200,224,56483,1,0,0:0:0:0:
216,248,56568,1,0,0:0:0:0:
244,236,56654,1,8,0:2:0:0:
260,260,56740,1,0,0:0:0:0:
288,248,56825,1,0,0:0:0:0:
312,268,56911,1,0,0:0:0:0:
340,256,56997,2,0,P|388:280|456:264,1,101.999996887207,2|0,0:0|0:0,0:0:0:0:
420,112,57340,1,8,0:0:0:0:
256,164,57511,1,0,0:0:0:0:
400,200,57683,5,2,0:0:0:0:
272,80,57854,1,0,0:0:0:0:
360,24,58025,2,0,L|336:124,1,101.999996887207,10|0,0:0|0:0,0:0:0:0:
204,232,58368,2,0,L|152:196,1,50.9999984436036,2|0,0:0|0:0,0:0:0:0:
61,197,58540,2,0,L|96:160,1,50.9999984436036,2|0,0:0|0:0,0:0:0:0:
144,100,58711,1,10,0:0:0:0:
400,200,58883,5,0,0:0:0:0:
388,216,58968,1,0,0:0:0:0:
378,230,59054,2,0,L|328:223,1,50.9999984436036,6|0,0:0|0:0,0:0:0:0:
287,288,59225,2,0,L|236:294,1,50.9999984436036,2|0,0:0|0:0,0:0:0:0:
192,358,59397,2,0,L|91:340,1,101.999996887207,10|0,0:0|0:0,0:0:0:0:
84,310,59654,1,0,0:0:0:0:
76,280,59740,2,0,B|80:260|80:260|40:212|40:212|36:164,1,101.999996887207,2|0,0:0|0:0,0:0:0:0:
107,77,60083,2,0,P|101:129|127:191,1,101.999996887207,10|0,0:0|0:0,0:0:0:0:
452,68,60425,6,0,P|408:76|348:76,1,101.999996887207,2|0,0:0|0:0,0:0:0:0:
116,176,60768,2,0,P|168:176|240:168,1,101.999996887207,10|0,0:0|0:0,0:0:0:0:
388,280,61111,2,0,P|336:288|268:288,1,101.999996887207,2|0,0:0|0:0,0:0:0:0:
300,156,61454,1,10,0:0:0:0:
176,288,61625,1,2,0:0:0:0:
300,156,61797,2,0,L|360:152,1,50.9999984436036,2|0,0:0|0:0,0:0:0:0:
336,72,61968,2,0,L|396:76,1,50.9999984436036,2|0,0:0|0:0,0:0:0:0:
176,136,62140,2,0,L|240:108,1,50.9999984436036,10|0,0:0|0:0,0:0:0:0:
241,34,62311,2,0,L|373:86,1,101.999996887207,2|0,0:0|0:0,0:0:0:0:
288,244,62654,1,2,0:0:0:0:
440,132,62825,1,10,0:0:0:0:
464,320,62997,1,2,0:0:0:0:
400,236,63168,5,2,0:0:0:0:
368,316,63340,1,2,0:0:0:0:
192,264,63511,1,10,0:0:0:0:
248,332,63683,1,2,0:0:0:0:
348,112,63854,1,2,0:0:0:0:
288,244,64025,1,2,0:0:0:0:
192,132,64197,1,8,0:2:0:0:
197,132,64283,1,0,0:0:0:0:
202,132,64368,1,0,0:0:0:0:
207,132,64454,1,0,0:0:0:0:
212,132,64540,2,0,L|248:172,1,50.9999984436036,2|0,0:0|0:0,0:0:0:0:
188,52,64711,2,0,P|140:69|116:160,1,136,4|8,0:0|0:0,0:0:0:0:
112,144,65054,6,0,P|124:196|108:260,1,101.999996887207
288,244,65397,2,0,L|296:176,1,50.9999984436036,2|0,0:0|0:0,0:0:0:0:
301,117,65568,1,8,0:0:0:0:
302,101,65654,1,0,0:0:0:0:
303,85,65740,2,0,P|343:129|395:141,1,101.999996887207,2|0,0:0|0:0,0:0:0:0:
360,360,66083,5,2,0:0:0:0:
200,304,66254,1,8,0:0:0:0:
192,292,66340,1,0,0:0:0:0:
184,280,66425,2,0,L|212:224,1,50.9999984436036,2|0,0:0|0:0,0:0:0:0:
240,164,66597,2,0,P|216:120|224:36,1,101.999996887207,2|0,0:0|0:0,0:0:0:0:
81,130,66940,1,10,0:0:0:0:
119,27,67111,1,2,0:0:0:0:
39,235,67283,5,2,0:2:0:0:
79,243,67368,1,0,0:0:0:0:
119,231,67454,1,0,0:0:0:0:
151,203,67540,1,0,0:0:0:0:
171,167,67625,1,8,0:2:0:0:
175,175,67711,1,0,0:0:0:0:
179,183,67797,1,0,0:0:0:0:
183,191,67883,1,0,0:0:0:0:
187,199,67968,2,0,B|224:264|224:264|248:228,1,101.999996887207,2|0,0:0|0:0,0:0:0:0:
324,120,68311,1,10,0:0:0:0:
364,292,68483,1,2,0:0:0:0:
364,292,68825,5,0,0:0:0:0:
360,296,68911,1,0,0:0:0:0:
356,300,68997,2,0,P|400:256|400:208,1,101.999996887207,10|0,0:0|0:0,0:0:0:0:
392,32,69340,2,0,L|416:96,1,50.9999984436036,2|0,0:0|0:0,0:0:0:0:
464,136,69511,2,0,L|500:236,1,101.999996887207,2|8,0:0|0:0,0:0:0:0:
256,188,69854,5,0,0:0:0:0:
256,188,69940,1,0,0:0:0:0:
256,188,70025,2,0,L|196:224,1,50.9999984436036,2|0,0:2|0:0,0:0:0:0:
192,288,70197,2,0,L|132:304,1,50.9999984436036,2|0,0:2|0:0,0:0:0:0:
80,344,70368,2,0,P|57:311|44:224,1,101.999996887207,10|0,0:0|0:0,0:0:0:0:
24,236,70625,1,0,0:0:0:0:
8,224,70711,2,0,B|48:240|96:224|96:224|112:200,1,101.999996887207
192,288,71054,1,8,0:0:0:0:
112,100,71225,1,0,0:0:0:0:
272,88,71397,6,0,B|296:96|296:96|368:60,1,101.999996887207,2|0,0:0|0:0,0:0:0:0:
332,172,71740,2,0,B|356:180|356:180|428:144,1,101.999996887207,10|0,0:0|0:0,0:0:0:0:
396,264,72083,2,0,B|420:272|420:272|492:236,1,101.999996887207,2|0,0:0|0:0,0:0:0:0:
284,268,72425,1,10,0:0:0:0:
208,144,72597,1,2,0:0:0:0:
192,288,72768,2,0,L|112:300,1,50.9999984436036,2|0,0:0|0:0,0:0:0:0:
32,248,72940,2,0,L|88:240,1,50.9999984436036,2|2,0:0|0:0,0:0:0:0:
116,160,73111,2,0,L|40:168,1,50.9999984436036,10|0,0:0|0:0,0:0:0:0:
128,84,73283,2,0,P|208:100|300:64,1,152.999995330811,2|0,0:0|0:0,0:0:0:0:
328,24,73625,2,0,P|274:85|259:182,1,152.999995330811,2|0,0:0|0:0,0:0:0:0:
280,228,73968,2,0,P|253:150|176:89,1,152.999995330811,2|0,0:0|0:0,0:0:0:0:
128,84,74311,6,0,P|180:100|260:72,1,101.999996887207,2|8,0:0|0:0,0:0:0:0:
328,24,74654,1,2,0:0:0:0:
280,228,74825,1,2,0:0:0:0:
304,128,74997,1,2,0:0:0:0:
256,328,75168,1,8,0:0:0:0:
256,328,75254,1,0,0:0:0:0:
256,328,75340,1,0,0:0:0:0:
256,328,75425,1,0,0:0:0:0:
256,328,75511,2,0,L|312:344,1,50.9999984436036,2|0,0:0|0:0,0:0:0:0:
206,259,75683,2,0,P|178:299|196:388,1,136,4|8,0:0|0:0,0:0:0:0:
191,383,76025,6,0,L|68:352,1,101.999996887207,2|0,0:0|0:0,0:0:0:0:
96,84,76368,2,0,L|156:88,1,50.9999984436036,2|0,0:0|0:0,0:0:0:0:
224,96,76540,2,0,L|244:40,1,50.9999984436036,10|0,0:0|0:0,0:0:0:0:
376,44,76711,2,0,L|320:44,1,50.9999984436036,2|0,0:0|0:0,0:0:0:0:
360,192,76883,1,6,0:0:0:0:
120,88,87854,5,4,0:0:0:0:
120,88,88025,2,0,P|164:92|224:64,1,85,4|8,0:0|0:0,0:0:0:0:
320,148,88368,1,0,0:0:0:0:
328,144,88454,1,0,0:0:0:0:
336,140,88540,1,0,0:0:0:0:
344,136,88625,1,0,0:0:0:0:
352,132,88711,2,0,L|324:224,1,85,2|0,0:0|0:0,0:0:0:0:
380,32,89054,1,8,0:0:0:0:
256,292,89225,5,4,0:0:0:0:
392,260,89397,1,0,3:0:0:0:
392,260,89483,1,0,3:0:0:0:
392,260,89568,1,8,0:0:0:0:
104,328,89740,2,0,L|136:224,1,85
140,204,89997,1,0,3:0:0:0:
140,204,90083,1,8,3:2:0:0:
256,292,90254,1,4,0:0:0:0:
208,136,90425,2,0,B|228:128|228:128|284:140|284:140|308:132,1,101.999996887207,0|2,0:0|0:0,0:0:0:0:
480,220,90768,5,0,0:0:0:0:
456,72,90940,1,8,0:0:0:0:
368,184,91111,1,0,3:0:0:0:
352,196,91197,1,0,3:0:0:0:
332,204,91283,1,0,3:0:0:0:
312,204,91368,1,0,3:0:0:0:
292,200,91454,2,0,L|256:292,1,85,2|0,3:0|0:0,0:0:0:0:
332,68,91797,1,8,0:0:0:0:
352,284,91968,5,4,0:0:0:0:
176,304,92140,1,0,3:0:0:0:
176,304,92225,1,0,3:0:0:0:
176,304,92311,1,8,3:2:0:0:
68,224,92483,2,0,P|100:196|116:152,1,85
116,116,92740,1,0,3:0:0:0:
116,116,92825,1,8,3:2:0:0:
304,220,92997,1,0,0:0:0:0:
308,228,93168,1,0,0:0:0:0:
312,236,93340,6,0,L|312:344,1,85,4|0,0:0|0:0,0:0:0:0:
270,149,93683,2,0,P|308:139|356:155,1,85,8|0,0:0|0:0,0:0:0:0:
351,151,94197,5,0,0:0:0:0:
164,132,94368,2,0,L|68:144,1,85,8|0,0:0|0:0,0:0:0:0:
340,256,94711,1,2,0:0:0:0:
172,256,94883,1,0,0:0:0:0:
256,132,95054,2,0,L|256:40,1,85,8|0,0:0|0:0,0:0:0:0:
256,47,95568,5,0,0:0:0:0:
172,256,95740,2,0,P|216:256|264:240,1,85,8|0,0:0|0:0,0:0:0:0:
72,252,96083,5,2,0:0:0:0:
256,352,96254,1,4,0:0:0:0:
440,252,96425,1,8,0:0:0:0:
156,288,96597,1,4,0:0:0:0:
256,132,96768,1,2,0:0:0:0:
356,288,96940,1,8,0:0:0:0:
152,168,97111,1,4,0:0:0:0:
360,168,97283,1,0,0:0:0:0:
352,156,97368,1,0,0:0:0:0:
344,144,97454,5,2,3:2:0:0:
336,132,97540,1,0,3:0:0:0:
328,120,97625,1,0,3:0:0:0:
320,108,97711,1,0,3:0:0:0:
312,96,97797,1,0,3:0:0:0:
304,84,97883,1,0,3:0:0:0:
296,72,97968,1,0,3:0:0:0:
288,60,98054,1,0,3:0:0:0:
280,48,98140,5,0,3:0:0:0:
240,32,98225,1,0,3:0:0:0:
196,36,98311,1,0,3:0:0:0:
164,64,98397,1,0,3:0:0:0:
152,104,98483,1,0,3:0:0:0:
164,144,98568,1,0,3:0:0:0:
192,176,98654,1,0,3:0:0:0:
208,216,98740,1,0,3:0:0:0:
204,256,98825,1,0,3:0:0:0:
256,192,98911,12,0,100025,0:0:0:0:
256,192,100197,6,0,P|299:198|376:172,1,85,0|0,0:0|0:0,0:0:0:0:
364,156,100454,2,0,L|408:252,1,85,0|0,0:0|0:0,0:0:0:0:
420,272,100711,1,0,0:0:0:0:
160,248,100883,6,0,B|84:248,1,74.375
156,52,101568,5,6,0:0:0:0:
156,52,101911,5,8,0:0:0:0:
256,132,102083,2,0,P|300:128|348:80,1,85,2|0,0:0|0:0,0:0:0:0:
424,32,102425,2,0,L|412:132,1,85,2|8,0:0|0:0,0:0:0:0:
303,272,102768,2,0,L|335:92,1,170,2|0,0:0|0:0,0:0:0:0:
248,328,103283,2,0,P|284:348|336:344,1,85,8|0,0:0|0:0,0:0:0:0:
156,236,103625,1,2,0:0:0:0:
150,322,103797,2,0,P|232:276|236:204,1,170,2|0,0:0|0:0,0:0:0:0:
192,84,104311,6,0,L|300:64,1,85,2|0,0:0|0:0,0:0:0:0:
112,96,104654,1,8,0:0:0:0:
272,104,104825,2,0,L|380:84,2,85,2|0|0,0:0|0:0|0:0,0:0:0:0:
112,132,105340,1,10,0:0:0:0:
211,224,105511,2,0,B|287:214|292:132|292:132|271:102,1,170,2|0,0:0|0:0,0:0:0:0:
356,88,106025,2,0,L|416:160,1,85,8|0,0:0|0:0,0:0:0:0:
492,256,106368,1,2,0:0:0:0:
492,256,106540,2,0,P|452:268|408:324,1,85,2|8,0:0|0:0,0:0:0:0:
352,376,106883,1,2,0:0:0:0:
332,260,107054,6,0,L|312:148,1,85,2|0,0:0|0:0,0:0:0:0:
348,348,107397,1,8,0:0:0:0:
397,187,107568,2,0,P|351:170|297:189,1,85,2|0,0:0|0:0,0:0:0:0:
252,252,107911,2,0,P|297:268|351:249,1,85,2|8,0:0|0:0,0:0:0:0:
448,128,108254,2,0,P|368:96|264:117,1,170,2|0,0:0|0:0,0:0:0:0:
127,89,108768,2,0,L|235:101,1,85,8|0,0:0|0:0,0:0:0:0:
48,80,109111,1,2,0:0:0:0:
206,176,109283,2,0,P|266:152|270:44,1,170,2|0,0:0|0:0,0:0:0:0:
206,176,109797,6,0,L|180:292,1,85,2|0,0:0|0:0,0:0:0:0:
168,344,110140,1,10,0:0:0:0:
247,315,110311,2,0,P|188:259|110:280,1,170,2|0,0:0|0:0,0:0:0:0:
312,384,110825,1,10,0:0:0:0:
312,384,110997,2,0,B|363:315|316:255|316:255|336:212,1,170,2|0,0:0|0:0,0:0:0:0:
372,128,111511,1,8,0:0:0:0:
380,124,111683,1,0,0:0:0:0:
388,120,111854,5,2,0:0:0:0:
124,264,112111,1,2,0:0:0:0:
388,120,112368,2,0,L|280:116,2,85,2|4|0,0:0|0:0|0:0,0:0:0:0:
208,48,112883,5,10,0:0:0:0:
32,152,113054,2,0,B|75:144|75:144|128:126,1,85,2|0,0:0|0:0,0:0:0:0:
304,116,113397,2,0,B|260:123|260:123|207:141,1,85,2|8,0:0|0:0,0:0:0:0:
154,266,113740,2,0,P|218:222|214:122,1,170,2|0,0:0|0:0,0:0:0:0:
252,244,114254,2,0,L|284:344,1,85,8|0,0:0|0:0,0:0:0:0:
376,200,114597,1,2,0:0:0:0:
496,104,114768,2,0,P|415:103|375:174,1,170,2|0,0:0|0:0,0:0:0:0:
442,254,115283,6,0,P|461:217|456:176,1,85,2|0,0:0|0:0,0:0:0:0:
336,36,115625,1,10,0:0:0:0:
308,116,115797,2,0,P|352:116|404:88,1,85,2|0,0:0|0:0,0:0:0:0:
252,52,116140,1,0,0:0:0:0:
244,192,116311,1,10,0:0:0:0:
308,116,116483,2,0,P|230:94|159:147,1,170,2|0,0:0|0:0,0:0:0:0:
216,272,116997,2,0,L|256:156,1,85,8|0,0:0|0:0,0:0:0:0:
184,360,117340,1,2,0:0:0:0:
64,220,117511,2,0,B|104:216|104:216|148:218,1,85,2|8,0:0|0:0,0:0:0:0:
24,352,117854,1,2,0:0:0:0:
184,360,118025,6,0,P|236:352|268:336,1,85,2|0,0:0|0:0,0:0:0:0:
104,364,118368,1,10,0:0:0:0:
265,338,118540,2,0,P|308:336|352:356,1,85,2|0,0:0|0:0,0:0:0:0:
372,236,118883,2,0,L|386:152,1,85,2|8,0:0|0:0,0:0:0:0:
408,24,119225,2,0,P|360:64|248:56,1,170,2|0,0:0|0:0,0:0:0:0:
192,180,119740,1,8,0:0:0:0:
320,180,119911,1,0,0:0:0:0:
256,60,120083,1,2,0:0:0:0:
256,252,120254,2,0,B|248:224|248:224|264:108|264:108|256:64,1,170,2|0,0:0|0:0,0:0:0:0:
344,84,120768,6,0,B|300:88|300:88|252:84,1,85,2|0,0:0|0:0,0:0:0:0:
116,192,121111,1,8,0:0:0:0:
168,300,121283,2,0,B|212:296|212:296|260:300,1,85
396,192,121625,1,0,0:0:0:0:
168,84,121797,1,8,0:0:0:0:
344,300,121968,1,8,0:0:0:0:
256,196,122140,5,12,0:0:0:0:
256,162,122225,1,0,0:0:0:0:
256,127,122311,1,8,0:0:0:0:
256,92,122397,1,0,0:0:0:0:
256,57,122483,6,0,P|304:40|368:64,2,110.499994941712,8|8|10,0:0|0:0|0:0,0:0:0:0:
256,92,122911,1,8,0:0:0:0:
256,127,122997,1,8,0:0:0:0:
256,162,123083,1,8,0:0:0:0:
256,196,123168,1,8,0:0:0:0:
256,230,123254,1,8,0:0:0:0:
256,264,123340,1,8,0:0:0:0:
256,297,123425,1,8,0:0:0:0:
256,331,123511,6,0,P|316:352|400:316,1,136,6|0,0:0|0:0,0:0:0:0:
156,196,123854,1,10,0:0:0:0:
80,240,124025,1,0,0:0:0:0:
80,240,124111,1,0,0:0:0:0:
80,240,124197,2,0,P|124:276|199:272,1,101.999996887207,2|0,0:0|0:0,0:0:0:0:
336,200,124540,1,8,0:0:0:0:
156,48,124711,1,0,0:0:0:0:
156,196,124883,5,2,3:2:0:0:
192,176,124968,1,0,3:0:0:0:
224,152,125054,1,0,3:0:0:0:
248,120,125140,1,0,3:0:0:0:
260,80,125225,1,8,3:2:0:0:
264,84,125311,1,0,3:0:0:0:
268,88,125397,1,0,3:0:0:0:
272,92,125483,1,0,3:0:0:0:
276,96,125568,2,0,P|320:124|384:112,1,101.999996887207,2|0,0:0|0:0,0:0:0:0:
432,252,125911,1,10,0:0:0:0:
472,104,126083,1,2,0:0:0:0:
468,264,126254,5,2,0:0:0:0:
436,92,126425,1,2,0:0:0:0:
356,336,126597,2,0,L|396:240,1,101.999996887207,10|0,0:0|0:0,0:0:0:0:
188,316,126940,2,0,L|124:320,1,50.9999984436036,2|0,0:0|0:0,0:0:0:0:
72,248,127111,2,0,L|144:244,1,50.9999984436036,2|0,0:0|0:0,0:0:0:0:
156,176,127283,1,8,0:0:0:0:
164,60,127454,5,0,3:0:0:0:
164,60,127540,1,0,3:0:0:0:
164,60,127625,2,0,L|220:36,1,50.9999984436036,2|0,0:0|0:0,3:0:0:0:
256,104,127797,2,0,L|312:128,1,50.9999984436036,2|0,0:0|0:0,3:0:0:0:
328,196,127968,2,0,L|444:172,1,101.999996887207,10|0,0:0|0:0,0:0:0:0:
424,204,128225,1,0,0:0:0:0:
420,236,128311,2,0,B|424:260|424:260|388:308|388:308|404:332,2,101.999996887207,0|0|8,0:0|0:0|0:0,0:0:0:0:
436,104,128825,1,0,0:0:0:0:
212,140,128997,6,0,P|296:160|360:68,2,203.999993774414,2|10|2,0:0|0:0|0:0,0:0:0:0:
60,64,129854,1,0,0:0:0:0:
109,150,130025,1,8,0:0:0:0:
149,6,130197,1,0,0:0:0:0:
109,150,130368,6,0,L|67:179,1,50.9999984436036,2|0,0:0|0:0,0:0:0:0:
212,140,130540,2,0,L|258:161,1,50.9999984436036,2|0,0:0|0:0,0:0:0:0:
153,57,130711,2,0,L|148:6,1,50.9999984436036,10|2,0:0|0:0,0:0:0:0:
109,150,130883,2,0,L|119:269,1,101.999996887207,2|0,0:0|0:0,0:0:0:0:
128,368,131225,1,2,0:0:0:0:
40,224,131397,1,10,0:0:0:0:
188,212,131568,1,2,0:0:0:0:
40,348,131740,5,2,0:0:0:0:
116,228,131911,1,2,0:0:0:0:
208,332,132083,1,10,0:0:0:0:
40,224,132254,1,2,0:0:0:0:
208,332,132425,2,0,B|252:328|276:296|276:296|276:252,1,101.999996887207,2|0,0:0|0:0,0:0:0:0:
280,76,132768,1,8,3:2:0:0:
280,76,132854,1,0,3:0:0:0:
280,76,132940,1,0,3:0:0:0:
280,76,133025,1,0,3:0:0:0:
280,76,133111,2,0,L|300:148,1,50.9999984436036,0|0,0:0|0:0,0:0:0:0:
320,200,133283,2,0,L|336:56,1,136,4|8,0:0|0:0,0:0:0:0:
335,64,133625,6,0,P|383:82|440:64,1,101.999996887207
436,197,133968,2,0,L|416:244,1,50.9999984436036
476,296,134140,1,8,0:0:0:0:
476,296,134225,1,0,0:0:0:0:
476,296,134311,2,0,P|432:324|364:308,1,101.999996887207
176,320,134654,5,2,0:0:0:0:
248,192,134825,1,8,3:2:0:0:
248,192,134911,1,0,3:0:0:0:
248,192,134997,2,0,L|236:124,1,50.9999984436036
208,72,135168,2,0,P|252:92|324:88,1,101.999996887207,2|0,0:0|0:0,0:0:0:0:
156,232,135511,1,8,0:0:0:0:
272,284,135683,1,0,0:0:0:0:
41,173,135854,5,2,3:2:0:0:
72,174,135940,1,0,3:0:0:0:
82,145,136025,1,0,3:0:0:0:
114,147,136111,1,0,3:0:0:0:
126,120,136197,1,8,3:2:0:0:
158,122,136283,1,0,3:0:0:0:
170,95,136368,1,0,3:0:0:0:
199,100,136454,1,0,3:0:0:0:
209,71,136540,2,0,P|264:72|312:112,1,101.999996887207,2|0,0:0|0:0,0:0:0:0:
156,232,136883,1,8,0:0:0:0:
272,284,137054,1,0,0:0:0:0:
272,284,137397,5,0,3:0:0:0:
272,284,137483,1,0,3:0:0:0:
272,284,137568,2,0,P|334:289|396:252,1,101.999996887207,10|0,0:0|0:0,0:0:0:0:
392,132,137911,2,0,L|384:182,1,50.9999984436036,2|0,0:0|0:0,0:0:0:0:
468,116,138083,2,0,L|480:12,1,101.999996887207,2|8,0:0|0:0,0:0:0:0:
176,56,138425,5,0,3:0:0:0:
176,56,138511,1,0,3:0:0:0:
176,56,138597,2,0,L|236:84,1,50.9999984436036,2|0,0:0|0:0,3:0:0:0:
316,120,138768,2,0,L|248:144,1,50.9999984436036,2|0,0:0|0:0,3:0:0:0:
176,204,138940,2,0,L|292:212,1,101.999996887207,10|0,0:0|0:0,0:0:0:0:
268,236,139197,1,0,0:0:0:0:
260,260,139283,2,0,B|280:280|280:280|344:272|344:272|372:284,1,101.999996887207
416,100,139625,2,0,L|376:196,1,101.999996887207,8|0,0:0|0:0,0:0:0:0:
136,176,139968,6,0,P|187:169|249:141,1,101.999996887207,2|0,0:0|0:0,0:0:0:0:
104,178,140311,2,0,L|-7:187,1,101.999996887207,10|0,0:0|0:0,0:0:0:0:
163,173,140654,2,0,P|189:194|203:269,1,101.999996887207,2|0,0:0|0:0,0:0:0:0:
116,328,140997,1,8,0:0:0:0:
296,176,141168,1,0,0:0:0:0:
313,289,141340,6,0,L|317:340,1,50.9999984436036,2|0,0:0|0:0,3:0:0:0:
382,257,141511,2,0,L|418:293,1,50.9999984436036,2|0,0:0|0:0,0:0:0:0:
416,188,141683,2,0,L|467:192,1,50.9999984436036,10|0,0:0|0:0,0:0:0:0:
395,113,141854,2,0,P|468:97|528:20,1,152.999995330811,2|0,0:0|0:0,0:0:0:0:
468,40,142197,2,0,L|304:28,1,152.999995330811,2|0,0:0|0:0,0:0:0:0:
264,24,142540,2,0,P|316:82|296:172,1,152.999995330811,2|0,0:0|0:0,0:0:0:0:
268,184,142883,2,0,P|352:168|440:204,1,152.999995330811,2|0,0:0|0:0,0:0:0:0:
352,316,143225,5,2,0:0:0:0:
416,188,143397,1,10,0:0:0:0:
340,336,143568,1,2,0:0:0:0:
152,288,143740,1,8,3:2:0:0:
152,288,143825,1,0,3:0:0:0:
152,288,143911,1,0,3:0:0:0:
152,288,143997,1,0,3:0:0:0:
152,288,144083,2,0,L|228:300,1,50.9999984436036
72,280,144254,2,0,P|92:236|176:212,1,136,4|8,0:0|0:0,0:0:0:0:
170,210,144597,6,0,L|288:180,1,101.999996887207
108,92,144940,2,0,L|168:108,1,50.9999984436036
216,56,145111,1,8,0:0:0:0:
216,56,145197,1,0,0:0:0:0:
216,56,145283,2,0,L|292:72,1,50.9999984436036
328,112,145454,5,2,0:0:0:0:
348,108,145540,2,0,L|416:96,1,50.9999984436036,2|0,0:0|0:0,0:0:0:0:
