osu file format v12

[General]
AudioFilename: [SDVX] EGG - EXH.mp3
AudioLeadIn: 1500
PreviewTime: 40919
Countdown: 0
SampleSet: Soft
StackLeniency: 0.7
Mode: 0
LetterboxInBreaks: 1
WidescreenStoryboard: 1

[Editor]
DistanceSpacing: 1
BeatDivisor: 2
GridSize: 4
TimelineZoom: 1

[Metadata]
Title:EGG
TitleUnicode:EGG
Artist:ginkiha
ArtistUnicode:ginkiha
Creator:Rare
Version:NOVICE
Source:SOUND VOLTEX BOOTH
Tags:NiZi RiNGO gowww
BeatmapID:296441
BeatmapSetID:113924

[Difficulty]
HPDrainRate:3
CircleSize:3
OverallDifficulty:3
ApproachRate:4
SliderMultiplier:0.799999999999999
SliderTickRate:1

[Events]
//Background and Video events
0,0,"bg.jpg",0,0
//Break Periods
2,60595,69075
//Storyboard Layer 0 (Background)
//Storyboard Layer 1 (Fail)
//Storyboard Layer 2 (Pass)
//Storyboard Layer 3 (Foreground)
//Storyboard Sound Samples
//Background Colour Transformations
3,100,163,162,255

[TimingPoints]
571,306.247447937934,4,2,1,70,1,0
41301,-100,4,2,1,70,0,1
60595,-100,4,2,1,70,0,0

[Colours]
Combo1 : 173,91,255
Combo2 : 255,128,0
Combo3 : 255,255,128
Combo4 : 242,24,57
Combo5 : 255,192,0
Combo6 : 129,252,227

[HitObjects]
56,312,571,6,0,P|120:344|236:296,1,200,2|0,0:0|0:0,0:0:0:0:
344,256,1795,2,0,L|352:176,1,79.9999999999999,2|0,0:0|0:0,0:0:0:0:
424,212,2408,2,0,L|416:292,1,79.9999999999999,2|0,0:0|0:0,0:0:0:0:
348,336,3020,6,0,P|276:366|205:333,2,160,2|2|0,0:0|0:0|0:0,0:0:0:0:
492,260,4858,2,0,P|500:220|492:176,1,79.9999999999999,2|0,0:0|0:0,0:0:0:0:
476,104,5470,6,0,P|460:76|332:68,1,160,2|0,0:0|0:0,0:0:0:0:
240,180,6695,2,0,P|163:189|108:134,1,160,2|0,0:0|0:0,0:0:0:0:
96,56,7614,1,0,0:0:0:0:
32,104,7920,6,0,L|32:232,1,120,2|0,0:0|0:0,0:0:0:0:
112,312,8839,2,0,L|112:192,1,120,2|0,0:0|0:0,0:0:0:0:
196,280,9758,2,0,L|196:360,1,79.9999999999999,2|2,0:0|0:0,0:0:0:0:
256,192,10370,12,4,11595,0:0:0:0:
352,264,12820,6,0,P|384:192|352:104,1,160,0|2,0:0|0:0,0:0:0:0:
216,52,14045,1,0,0:0:0:0:
184,348,15270,2,0,P|96:360|48:316,1,160,2|2,0:0|0:0,0:0:0:0:
16,156,16495,6,0,P|48:84|124:72,1,160,0|2,0:0|0:0,0:0:0:0:
184,124,17414,1,8,0:0:0:0:
272,260,18027,2,0,P|347:245|377:175,1,160,8|8,0:0|0:0,0:0:0:0:
364,96,18945,6,0,L|232:96,1,120,4|8,0:0|0:0,0:0:0:0:
144,32,19864,2,0,L|12:32,1,120,4|8,0:0|0:0,0:0:0:0:
108,120,20783,2,0,L|188:120,1,79.9999999999999
248,176,21395,6,0,L|328:176,1,79.9999999999999,4|8,0:0|0:0,0:0:0:0:
376,328,22314,2,0,L|456:328,2,79.9999999999999,8|0|8,0:0|0:0|0:0,0:0:0:0:
216,324,23539,2,0,P|164:352|60:320,1,160,8|8,0:0|0:0,0:0:0:0:
8,180,24764,6,0,P|64:132|152:144,1,160,8|8,0:0|0:0,0:0:0:0:
288,212,25989,1,8,0:0:0:0:
416,116,26602,2,0,P|452:184|416:252,1,160,8|8,0:0|0:0,0:0:0:0:
296,360,27827,1,8,0:0:0:0:
168,260,28439,1,0,0:0:0:0:
132,188,28745,5,0,0:0:0:0:
88,256,29052,2,0,P|52:188|88:120,1,160,8|8,0:0|0:0,0:0:0:0:
128,48,29970,2,0,P|156:76|168:116,1,79.9999999999999,0|8,0:0|0:0,0:0:0:0:
172,272,30889,1,8,0:0:0:0:
312,348,31501,6,0,P|388:360|440:296,1,160,8|8,0:0|0:0,0:0:0:0:
320,196,32726,1,8,0:0:0:0:
412,64,33339,1,8,0:0:0:0:
256,100,33951,5,8,0:0:0:0:
140,0,34564,1,8,0:0:0:0:
24,112,35176,1,8,0:0:0:0:
180,144,35789,1,8,0:0:0:0:
204,300,36401,6,0,L|204:384,2,79.9999999999999,8|0|8,0:0|0:0|0:0,0:0:0:0:
304,176,37626,2,0,L|304:92,2,79.9999999999999,8|0|8,0:0|0:0|0:0,0:0:0:0:
312,256,38545,6,0,P|368:276|432:244,2,120,4|4|4,0:0|0:0|0:0,0:0:0:0:
256,148,39923,1,4,0:0:0:0:
184,244,40383,2,0,L|100:240,1,79.9999999999999
24,232,40995,1,0,0:0:0:0:
0,156,41301,6,0,P|4:76|84:36,1,160,8|8,0:0|0:0,0:0:0:0:
164,164,42526,2,0,P|220:192|313:134,1,160,8|8,0:0|0:0,0:0:0:0:
456,200,43751,1,8,0:0:0:0:
308,260,44364,2,0,L|312:344,2,79.9999999999999,8|0|8,0:0|0:0|0:0,0:0:0:0:
176,172,45589,1,8,0:0:0:0:
244,128,45895,6,0,P|208:100|168:92,1,79.9999999999999,0|8,0:0|0:0,0:0:0:0:
16,116,46814,1,8,0:0:0:0:
4,196,47120,2,0,L|8:280,1,79.9999999999999,0|8,0:0|0:0,0:0:0:0:
156,216,48039,1,8,0:0:0:0:
92,276,48345,6,0,L|216:284,1,120,4|4,0:0|0:0,0:0:0:0:
312,352,49264,2,0,L|431:344,1,120,4|4,0:0|0:0,0:0:0:0:
500,244,50183,2,0,L|496:160,1,79.9999999999999,12|4,0:0|0:0,0:0:0:0:
488,84,50795,1,0,0:0:0:0:
420,128,51101,6,0,P|344:140|284:80,1,160,8|8,0:0|0:0,0:0:0:0:
168,196,52326,2,0,L|80:196,2,79.9999999999999,8|0|8,0:0|0:0|0:0,0:0:0:0:
248,196,53245,1,0,0:0:0:0:
332,204,53551,2,0,P|300:128|224:116,1,160,8|8,0:0|0:0,0:0:0:0:
136,244,54776,2,0,L|48:244,2,79.9999999999999,8|0|8,0:0|0:0|0:0,0:0:0:0:
252,336,56001,6,0,P|316:360|400:320,1,160,8|8,0:0|0:0,0:0:0:0:
488,192,57226,2,0,P|492:144|480:112,1,79.9999999999999,8|0,0:0|0:0,0:0:0:0:
408,80,57839,1,0,0:0:0:0:
404,160,58145,6,0,L|256:160,1,120,4|4,0:0|0:0,0:0:0:0:
356,256,59064,2,0,L|208:256,1,120,4|12,0:0|0:0,0:0:0:0:
308,352,59983,2,0,L|228:352,1,79.9999999999999,4|4,0:0|0:0,0:0:0:0:
256,192,70395,5,0,0:0:0:0:
196,244,70701,2,0,P|140:268|44:216,1,160,8|8,0:0|0:0,0:0:0:0:
96,76,71926,1,8,0:0:0:0:
160,28,72232,2,0,P|200:24|240:28,1,79.9999999999999,0|8,0:0|0:0,0:0:0:0:
304,76,72845,6,0,P|388:96|436:44,2,160
144,52,74682,1,0,0:0:0:0:
148,132,74989,1,8,0:0:0:0:
152,212,75295,6,0,L|156:292,1,79.9999999999999,0|8,0:0|0:0,0:0:0:0:
308,244,76214,1,8,0:0:0:0:
432,344,76826,2,0,L|424:252,1,79.9999999999999,8|0,0:0|0:0,0:0:0:0:
468,196,77439,1,8,0:0:0:0:
476,116,77745,6,0,P|436:80|364:84,1,120,12|12,0:0|0:0,0:0:0:0:
276,148,78664,2,0,P|228:164|160:144,1,120,12|12,0:0|0:0,0:0:0:0:
48,108,79582,2,0,L|52:192,1,79.9999999999999,12|4,0:0|0:0,0:0:0:0:
52,308,80348,6,0,P|104:332|168:320,1,120,12|2,0:0|0:0,0:0:0:0:
236,288,81114,1,2,0:0:0:0:
380,356,81726,6,0,P|432:316|412:224,1,160,4|8,0:0|0:0,0:0:0:0:
288,136,82951,2,0,P|270:61|327:10,2,160,8|8|0,0:0|0:0|0:0,0:0:0:0:
436,76,84789,1,8,0:0:0:0:
464,236,85401,2,0,P|408:268|320:228,1,160,8|0,0:0|0:0,0:0:0:0:
260,88,86626,6,0,P|190:53|120:86,1,160,8|8,0:0|0:0,0:0:0:0:
60,136,87545,2,0,L|48:56,2,79.9999999999999,0|8|0,0:0|0:0|0:0,0:0:0:0:
72,216,88464,1,8,0:0:0:0:
88,296,88770,6,0,P|132:336|224:316,1,160
376,264,89995,2,0,P|388:232|380:180,1,79.9999999999999,8|8,0:0|0:0,0:0:0:0:
448,140,90607,2,0,P|420:117|368:108,1,79.9999999999999,8|8,0:0|0:0,0:0:0:0:
308,156,91220,6,0,P|256:124|244:32,2,160
304,236,92751,2,0,L|220:236,2,79.9999999999999,8|0|8,0:0|0:0|0:0,0:0:0:0:
384,240,93670,6,0,P|404:240|448:364,2,160
344,308,95201,2,0,L|260:308,1,79.9999999999999,8|0,0:0|0:0,0:0:0:0:
200,356,95813,1,8,0:0:0:0:
40,360,96426,6,0,P|0:320|16:216,1,160
72,276,97345,2,0,P|88:240|88:196,1,79.9999999999999,0|8,0:0|0:0,0:0:0:0:
168,184,97957,2,0,L|156:96,1,79.9999999999999,0|8,0:0|0:0,0:0:0:0:
148,24,98570,6,0,P|208:64|296:40,1,160
360,8,99488,1,8,0:0:0:0:
356,88,99795,2,0,P|412:66|430:44,2,79.9999999999999
328,116,100560,2,0,L|244:116,1,79.9999999999999,8|0,0:0|0:0,0:0:0:0:
