osu file format v12

[General]
AudioFilename: [SDVX] EGG - EXH.mp3
AudioLeadIn: 1500
PreviewTime: 40919
Countdown: 0
SampleSet: Soft
StackLeniency: 0.7
Mode: 0
LetterboxInBreaks: 1
WidescreenStoryboard: 0

[Editor]
DistanceSpacing: 1.4
BeatDivisor: 4
GridSize: 4
TimelineZoom: 1.7

[Metadata]
Title:EGG
TitleUnicode:EGG
Artist:ginkiha
ArtistUnicode:ginkiha
Creator:Rare
Version:EXHAUST
Source:SOUND VOLTEX BOOTH
Tags:NiZi RiNGO gowww
BeatmapID:295282
BeatmapSetID:113924

[Difficulty]
HPDrainRate:7
CircleSize:4
OverallDifficulty:8
ApproachRate:9
SliderMultiplier:1.7
SliderTickRate:1

[Events]
//Background and Video events
0,0,"bg.jpg",0,0
//Break Periods
//Storyboard Layer 0 (Background)
//Storyboard Layer 1 (Fail)
//Storyboard Layer 2 (Pass)
//Storyboard Layer 3 (Foreground)
//Storyboard Sound Samples
//Background Colour Transformations
3,100,163,162,255

[TimingPoints]
571,306.247447937934,4,2,1,70,1,0
8227,-100,4,2,1,20,0,0
8380,-100,4,2,1,70,0,0
8686,-100,4,2,1,20,0,0
8839,-100,4,2,1,70,0,0
9145,-100,4,2,1,20,0,0
9299,-100,4,2,1,70,0,0
9605,-100,4,2,1,20,0,0
9758,-100,4,2,1,70,0,0
9911,-100,4,2,1,20,0,0
10064,-100,4,2,1,70,0,0
10217,-100,4,2,1,5,0,0
10294,-100,4,2,1,70,0,0
11442,-100,4,2,1,5,0,0
11595,-100,4,2,1,50,0,0
11749,-100,4,2,1,70,0,0
19405,-83.3333333333333,4,2,1,70,0,0
19864,-83.3333333333333,4,2,1,50,0,0
20170,-83.3333333333333,4,2,1,70,0,0
20774,-100,4,2,1,70,0,0
38851,-100,4,2,1,20,0,0
39005,-100,4,2,1,70,0,0
39311,-100,4,2,1,20,0,0
39464,-100,4,2,1,70,0,0
39770,-100,4,2,1,20,0,0
39923,-100,4,2,1,70,0,0
40230,-100,4,2,1,20,0,0
40383,-83.3333333333333,4,2,1,70,0,0
40536,-83.3333333333333,4,2,1,20,0,0
40689,-100,4,2,1,70,0,0
40995,-100,4,2,1,70,0,0
41301,-100,4,2,1,70,0,1
49111,-100,4,2,1,20,0,1
49264,-100,4,2,1,70,0,1
50489,-66.6666666666667,4,2,1,70,0,1
50795,-100,4,2,1,70,0,1
54776,-66.6666666666667,4,2,1,70,0,1
55695,-100,4,2,1,70,0,1
59064,-83.3333333333333,4,2,1,70,0,1
59523,-76.9230769230769,4,2,1,70,0,1
60289,-66.6666666666667,4,2,1,70,0,1
60518,-100,4,2,1,70,0,1
60595,-100,4,2,1,70,0,0
79889,-133.333333333333,4,2,1,70,0,0
80348,-83.3333333333333,4,2,1,70,0,0
80807,-100,4,2,1,70,0,0
81726,-100,4,2,1,70,0,0
100867,-100,4,2,1,5,0,0

[Colours]
Combo1 : 173,91,255
Combo2 : 255,128,0
Combo3 : 255,255,128
Combo4 : 242,24,57
Combo5 : 255,192,0
Combo6 : 129,252,227

[HitObjects]
260,96,571,6,0,P|216:64|112:96,1,170,2|2,0:0|0:0,0:0:0:0:
68,284,1030,2,0,L|72:340,2,42.5
12,116,1336,1,2,0:0:0:0:
208,172,1642,2,0,P|232:200|184:312,1,170,2|0,0:0|0:0,0:0:0:0:
96,348,2102,2,0,L|4:344,1,85,2|0,0:0|0:0,0:0:0:0:
176,96,2408,2,0,L|268:100,1,85,2|0,0:0|0:0,0:0:0:0:
384,304,2714,2,0,L|292:300,1,85,2|2,0:0|0:0,0:0:0:0:
112,172,3020,5,2,0:0:0:0:
168,264,3174,1,0,0:0:0:0:
192,120,3327,1,2,0:0:0:0:
180,364,3480,1,0,0:0:0:0:
112,172,3633,1,2,0:0:0:0:
256,308,3786,1,0,0:0:0:0:
100,324,3939,1,2,0:0:0:0:
168,264,4092,6,0,P|284:216|316:232,1,170,2|0,0:0|0:0,0:0:0:0:
324,332,4552,2,0,L|420:316,1,85,2|0,0:0|0:0,0:0:0:0:
456,296,4781,1,0,0:0:0:0:
492,260,4858,2,0,P|504:216|496:176,1,85,2|0,0:0|0:0,0:0:0:0:
440,92,5164,1,2,0:0:0:0:
428,80,5470,6,0,P|372:52|276:92,1,170,2|2,0:0|0:0,0:0:0:0:
248,232,5930,2,0,L|256:280,2,42.5,0|0|0,0:0|0:0|0:0,0:0:0:0:
128,88,6236,1,2,0:0:0:0:
136,100,6542,2,0,P|236:132|284:96,1,170,2|0,0:0|0:0,0:0:0:0:
368,40,7002,2,0,P|416:36|456:52,1,85,2|0,0:0|0:0,0:0:0:0:
412,252,7308,2,0,P|369:251|331:234,1,85,2|0,0:0|0:0,0:0:0:0:
208,260,7614,1,2,0:0:0:0:
144,364,7767,1,0,0:0:0:0:
144,364,7920,6,0,L|128:188,1,170,2|0,0:0|0:0,0:0:0:0:
216,340,8380,2,0,L|200:164,1,170,2|0,0:0|0:0,0:0:0:0:
288,312,8839,2,0,L|272:136,1,170,2|0,0:0|0:0,0:0:0:0:
360,288,9299,2,0,L|344:112,1,170,2|0,0:0|0:0,0:0:0:0:
436,260,9758,2,0,L|428:176,1,85,2|0,0:0|0:0,0:0:0:0:
272,200,10064,2,0,L|264:116,1,85,2|0,0:0|0:0,0:0:0:0:
256,192,10294,12,0,11442,0:0:0:0:
356,204,11595,5,4,0:0:0:0:
288,280,11749,2,0,P|252:288|204:272,1,85,0|2,0:0|0:0,0:0:0:0:
148,188,12055,1,0,0:0:0:0:
68,360,12208,5,2,0:0:0:0:
52,276,12361,1,2,0:0:0:0:
36,192,12514,1,2,0:0:0:0:
148,300,12667,6,0,P|212:332|288:276,1,170,2|0,0:0|0:0,0:0:0:0:
284,156,13127,1,2,0:0:0:0:
360,340,13280,2,0,P|380:304|380:260,1,85
452,188,13586,2,0,L|444:104,1,85,2|0,0:0|0:0,0:0:0:0:
380,24,13892,6,0,B|304:52|304:52|208:32,1,170,2|0,0:0|0:0,0:0:0:0:
196,136,14352,2,0,L|108:120,1,85,2|0,0:0|0:0,0:0:0:0:
12,112,14658,1,2,0:0:0:0:
68,196,14811,1,0,0:0:0:0:
12,280,14964,1,2,0:0:0:0:
68,364,15117,1,0,0:0:0:0:
68,364,15424,1,2,0:0:0:0:
68,364,15730,1,2,0:0:0:0:
68,364,16036,5,2,0:0:0:0:
84,356,16113,1,2,0:0:0:0:
92,340,16189,1,2,0:0:0:0:
104,332,16266,1,2,0:0:0:0:
116,320,16342,1,2,0:0:0:0:
132,312,16419,1,0,0:0:0:0:
140,296,16495,6,0,L|132:208,1,85
200,136,16802,2,0,P|156:108|120:108,1,85,2|0,0:0|0:0,0:0:0:0:
40,160,17108,1,2,0:0:0:0:
184,368,17261,1,2,0:0:0:0:
48,328,17414,1,2,0:0:0:0:
136,280,17567,6,0,P|224:264|272:324,1,170
184,368,18027,1,8,0:0:0:0:
192,180,18180,2,0,P|248:188|280:212,1,85
320,292,18486,2,0,P|348:268|372:220,1,85,0|8,0:0|0:0,0:0:0:0:
408,132,18792,1,0,0:0:0:0:
432,300,18945,1,4,0:0:0:0:
428,312,19405,6,0,P|376:356|264:300,1,203.999993774414,12|0,0:0|0:0,0:0:0:0:
272,184,19864,2,0,P|324:140|436:196,1,203.999993774414,8|0,0:0|0:0,0:0:0:0:
332,264,20323,6,0,P|280:308|168:252,1,203.999993774414,12|0,0:0|0:0,0:0:0:0:
84,312,20783,2,0,L|72:220,1,85,8|0,0:0|0:0,0:0:0:0:
22,59,21089,2,0,L|12:144,1,85,8|0,0:0|0:0,0:0:0:0:
76,224,21395,5,4,0:0:0:0:
228,92,21548,1,0,0:0:0:0:
132,128,21702,1,8,0:0:0:0:
148,28,21855,1,0,0:0:0:0:
232,188,22008,2,0,L|228:272,1,85
220,376,22314,1,8,0:0:0:0:
308,276,22467,6,0,L|316:100,1,170
308,4,22927,1,8,0:0:0:0:
396,56,23080,2,0,P|408:88|400:140,1,85
308,4,23386,1,0,0:0:0:0:
415,79,23539,2,0,P|422:113|406:163,1,85,8|0,0:0|0:0,0:0:0:0:
324,220,23845,6,0,L|232:216,1,85
388,304,24152,2,0,P|436:308|472:288,1,85,8|0,0:0|0:0,0:0:0:0:
508,200,24458,1,0,0:0:0:0:
316,356,24611,1,0,0:0:0:0:
320,352,24764,1,8,0:0:0:0:
312,348,24917,1,0,0:0:0:0:
308,352,25070,6,0,L|220:344,1,85
48,328,25377,1,8,0:0:0:0:
140,320,25530,2,0,P|104:248|16:240,2,170
140,320,26295,5,0,0:0:0:0:
232,360,26448,2,0,L|316:356,1,85,0|8,0:0|0:0,0:0:0:0:
116,292,26755,1,0,0:0:0:0:
248,352,26908,2,0,L|332:348,1,85
484,340,27214,1,8,0:0:0:0:
492,192,27367,2,0,P|496:120|416:72,1,170
396,172,27827,1,8,0:0:0:0:
340,280,27980,1,0,0:0:0:0:
192,312,28133,5,2,0:0:0:0:
240,168,28286,1,2,0:0:0:0:
240,168,28362,1,2,0:0:0:0:
240,168,28439,1,2,0:0:0:0:
340,279,28592,1,2,0:0:0:0:
164,220,28745,6,0,P|146:178|152:136,1,85
256,76,29052,1,8,0:0:0:0:
324,200,29205,2,0,L|408:192,1,85
512,184,29511,5,2,0:0:0:0:
324,200,29664,1,10,0:0:0:0:
488,340,29817,1,2,0:0:0:0:
396,324,29970,6,0,B|356:288|356:288|236:296,1,170,0|8,0:0|0:0,0:0:0:0:
144,352,30430,2,0,L|60:344,1,85
240,192,30736,2,0,L|324:200,1,85,0|8,0:0|0:0,0:0:0:0:
468,256,31042,1,0,0:0:0:0:
424,164,31195,6,0,L|420:80,1,85,4|0,0:0|0:0,0:0:0:0:
356,0,31501,1,8,0:0:0:0:
368,236,31655,2,0,P|408:256|460:244,1,85
296,120,31961,2,0,P|260:104|212:112,1,85,0|8,0:0|0:0,0:0:0:0:
23,230,32267,6,0,P|102:249|164:196,1,170
176,96,32726,1,8,0:0:0:0:
100,24,32880,1,0,0:0:0:0:
164,132,33033,2,0,L|168:216,1,85
172,324,33339,1,8,0:0:0:0:
220,68,33492,6,0,P|180:44|82:104,1,170
208,232,33951,2,0,L|292:228,1,85,8|0,0:0|0:0,0:0:0:0:
396,220,34258,1,0,0:0:0:0:
248,144,34411,1,0,0:0:0:0:
252,148,34564,1,8,0:0:0:0:
252,140,34717,1,0,0:0:0:0:
248,144,34870,5,0,0:0:0:0:
396,220,35023,2,0,L|376:304,1,85,0|8,0:0|0:0,0:0:0:0:
284,348,35330,2,0,P|248:368|144:288,2,170
76,260,36095,6,0,P|60:316|72:352,1,85
232,268,36401,2,0,L|224:176,1,85,8|0,0:0|0:0,0:0:0:0:
216,80,36708,1,0,0:0:0:0:
104,184,36861,2,0,L|112:92,1,85,0|8,0:0|0:0,0:0:0:0:
208,68,37167,5,0,0:0:0:0:
208,68,37244,1,0,0:0:0:0:
208,68,37320,2,0,P|248:56|290:65,1,85
364,132,37626,1,8,0:0:0:0:
400,236,37780,2,0,L|484:228,1,85
320,312,38086,1,0,0:0:0:0:
264,228,38239,2,0,L|180:236,1,85,8|0,0:0|0:0,0:0:0:0:
80,224,38545,6,0,P|52:200|68:52,1,170,12|0,0:0|0:0,0:0:0:0:
240,40,39005,2,0,P|268:64|252:212,1,170,12|0,0:0|0:0,0:0:0:0:
36,160,39464,2,0,P|60:132|208:147,1,170,12|0,0:0|0:0,0:0:0:0:
208,296,39923,2,0,P|184:324|36:308,1,170,12|0,0:0|0:0,0:0:0:0:
12,216,40383,6,0,L|8:160,1,50.9999984436036,12|0,0:0|0:0,0:0:0:0:
76,32,40536,2,0,L|80:88,1,50.9999984436036,12|0,0:0|0:0,0:0:0:0:
92,188,40689,1,8,0:0:0:0:
181,109,40842,1,0,0:0:0:0:
240,212,40995,2,0,P|284:216|344:164,1,127.5,0|0,0:0|0:0,0:0:0:0:
344,144,41301,6,0,L|340:60,1,85,8|0,0:0|0:0,0:0:0:0:
340,44,41531,1,0,0:0:0:0:
340,28,41608,1,0,0:0:0:0:
484,152,41761,2,0,L|480:236,1,85,0|8,0:0|0:0,0:0:0:0:
472,340,42067,1,0,0:0:0:0:
291,319,42220,2,0,L|376:308,1,85,0|0,0:0|0:0,0:0:0:0:
180,352,42526,6,0,L|92:340,1,85,8|0,0:0|0:0,0:0:0:0:
20,276,42833,2,0,P|8:240|16:184,1,85
92,128,43139,1,8,0:0:0:0:
100,224,43292,1,0,0:0:0:0:
100,224,43369,1,0,0:0:0:0:
100,224,43445,5,0,0:0:0:0:
180,164,43598,1,0,0:0:0:0:
188,260,43751,1,8,0:0:0:0:
108,320,43905,1,0,0:0:0:0:
92,128,44058,1,0,0:0:0:0:
172,68,44211,1,0,0:0:0:0:
272,204,44364,1,8,0:0:0:0:
280,296,44517,6,0,P|352:296|400:216,1,170
492,264,44976,2,0,L|488:136,1,127.5,8|0,0:0|0:0,0:0:0:0:
488,120,45283,1,0,0:0:0:0:
456,24,45436,1,0,0:0:0:0:
384,92,45589,1,8,0:0:0:0:
380,112,45665,1,0,0:0:0:0:
376,132,45742,1,0,0:0:0:0:
372,152,45819,1,0,0:0:0:0:
368,172,45895,6,0,P|312:200|228:140,1,170,4|8,0:0|0:0,0:0:0:0:
192,52,46354,1,0,0:0:0:0:
192,52,46431,1,0,0:0:0:0:
192,52,46508,1,0,0:0:0:0:
236,144,46661,1,0,0:0:0:0:
216,248,46814,2,0,P|252:272|296:272,1,85,8|0,0:0|0:0,0:0:0:0:
136,180,47120,2,0,P|96:168|52:172,1,85
240,280,47426,2,0,P|282:285|322:266,1,85,8|0,0:0|0:0,0:0:0:0:
320,92,47733,5,0,0:0:0:0:
320,92,47809,1,0,0:0:0:0:
320,92,47886,1,0,0:0:0:0:
320,92,47962,1,0,0:0:0:0:
320,92,48039,1,8,0:0:0:0:
248,168,48192,1,0,0:0:0:0:
328,232,48345,6,0,P|404:248|464:184,1,170,4|0,0:0|0:0,0:0:0:0:
176,44,48804,2,0,P|100:28|40:92,1,170,4|0,0:0|0:0,0:0:0:0:
40,294,49264,2,0,P|95:354|176:340,1,170,4|0,0:0|0:0,0:0:0:0:
472,240,49723,2,0,P|416:180|336:194,1,170,4|0,0:0|0:0,0:0:0:0:
304,368,50183,2,0,P|344:376|392:360,1,85,12|0,0:0|0:0,0:0:0:0:
472,308,50489,6,0,L|468:176,1,127.500004863739,12|0,0:0|0:0,0:0:0:0:
460,80,50795,6,0,P|396:44|348:60,1,127.5
332,84,51101,1,8,0:0:0:0:
368,240,51254,1,0,0:0:0:0:
364,220,51330,1,0,0:0:0:0:
360,200,51407,1,0,0:0:0:0:
320,80,51561,1,0,0:0:0:0:
160,245,51714,1,8,0:0:0:0:
208,336,51867,2,0,P|256:208|244:196,1,170
68,196,52326,2,0,L|64:111,1,85,8|0,0:0|0:0,0:0:0:0:
56,8,52633,5,0,0:0:0:0:
184,120,52786,1,0,0:0:0:0:
68,196,52939,1,8,0:0:0:0:
168,24,53092,1,0,0:0:0:0:
260,68,53245,6,0,P|272:104|264:156,1,85
232,308,53551,1,8,0:0:0:0:
184,216,53704,1,0,0:0:0:0:
132,304,53858,1,0,0:0:0:0:
144,120,54011,1,0,0:0:0:0:
36,304,54164,1,8,0:0:0:0:
92,48,54317,2,0,P|192:40|228:92,1,170
276,180,54776,6,0,L|404:164,1,127.500004863739,8|0,0:0|0:0,0:0:0:0:
504,148,55083,1,0,0:0:0:0:
360,52,55236,1,0,0:0:0:0:
204,96,55389,2,0,P|169:137|177:212,1,127.500004863739,8|0,0:0|0:0,0:0:0:0:
208,304,55695,6,0,L|340:284,1,127.5,4|0,0:0|0:0,0:0:0:0:
356,268,56001,1,8,0:0:0:0:
368,244,56078,1,0,0:0:0:0:
373,218,56154,1,0,0:0:0:0:
371,192,56231,1,0,0:0:0:0:
362,167,56308,1,0,0:0:0:0:
348,352,56461,2,0,P|392:348|424:324,1,85,0|8,0:0|0:0,0:0:0:0:
428,96,56767,1,0,0:0:0:0:
252,52,56920,2,0,P|296:56|336:56,1,85,4|0,0:0|0:0,0:0:0:0:
208,184,57226,2,0,P|168:184|124:180,1,85,8|0,0:0|0:0,0:0:0:0:
20,176,57533,5,0,0:0:0:0:
24,176,57686,1,0,0:0:0:0:
20,172,57839,1,0,0:0:0:0:
16,176,57992,1,0,0:0:0:0:
20,180,58145,2,0,P|80:192|148:112,1,170,4|0,0:0|0:0,0:0:0:0:
240,156,58604,2,0,P|256:76|188:20,1,170,4|0,0:0|0:0,0:0:0:0:
24,76,59064,6,0,P|8:156|108:216,1,203.999993774414,4|0,0:0|0:0,0:0:0:0:
232,196,59523,6,0,L|452:180,1,220.999989883423,12|0,0:0|0:0,0:0:0:0:
422,72,59983,6,0,L|312:80,1,110.499994941712,12|0,0:0|0:0,0:0:0:0:
272,312,60289,6,0,L|411:301,1,127.500004863739,12|0,0:0|0:0,0:0:0:0:
416,284,60518,5,0,0:0:0:0:
426,268,60594,1,2,0:0:0:0:
434,251,60671,1,0,0:0:0:0:
437,232,60747,1,2,0:0:0:0:
437,213,60824,1,0,0:0:0:0:
433,195,60900,1,10,0:0:0:0:
426,178,60977,1,0,0:0:0:0:
415,162,61053,1,2,0:0:0:0:
401,149,61130,1,0,0:0:0:0:
385,139,61207,6,0,L|344:116,1,42.5,2|0,0:0|0:0,0:0:0:0:
228,280,61361,2,0,L|264:258,1,42.5,2|0,0:0|0:0,0:0:0:0:
216,32,61514,2,0,L|208:73,1,42.5,10|0,0:0|0:0,0:0:0:0:
32,176,61667,2,0,L|72:200,1,42.5,2|0,0:0|0:0,0:0:0:0:
173,156,61820,5,2,0:0:0:0:
172,156,61922,2,0,L|119:124,1,56.6666666666667
212,272,62126,2,0,L|268:304,2,56.6666666666667,8|2|0,0:0|0:0|0:0,0:0:0:0:
120,236,62432,1,2,0:0:0:0:
120,236,62509,1,0,0:0:0:0:
120,236,62586,1,2,0:0:0:0:
164,364,62739,2,0,L|90:324,1,85,8|2,0:0|0:0,0:0:0:0:
36,256,63045,6,0,P|16:224|44:144,1,127.5,2|0,0:0|0:0,0:0:0:0:
92,144,63351,2,0,L|88:60,1,85,10|0,0:0|0:0,0:0:0:0:
228,80,63657,1,2,0:0:0:0:
220,164,63811,1,2,0:0:0:0:
212,248,63964,1,10,0:0:0:0:
204,332,64117,6,0,P|160:336|120:316,1,85,2|0,0:0|0:0,0:0:0:0:
312,136,64423,2,0,P|356:139|391:166,1,85,2|8,0:0|0:0,0:0:0:0:
100,304,64729,2,0,P|84:262|93:219,1,85,2|0,0:0|0:0,0:0:0:0:
372,188,65036,2,0,P|382:230|369:272,1,85,2|8,0:0|0:0,0:0:0:0:
228,80,65342,2,0,P|320:32|380:64,1,170,2|0,0:0|0:0,0:0:0:0:
408,136,65801,5,8,0:0:0:0:
320,256,65954,1,2,0:0:0:0:
317,231,66031,1,2,0:0:0:0:
313,207,66107,1,2,0:0:0:0:
376,56,66261,1,2,0:0:0:0:
232,168,66414,1,8,0:0:0:0:
104,40,66567,1,2,0:0:0:0:
104,40,66643,1,2,0:0:0:0:
104,40,66720,1,2,0:0:0:0:
128,140,66873,5,2,0:0:0:0:
128,140,66950,1,2,0:0:0:0:
128,140,67026,2,0,P|80:144|40:120,1,85,10|0,0:0|0:0,0:0:0:0:
352,64,67332,1,2,0:0:0:0:
352,64,67409,1,2,0:0:0:0:
352,64,67486,2,0,P|400:60|440:84,1,85,0|8,0:0|0:0,0:0:0:0:
472,168,67792,1,2,0:0:0:0:
472,168,67868,1,2,0:0:0:0:
472,168,67945,1,2,0:0:0:0:
360,248,68098,5,2,0:0:0:0:
360,248,68175,1,2,0:0:0:0:
360,248,68251,1,10,0:0:0:0:
356,148,68404,2,0,L|352:60,1,85,2|0,0:0|0:0,0:0:0:0:
252,64,68711,5,2,0:0:0:0:
248,80,68787,1,2,0:0:0:0:
240,96,68864,2,0,P|200:108|156:96,1,85,10|0,0:0|0:0,0:0:0:0:
100,16,69170,1,0,0:0:0:0:
12,164,69323,6,0,L|16:252,1,85,2|8,0:0|0:0,0:0:0:0:
24,352,69629,1,2,0:0:0:0:
24,352,69706,1,2,0:0:0:0:
24,352,69782,2,0,P|80:320|156:344,1,127.5,2|0,0:0|0:0,0:0:0:0:
164,352,70089,2,0,L|256:348,1,85,8|0,0:0|0:0,0:0:0:0:
240,240,70395,2,0,L|332:244,1,85,2|0,0:0|0:0,0:0:0:0:
420,248,70701,5,10,0:0:0:0:
436,234,70778,1,0,0:0:0:0:
449,217,70854,1,2,0:0:0:0:
458,198,70931,1,0,0:0:0:0:
463,178,71007,1,2,0:0:0:0:
464,156,71084,1,0,0:0:0:0:
460,135,71161,1,2,0:0:0:0:
452,116,71237,1,0,0:0:0:0:
440,98,71314,1,10,0:0:0:0:
424,84,71390,1,0,0:0:0:0:
406,73,71467,1,2,0:0:0:0:
386,66,71543,1,0,0:0:0:0:
365,63,71620,6,0,L|300:48,2,56.6666666666667,2|0|0,0:0|0:0|0:0,0:0:0:0:
432,284,71926,2,0,L|498:300,2,56.6666666666667,10|0|0,0:0|0:0|0:0,0:0:0:0:
292,164,72232,1,2,0:0:0:0:
300,168,72309,1,0,0:0:0:0:
308,172,72386,1,2,0:0:0:0:
408,204,72539,2,0,P|440:180|455:134,1,85,8|2,0:0|0:0,0:0:0:0:
408,52,72845,5,2,0:0:0:0:
336,260,72998,1,0,0:0:0:0:
428,216,73151,2,0,P|451:183|451:134,1,85,8|2,0:0|0:0,0:0:0:0:
324,0,73457,5,2,0:0:0:0:
358,214,73610,1,0,0:0:0:0:
419,132,73764,1,8,0:0:0:0:
268,208,73917,5,0,0:0:0:0:
308,16,74070,1,0,0:0:0:0:
268,128,74223,1,0,0:0:0:0:
168,0,74376,5,8,0:0:0:0:
280,152,74529,1,0,0:0:0:0:
152,20,74682,5,0,0:0:0:0:
184,224,74836,1,0,0:0:0:0:
368,92,74989,1,8,0:0:0:0:
260,312,75142,5,2,0:0:0:0:
238,329,75218,1,2,0:0:0:0:
212,340,75295,1,2,0:0:0:0:
183,343,75371,1,2,0:0:0:0:
156,337,75448,1,2,0:0:0:0:
131,323,75525,1,2,0:0:0:0:
111,303,75601,1,10,0:0:0:0:
76,208,75754,5,2,0:0:0:0:
68,220,75831,1,2,0:0:0:0:
60,232,75907,2,0,L|68:144,1,85,2|0,0:0|0:0,0:0:0:0:
260,76,76214,1,8,0:0:0:0:
368,260,76367,1,2,0:0:0:0:
364,280,76443,1,2,0:0:0:0:
360,300,76520,1,2,0:0:0:0:
440,152,76673,5,2,0:0:0:0:
444,132,76750,1,2,0:0:0:0:
448,112,76826,1,10,0:0:0:0:
452,92,76903,1,2,0:0:0:0:
252,328,77132,1,2,0:0:0:0:
256,308,77209,1,2,0:0:0:0:
260,288,77285,1,2,0:0:0:0:
264,268,77362,1,2,0:0:0:0:
100,136,77592,5,2,0:0:0:0:
100,136,77668,1,2,0:0:0:0:
100,136,77745,2,0,P|148:136|188:112,1,85,4|0,0:0|0:0,0:0:0:0:
80,56,78051,1,0,0:0:0:0:
220,196,78204,2,0,P|252:172|265:116,1,85,4|0,0:0|0:0,0:0:0:0:
304,24,78510,5,2,0:0:0:0:
312,52,78587,1,2,0:0:0:0:
324,80,78664,2,0,P|356:88|404:72,1,85,4|0,0:0|0:0,0:0:0:0:
296,0,78970,1,0,0:0:0:0:
448,164,79123,2,0,P|476:147|498:101,1,85,4|0,0:0|0:0,0:0:0:0:
492,4,79429,1,10,0:0:0:0:
368,104,79582,2,0,P|343:152|371:228,1,127.5,4|0,0:0|0:0,0:0:0:0:
376,292,79889,6,0,L|248:308,1,127.500004863739,4|0,0:0|0:0,0:0:0:0:
244,380,80348,6,0,L|248:172,1,203.999993774414,4|8,0:0|0:0,0:0:0:0:
324,112,80807,6,2,L|308:56,1,42.5,2|2,0:0|0:0,0:0:0:0:
176,8,80960,2,2,L|160:64,1,42.5,2|2,0:0|0:0,0:0:0:0:
236,212,81114,2,2,L|228:160,1,42.5
44,60,81267,2,0,L|32:108,1,42.5,2|2,0:0|0:0,0:0:0:0:
80,196,81420,1,0,0:0:0:0:
84,208,81726,6,0,P|132:236|224:180,1,170,4|0,0:0|0:0,0:0:0:0:
244,84,82185,1,0,0:0:0:0:
244,84,82262,1,0,0:0:0:0:
244,84,82339,2,0,P|292:64|332:68,1,85,8|0,0:0|0:0,0:0:0:0:
456,188,82645,1,0,0:0:0:0:
392,32,82798,1,0,0:0:0:0:
392,32,82951,1,8,0:0:0:0:
280,160,83104,2,0,P|200:160|160:84,1,170
348,112,83564,2,0,P|360:136|352:204,1,85,8|0,0:0|0:0,0:0:0:0:
304,280,83870,5,0,0:0:0:0:
240,76,84023,1,0,0:0:0:0:
440,111,84176,2,0,P|408:36|328:22,1,170
240,76,84635,1,0,0:0:0:0:
176,156,84789,2,0,P|132:184|40:120,1,170
12,32,85248,1,0,0:0:0:0:
41,128,85401,2,0,L|32:224,1,85,8|0,0:0|0:0,0:0:0:0:
24,316,85707,5,0,0:0:0:0:
124,288,85860,1,0,0:0:0:0:
224,260,86014,1,0,0:0:0:0:
324,232,86167,1,0,0:0:0:0:
412,284,86320,6,0,L|408:368,1,85
224,260,86626,2,0,L|228:176,1,85,8|0,0:0|0:0,0:0:0:0:
232,72,86932,1,0,0:0:0:0:
124,288,87085,1,0,0:0:0:0:
128,188,87239,2,0,L|132:104,1,85,8|0,0:0|0:0,0:0:0:0:
172,8,87545,5,2,0:0:0:0:
183,31,87621,1,2,0:0:0:0:
200,52,87698,1,2,0:0:0:0:
221,68,87774,1,2,0:0:0:0:
245,79,87851,1,2,0:0:0:0:
271,84,87928,1,2,0:0:0:0:
297,83,88004,1,2,0:0:0:0:
323,76,88081,1,2,0:0:0:0:
346,63,88157,6,0,L|354:22,1,42.5,2|2,0:0|0:0,0:0:0:0:
432,144,88310,2,0,L|424:185,1,42.5,2|2,0:0|0:0,0:0:0:0:
316,280,88464,2,0,L|332:152,1,127.5,10|0,0:0|0:0,0:0:0:0:
340,80,88770,6,0,P|312:40|200:40,1,170,0|0,0:0|0:0,0:0:0:0:
136,120,89229,1,0,0:0:0:0:
180,212,89382,1,2,0:0:0:0:
209,204,89459,1,0,0:0:0:0:
237,197,89535,1,2,0:0:0:0:
266,190,89612,1,0,0:0:0:0:
294,183,89689,1,10,0:0:0:0:
420,248,89842,1,0,0:0:0:0:
444,88,89995,1,8,0:0:0:0:
444,88,90301,5,8,0:0:0:0:
420,248,90454,1,0,0:0:0:0:
420,248,90531,1,0,0:0:0:0:
420,248,90607,1,8,0:0:0:0:
296,148,90760,1,8,0:0:0:0:
384,328,90913,1,8,0:0:0:0:
344,80,91067,1,8,0:0:0:0:
216,172,91220,5,0,0:0:0:0:
300,232,91373,2,0,P|372:196|360:104,2,170,0|8|0,0:0|0:0|0:0,0:0:0:0:
300,232,92292,1,8,0:0:0:0:
436,212,92445,1,0,0:0:0:0:
398,135,92598,1,0,0:0:0:0:
375,271,92751,1,8,0:0:0:0:
315,148,92904,1,8,0:0:0:0:
220,172,93057,5,2,0:0:0:0:
193,153,93134,1,0,0:0:0:0:
176,127,93210,1,2,0:0:0:0:
169,96,93287,1,0,0:0:0:0:
175,65,93363,1,10,0:0:0:0:
268,16,93517,1,0,0:0:0:0:
136,212,93670,6,0,L|88:140,1,85
36,52,93976,1,8,0:0:0:0:
176,127,94129,2,0,P|244:113|267:22,2,170,0|8|0,0:0|0:0|0:0,0:0:0:0:
124,40,94895,5,0,0:0:0:0:
120,124,95048,1,0,0:0:0:0:
116,208,95201,2,0,L|112:292,1,85,8|0,0:0|0:0,0:0:0:0:
108,376,95507,1,2,0:0:0:0:
108,376,95584,1,0,0:0:0:0:
108,376,95660,1,10,0:0:0:0:
208,312,95813,1,2,0:0:0:0:
208,312,95890,1,0,0:0:0:0:
208,312,95967,1,10,0:0:0:0:
300,360,96120,5,0,0:0:0:0:
384,300,96273,2,0,P|436:264|428:164,2,170,0|8|0,0:0|0:0|0:0,0:0:0:0:
384,300,97192,1,8,0:0:0:0:
292,260,97345,5,2,0:0:0:0:
272,234,97421,1,0,0:0:0:0:
245,217,97498,1,2,0:0:0:0:
214,210,97574,1,0,0:0:0:0:
183,214,97651,1,2,0:0:0:0:
154,227,97728,1,0,0:0:0:0:
132,250,97804,1,2,0:0:0:0:
118,278,97881,1,0,0:0:0:0:
115,310,97957,6,0,L|116:364,1,42.5,2|2,0:0|0:0,0:0:0:0:
36,232,98110,2,0,L|32:184,1,42.5,2|2,0:0|0:0,0:0:0:0:
120,64,98263,2,0,L|124:148,1,85,10|0,0:0|0:0,0:0:0:0:
132,250,98570,5,0,0:0:0:0:
200,328,98723,2,0,P|244:340|284:328,1,85,0|8,0:0|0:0,0:0:0:0:
380,348,99029,2,0,L|368:264,1,85
468,280,99335,2,0,L|456:196,1,85,8|0,0:0|0:0,0:0:0:0:
440,96,99642,1,8,0:0:0:0:
348,52,99795,5,0,0:0:0:0:
360,152,99948,1,0,0:0:0:0:
264,328,100101,1,8,0:0:0:0:
252,228,100254,1,0,0:0:0:0:
168,288,100407,1,0,0:0:0:0:
344,268,100560,6,0,B|404:284|442:235|442:235|470:256|473:286,1,170,0|0,0:0|0:0,0:0:0:0:
