osu file format v12

[General]
AudioFilename: [SDVX] EGG - EXH.mp3
AudioLeadIn: 1500
PreviewTime: 40919
Countdown: 0
SampleSet: Soft
StackLeniency: 0.7
Mode: 0
LetterboxInBreaks: 1
WidescreenStoryboard: 1

[Editor]
DistanceSpacing: 1
BeatDivisor: 4
GridSize: 4
TimelineZoom: 1

[Metadata]
Title:EGG
TitleUnicode:EGG
Artist:ginkiha
ArtistUnicode:ginkiha
Creator:Rare
Version:ADVANCED
Source:SOUND VOLTEX BOOTH
Tags:NiZi RiNGO gowww
BeatmapID:314243
BeatmapSetID:113924

[Difficulty]
HPDrainRate:5
CircleSize:4
OverallDifficulty:7
ApproachRate:8
SliderMultiplier:1.5
SliderTickRate:1

[Events]
//Background and Video events
0,0,"bg.jpg",0,0
//Break Periods
//Storyboard Layer 0 (Background)
//Storyboard Layer 1 (Fail)
//Storyboard Layer 2 (Pass)
//Storyboard Layer 3 (Foreground)
//Storyboard Sound Samples
//Background Colour Transformations
3,100,163,162,255

[TimingPoints]
571,306.247447937934,4,2,1,70,1,0
8227,-100,4,2,1,20,0,0
8380,-100,4,2,1,70,0,0
8686,-100,4,2,1,20,0,0
8839,-100,4,2,1,70,0,0
9145,-100,4,2,1,20,0,0
9299,-100,4,2,1,70,0,0
9605,-100,4,2,1,20,0,0
9758,-100,4,2,1,70,0,0
9911,-100,4,2,1,20,0,0
10064,-100,4,2,1,70,0,0
10217,-100,4,2,1,5,0,0
10294,-100,4,2,1,70,0,0
11442,-100,4,2,1,5,0,0
11588,-100,4,1,1,50,0,0
11741,-100,4,2,1,70,0,0
19392,-100,4,1,1,70,0,0
19698,-100,4,2,1,70,0,0
20311,-100,4,1,1,70,0,0
20617,-100,4,2,1,70,0,0
38915,-100,4,2,1,20,0,0
38992,-100,4,2,1,70,0,0
39375,-100,4,2,1,20,0,0
39451,-100,4,2,1,70,0,0
39834,-100,4,2,1,20,0,0
39910,-100,4,2,1,70,0,0
48712,-100,4,2,1,20,0,0
48789,-100,4,2,1,70,0,0
49171,-100,4,2,1,20,0,0
49248,-100,4,2,1,70,0,0
49631,-100,4,2,1,20,0,0
49707,-100,4,2,1,70,0,0
59408,-100,4,2,1,20,0,0
59485,-100,4,2,1,70,0,0
59867,-100,4,2,1,20,0,0
59944,-100,4,2,1,70,0,0
78077,-100,4,2,1,20,0,0
78179,-100,4,2,1,70,0,0
78536,-100,4,2,1,20,0,0
78613,-100,4,2,1,70,0,0
78995,-100,4,2,1,20,0,0
79072,-100,4,2,1,70,0,0
101020,-100,4,2,1,5,0,0

[Colours]
Combo1 : 173,91,255
Combo2 : 255,128,0
Combo3 : 255,255,128
Combo4 : 242,24,57
Combo5 : 255,192,0
Combo6 : 129,252,227

[HitObjects]
408,72,571,6,0,B|336:48|332:124|256:104,1,150,0|2,0:0|0:0,0:0:0:0:
268,32,1030,2,0,P|228:44|204:72,1,75
204,144,1336,2,0,P|160:128|136:88,1,75,0|2,0:0|0:0,0:0:0:0:
136,32,1642,2,0,B|128:96|128:96|120:140|68:192,1,150
56,240,2102,5,2,0:0:0:0:
136,352,2408,1,0,0:0:0:0:
272,292,2714,1,2,0:0:0:0:
272,292,2867,1,0,0:0:0:0:
272,292,3020,6,0,P|296:260|344:236,1,75
440,312,3327,2,0,P|404:276|396:236,1,75,2|0,0:0|0:0,0:0:0:0:
372,184,3633,2,0,P|384:148|380:100,2,75,0|0|2,0:0|0:0|0:0,0:0:0:0:
312,136,4092,2,0,P|240:88|140:104,1,187.5
116,124,4552,2,0,P|84:148|44:156,1,75,2|0,0:0|0:0,0:0:0:0:
40,228,4858,2,0,P|112:216|160:184,1,112.5
172,172,5164,2,0,P|196:156|252:188,1,75,2|0,0:0|0:0,0:0:0:0:
296,212,5470,6,0,P|340:284|300:368,1,150,0|2,0:0|0:0,0:0:0:0:
252,360,5930,2,0,P|216:368|160:372,1,75
132,312,6236,2,0,P|96:304|40:300,1,75,0|2,0:0|0:0,0:0:0:0:
40,228,6542,5,0,0:0:0:0:
200,68,7002,1,2,0:0:0:0:
208,72,7308,1,0,0:0:0:0:
216,76,7614,2,0,B|236:68|236:68|268:80|268:80|304:64,1,75,2|0,0:0|0:0,0:0:0:0:
360,64,7920,6,0,P|436:64|368:116,1,187.5
352,176,8380,2,0,P|352:252|300:184,1,187.5
223,208,8839,2,0,P|161:252|160:176,1,187.5
119,127,9299,2,0,P|75:65|152:64,1,187.5
208,96,9758,2,0,B|256:128|256:128|304:96,1,112.5
256,76,10064,2,0,B|250:62|264:32|256:0,1,75
256,192,10294,12,4,11595,0:0:0:0:
308,44,11902,6,0,P|278:33|236:32,1,75,2|0,0:0|0:0,0:0:0:0:
160,36,12208,2,0,P|104:48|72:68,2,75,0|0|2,0:0|0:0|0:0,0:0:0:0:
200,100,12667,2,0,P|196:176|128:244,1,150
80,208,13127,1,2,0:0:0:0:
80,208,13280,2,0,P|136:240|176:328,1,150
180,320,13892,6,0,B|256:320|256:320|320:264,1,150
388,268,14352,2,0,P|376:220|344:200,1,75,2|0,0:0|0:0,0:0:0:0:
284,204,14658,2,0,P|288:168|320:136,1,75
388,132,14964,1,2,0:0:0:0:
388,132,15117,1,0,0:0:0:0:
392,128,15424,5,0,0:0:0:0:
260,60,15730,1,0,0:0:0:0:
120,128,16036,1,2,0:0:0:0:
120,128,16113,1,0,0:0:0:0:
120,128,16189,1,2,0:0:0:0:
120,128,16266,1,0,0:0:0:0:
120,128,16342,1,0,0:0:0:0:
120,128,16419,1,0,0:0:0:0:
120,128,16495,6,0,L|52:192,1,75,2|0,0:0|0:0,0:0:0:0:
156,216,16802,2,0,L|224:152,1,75,2|0,0:0|0:0,0:0:0:0:
264,112,17108,1,0,0:0:0:0:
356,212,17261,1,0,0:0:0:0:
392,84,17414,1,2,0:0:0:0:
392,84,17567,6,0,B|344:28|344:28|264:28,1,150
192,28,18027,2,0,L|100:28,2,75,2|0|0,0:0|0:0|0:0,0:0:0:0:
192,28,18486,1,0,0:0:0:0:
196,104,18639,1,2,0:0:0:0:
120,104,18792,1,0,0:0:0:0:
120,180,18945,6,0,P|116:248|76:340,1,150,0|2,0:0|0:0,0:0:0:0:
208,272,19405,2,0,P|292:272|384:308,1,150
392,204,19864,2,0,P|396:136|436:44,1,150,2|0,0:0|0:0,0:0:0:0:
304,112,20323,2,0,P|220:112|128:76,1,150
64,192,20783,1,4,0:0:0:0:
56,192,21089,1,4,0:0:0:0:
132,320,21395,5,0,0:0:0:0:
200,292,21548,1,0,0:0:0:0:
264,332,21702,1,2,0:0:0:0:
332,304,21855,1,0,0:0:0:0:
352,232,22008,2,0,P|336:184|320:168,2,75,0|0|2,0:0|0:0|0:0,0:0:0:0:
332,304,22467,6,0,P|352:240|452:240,1,150
408,296,22927,1,2,0:0:0:0:
332,304,23080,1,0,0:0:0:0:
280,248,23233,1,0,0:0:0:0:
300,176,23386,1,0,0:0:0:0:
272,104,23539,2,0,P|240:80|188:76,1,75,2|0,0:0|0:0,0:0:0:0:
136,52,23845,6,0,P|100:44|44:48,1,75
112,140,24152,2,0,P|148:148|204:144,1,75,2|0,0:0|0:0,0:0:0:0:
260,24,24458,2,0,P|296:28|344:60,1,75
468,120,24764,2,0,P|432:128|376:124,1,75,2|0,0:0|0:0,0:0:0:0:
320,208,25070,1,0,0:0:0:0:
320,208,25223,1,0,0:0:0:0:
320,208,25377,1,2,0:0:0:0:
256,248,25530,2,0,B|204:220|164:280|96:252,2,150
320,208,26295,5,0,0:0:0:0:
360,144,26448,1,0,0:0:0:0:
308,88,26602,1,2,0:0:0:0:
236,108,26755,1,0,0:0:0:0:
223,184,26908,2,0,P|239:232|255:248,2,75,0|0|2,0:0|0:0|0:0,0:0:0:0:
180,80,27367,6,0,P|160:144|60:144,1,150
104,88,27827,1,2,0:0:0:0:
180,80,27980,1,0,0:0:0:0:
256,72,28133,2,0,L|356:60,1,75
330,63,28362,1,0,0:0:0:0:
330,63,28439,2,0,P|298:92|240:116,1,75,2|0,0:0|0:0,0:0:0:0:
212,156,28745,5,0,0:0:0:0:
212,156,28898,1,0,0:0:0:0:
256,216,29052,1,2,0:0:0:0:
256,216,29205,1,0,0:0:0:0:
308,160,29358,1,0,0:0:0:0:
344,260,29511,1,0,0:0:0:0:
440,168,29664,1,2,0:0:0:0:
448,304,29817,1,0,0:0:0:0:
456,308,30123,6,0,P|448:271|416:236,1,75,2|0,0:0|0:0,0:0:0:0:
336,120,30430,2,0,P|343:156|376:192,1,75
344,260,30736,2,0,P|288:320|200:304,1,150
152,308,31195,5,0,0:0:0:0:
116,244,31348,1,0,0:0:0:0:
60,296,31501,1,2,0:0:0:0:
76,224,31655,1,0,0:0:0:0:
8,192,31808,1,0,0:0:0:0:
80,180,31961,1,0,0:0:0:0:
140,132,32114,1,2,0:0:0:0:
184,72,32267,6,0,P|256:60|352:56,1,150
336,132,32726,2,0,L|428:112,1,75,2|0,0:0|0:0,0:0:0:0:
472,156,33033,1,0,0:0:0:0:
472,156,33186,1,0,0:0:0:0:
480,232,33339,2,0,P|480:288|464:320,1,75,2|0,0:0|0:0,0:0:0:0:
404,332,33645,6,0,L|372:248,1,75
252,273,33951,2,0,L|252:348,1,75,2|0,0:0|0:0,0:0:0:0:
108,332,34258,2,0,L|140:248,1,75
196,208,34564,1,2,0:0:0:0:
196,208,34717,1,0,0:0:0:0:
204,132,34870,6,0,P|148:144|128:176,2,75,0|0|2,0:0|0:0|0:0,0:0:0:0:
272,104,35330,2,0,L|104:88,2,150
340,68,36095,6,0,P|376:56|424:52,1,75
472,100,36401,2,0,L|508:184,1,75,2|0,0:0|0:0,0:0:0:0:
472,240,36708,2,0,P|456:272|456:320,2,75,0|0|2,0:0|0:0|0:0,0:0:0:0:
424,184,37167,2,0,L|252:164,1,150
200,160,37626,1,2,0:0:0:0:
200,160,37780,1,0,0:0:0:0:
124,160,37933,2,0,L|24:200,1,75
54,187,38162,1,0,0:0:0:0:
54,187,38239,2,0,L|24:272,1,75,2|0,0:0|0:0,0:0:0:0:
104,344,38545,6,0,P|200:360|208:268,1,187.5,8|0,0:0|0:0,0:0:0:0:
291,290,39005,2,0,P|325:368|408:344,1,187.5,4|0,0:0|0:0,0:0:0:0:
352,308,39464,2,0,B|328:216|328:216|252:136,1,187.5,4|0,0:0|0:0,0:0:0:0:
247,148,39923,2,0,B|184:216|184:216|160:308,1,187.5,4|0,0:0|0:0,0:0:0:0:
124,324,40383,2,0,L|76:344,3,37.5,4|0|0|0,0:0|0:0|0:0|0:0,0:0:0:0:
52,332,40689,2,0,L|8:300,3,37.5,4|0|0|0,0:0|0:0|0:0|0:0,0:0:0:0:
20,272,40995,6,0,P|24:216|56:136,1,112.5,4|0,0:0|0:0,0:0:0:0:
68,136,41301,2,0,P|144:120|192:88,1,112.5,2|0,0:0|0:0,0:0:0:0:
212,104,41608,2,0,L|300:124,2,75,0|0|2,0:0|0:0|0:0,0:0:0:0:
216,28,42067,2,0,L|316:164,1,150
348,212,42526,2,0,P|364:256|360:304,1,75,2|0,0:0|0:0,0:0:0:0:
308,336,42833,2,0,P|292:292|296:244,1,75
272,192,43139,1,2,0:0:0:0:
272,192,43292,1,0,0:0:0:0:
201,314,43445,6,0,L|128:300,1,75
152,160,43751,2,0,L|200:240,1,75,2|0,0:0|0:0,0:0:0:0:
88,224,44058,2,0,P|56:256|52:316,2,75,0|0|2,0:0|0:0|0:0,0:0:0:0:
76,148,44517,2,0,P|180:144|276:88,1,187.5
292,108,44976,2,0,L|376:148,1,75,2|0,0:0|0:0,0:0:0:0:
359,140,45206,1,0,0:0:0:0:
359,140,45283,2,0,L|460:140,1,75
488,192,45589,2,0,L|504:232,3,37.5,2|0|0|0,0:0|0:0|0:0|0:0,0:0:0:0:
504,264,45895,6,0,P|460:316|408:320,1,112.5,4|0,0:0|0:0,0:0:0:0:
384,296,46201,2,0,P|332:284|272:288,1,112.5,2|0,0:0|0:0,0:0:0:0:
244,324,46508,2,0,P|204:344|164:336,2,75,0|0|2,0:0|0:0|0:0,0:0:0:0:
312,356,46967,2,0,P|236:316|184:248,1,150
184,192,47426,2,0,P|192:120|196:108,1,75,2|0,0:0|0:0,0:0:0:0:
220,48,47733,2,0,L|260:36,3,37.5
220,48,48039,2,0,L|316:100,1,75,2|0,0:0|0:0,0:0:0:0:
420,32,48345,6,0,P|476:120|444:204,1,187.5,4|0,0:0|0:0,0:0:0:0:
416,200,48804,2,0,P|312:200|272:288,1,187.5,4|0,0:0|0:0,0:0:0:0:
252,296,49264,2,0,P|197:367|108:359,1,187.5,4|0,0:0|0:0,0:0:0:0:
84,328,49723,2,0,P|63:239|117:166,1,187.5,4|0,0:0|0:0,0:0:0:0:
156,164,50183,6,0,L|260:176,1,75,4|0,0:0|0:0,0:0:0:0:
460,92,50489,2,0,L|356:80,1,75,4|0,0:0|0:0,0:0:0:0:
312,76,50795,6,0,B|240:96|240:96|140:84,1,150,4|2,0:0|0:0,0:0:0:0:
92,104,51254,2,0,L|28:76,2,37.5
230,173,51561,2,0,L|156:164,1,75
100,212,51867,6,0,P|68:296|84:360,1,150
200,368,52326,2,0,P|220:336|232:272,1,75,2|0,0:0|0:0,0:0:0:0:
180,244,52633,2,0,P|160:276|148:340,2,75,0|0|2,0:0|0:0|0:0,0:0:0:0:
252,228,53092,1,0,0:0:0:0:
320,264,53245,5,0,0:0:0:0:
276,204,53398,1,0,0:0:0:0:
352,192,53551,1,2,0:0:0:0:
396,252,53704,1,0,0:0:0:0:
424,184,53858,2,0,P|408:140|376:124,2,75,0|0|2,0:0|0:0|0:0,0:0:0:0:
472,240,54317,2,0,P|448:164|484:108,1,150
440,312,54776,2,0,P|408:348|324:336,1,112.5,2|0,0:0|0:0,0:0:0:0:
312,340,55083,2,0,P|264:312|192:316,1,112.5
172,320,55389,2,0,L|92:340,1,75,2|0,0:0|0:0,0:0:0:0:
20,296,55695,6,0,P|24:216|60:136,1,150,0|2,0:0|0:0,0:0:0:0:
56,148,56078,1,0,0:0:0:0:
64,144,56154,1,0,0:0:0:0:
72,140,56231,1,0,0:0:0:0:
80,140,56308,2,0,L|176:156,2,75,0|0|2,0:0|0:0|0:0,0:0:0:0:
116,220,56767,1,0,0:0:0:0:
116,220,56920,2,0,P|104:144|128:56,2,150,4|0|0,0:0|0:0|0:0,0:0:0:0:
152,284,57686,5,0,0:0:0:0:
196,224,57839,1,2,0:0:0:0:
244,340,57992,1,0,0:0:0:0:
328,192,58145,1,6,0:0:0:0:
332,188,58604,6,0,P|364:184|348:156,2,75,4|0|0,0:0|0:0|0:0,0:0:0:0:
272,104,59064,6,0,P|216:48|92:80,1,187.5,4|0,0:0|0:0,0:0:0:0:
108,96,59523,2,0,P|164:152|288:120,1,187.5,4|0,0:0|0:0,0:0:0:0:
292,168,59983,2,0,L|252:260,1,75,4|0,0:0|0:0,0:0:0:0:
444,264,60289,2,0,L|404:356,1,75,4|0,0:0|0:0,0:0:0:0:
414,332,60519,1,0,0:0:0:0:
414,332,60595,6,0,L|356:356,3,37.5,2|0|0|0,0:0|0:0|0:0|0:0,0:0:0:0:
344,332,60902,2,0,L|285:308,3,37.5,2|0|0|0,0:0|0:0|0:0|0:0,0:0:0:0:
272,324,61208,2,0,L|213:347,3,37.5,2|0|0|0,0:0|0:0|0:0|0:0,0:0:0:0:
204,324,61514,2,0,L|145:300,3,37.5,2|0|0|0,0:0|0:0|0:0|0:0,0:0:0:0:
132,320,61820,2,0,L|120:264,3,37.5,2|0|0|0,0:0|0:0|0:0|0:0,0:0:0:0:
92,264,62127,2,0,L|104:208,3,37.5,2|0|0|0,0:0|0:0|0:0|0:0,0:0:0:0:
128,204,62433,2,0,L|116:148,3,37.5,2|0|0|0,0:0|0:0|0:0|0:0,0:0:0:0:
96,140,62739,2,0,P|104:100|128:52,1,75,2|0,0:0|0:0,0:0:0:0:
188,40,63045,5,2,0:0:0:0:
256,72,63199,1,0,0:0:0:0:
332,68,63352,1,2,0:0:0:0:
404,88,63505,1,0,0:0:0:0:
476,116,63658,2,0,P|484:160|472:208,1,75,2|0,0:0|0:0,0:0:0:0:
428,244,63964,2,0,P|420:288|432:336,1,75,2|0,0:0|0:0,0:0:0:0:
488,356,64270,1,2,0:0:0:0:
488,356,64424,1,0,0:0:0:0:
344,192,64730,1,0,0:0:0:0:
172,320,65036,1,0,0:0:0:0:
128,116,65342,1,0,0:0:0:0:
132,120,65802,6,0,P|108:160|72:180,2,75,2|0|0,0:0|0:0|0:0,0:0:0:0:
200,88,66261,2,0,P|177:58|144:41,2,75,0|2|0,0:0|0:0|0:0,0:0:0:0:
196,164,66720,1,0,0:0:0:0:
264,136,66874,1,0,0:0:0:0:
264,136,66950,1,0,0:0:0:0:
264,136,67027,2,0,P|296:124|360:124,1,75,6|0,0:0|0:0,0:0:0:0:
412,192,67333,2,0,L|356:196,2,37.5
496,116,67639,1,2,0:0:0:0:
496,116,67792,1,0,0:0:0:0:
408,32,67945,6,0,L|388:72,2,37.5,6|0|0,0:0|0:0|0:0,0:0:0:0:
424,160,68252,1,2,0:0:0:0:
424,160,68405,1,0,0:0:0:0:
348,148,68558,6,0,L|328:188,2,37.5,6|0|0,0:0|0:0|0:0,0:0:0:0:
364,276,68864,1,2,0:0:0:0:
364,276,69017,1,0,0:0:0:0:
328,340,69170,5,6,0:0:0:0:
288,276,69323,1,0,0:0:0:0:
224,360,69477,1,2,0:0:0:0:
176,260,69630,1,0,0:0:0:0:
92,360,69783,1,2,0:0:0:0:
88,356,70089,1,6,0:0:0:0:
92,364,70395,6,0,P|80:344|68:280,1,75,4|0,0:0|0:0,0:0:0:0:
67,294,70625,1,0,0:0:0:0:
67,294,70702,2,0,L|80:244,3,37.5,2|0|0|0,0:0|0:0|0:0|0:0,0:0:0:0:
84,208,71008,2,0,L|71:157,3,37.5,2|0|0|0,0:0|0:0|0:0|0:0,0:0:0:0:
64,136,71314,2,0,L|76:85,3,37.5,2|0|0|0,0:0|0:0|0:0|0:0,0:0:0:0:
92,68,71620,2,0,P|140:48|220:64,1,112.5,2|0,0:0|0:0,0:0:0:0:
228,80,71927,2,0,L|288:140,1,75
281,133,72156,1,0,0:0:0:0:
281,133,72233,2,0,L|268:192,3,37.5
284,208,72539,2,0,L|297:266,3,37.5
300,280,72845,5,2,0:0:0:0:
296,284,72998,1,0,0:0:0:0:
300,288,73152,1,2,0:0:0:0:
304,284,73305,1,0,0:0:0:0:
300,280,73458,1,2,0:0:0:0:
292,284,73611,1,0,0:0:0:0:
296,292,73764,1,2,0:0:0:0:
208,340,73917,6,0,P|136:324|64:256,1,150,4|0,0:0|0:0,0:0:0:0:
48,208,74377,1,2,0:0:0:0:
100,152,74530,2,0,P|172:136|244:68,2,150,4|0|0,0:0|0:0|0:0,0:0:0:0:
92,152,75219,2,0,L|48:108,4,37.5
56,96,75602,5,4,0:0:0:0:
132,84,75755,1,0,0:0:0:0:
200,120,75908,1,2,0:0:0:0:
276,124,76061,1,0,0:0:0:0:
340,164,76214,1,2,0:0:0:0:
412,148,76367,1,0,0:0:0:0:
436,220,76520,6,0,P|449:253|464:320,2,75,4|0|2,0:0|0:0|0:0,0:0:0:0:
364,240,76980,1,0,0:0:0:0:
272,312,77133,2,0,L|324:300,2,37.5
168,252,77439,1,2,0:0:0:0:
168,252,77592,1,0,0:0:0:0:
92,352,77745,6,0,P|36:264|68:180,1,187.5,4|0,0:0|0:0,0:0:0:0:
96,184,78205,2,0,P|200:184|240:96,1,187.5,4|0,0:0|0:0,0:0:0:0:
260,88,78664,2,0,P|315:17|404:25,1,187.5,4|0,0:0|0:0,0:0:0:0:
428,56,79123,2,0,P|449:145|395:218,1,187.5,4|0,0:0|0:0,0:0:0:0:
356,224,79583,5,4,0:0:0:0:
156,160,79889,2,0,L|104:172,5,37.5,4|0|0|0|0|0,0:0|0:0|0:0|0:0|0:0|0:0,0:0:0:0:
84,176,80348,2,0,B|160:160|160:160|220:88,1,150,4|0,0:0|0:0,0:0:0:0:
356,224,80808,2,0,L|408:212,3,37.5,4|0|0|0,0:0|0:0|0:0|0:0,0:0:0:0:
424,236,81114,2,0,L|476:224,3,37.5,4|0|0|0,0:0|0:0|0:0|0:0,0:0:0:0:
492,204,81420,1,4,0:0:0:0:
496,200,81727,6,0,P|440:104|324:92,1,225,4|0,0:0|0:0,0:0:0:0:
276,136,82339,2,0,L|180:116,1,75,2|0,0:0|0:0,0:0:0:0:
96,32,82645,6,0,L|192:52,1,75,0|0,0:0|0:0,0:0:0:0:
284,152,82952,2,0,L|188:132,1,75,2|0,0:0|0:0,0:0:0:0:
60,192,83258,2,0,L|156:212,1,75,0|0,0:0|0:0,0:0:0:0:
248,312,83564,2,0,L|152:292,1,75,2|0,0:0|0:0,0:0:0:0:
110,336,83870,2,0,P|185:345|250:310,1,150,2|0,0:0|0:0,0:0:0:0:
316,344,84330,2,0,P|248:304|204:224,1,150
188,172,84789,1,2,0:0:0:0:
188,172,84942,1,0,0:0:0:0:
73,47,85095,6,0,L|104:116,1,75
256,103,85401,2,0,L|256:28,1,75,2|0,0:0|0:0,0:0:0:0:
438,47,85708,2,0,L|408:116,1,75
376,184,86014,1,2,0:0:0:0:
296,124,86167,1,0,0:0:0:0:
256,256,86320,1,4,0:0:0:0:
256,248,86626,1,2,0:0:0:0:
256,240,86933,2,0,P|224:260|160:280,1,75
116,276,87239,2,0,P|81:262|49:242,1,75,2|0,0:0|0:0,0:0:0:0:
12,176,87545,6,0,L|32:140,3,37.5,2|0|0|0,0:0|0:0|0:0|0:0,0:0:0:0:
60,164,87851,2,0,L|80:128,3,37.5,2|0|0|0,0:0|0:0|0:0|0:0,0:0:0:0:
108,156,88158,2,0,L|128:120,3,37.5,2|0|0|0,0:0|0:0|0:0|0:0,0:0:0:0:
160,144,88464,2,0,B|176:108|176:108|224:56,1,75
256,32,88770,5,4,0:0:0:0:
288,100,88923,1,0,0:0:0:0:
344,20,89076,1,2,0:0:0:0:
384,136,89230,1,0,0:0:0:0:
440,44,89383,2,0,L|464:72,3,37.5,4|0|0|0,0:0|0:0|0:0|0:0,0:0:0:0:
476,108,89689,5,2,0:0:0:0:
444,284,89842,1,0,0:0:0:0:
288,192,89995,1,4,0:0:0:0:
280,188,90301,5,2,0:0:0:0:
104,124,90455,1,0,0:0:0:0:
196,224,90608,2,0,L|220:272,3,37.5,2|0|0|0,0:0|0:0|0:0|0:0,0:0:0:0:
176,272,90914,2,0,L|220:276,3,37.5,2|0|0|0,0:0|0:0|0:0|0:0,0:0:0:0:
248,292,91220,6,0,P|288:284|332:256,2,75,0|0|2,0:0|0:0|0:0,0:0:0:0:
192,344,91680,2,0,P|272:308|360:316,2,150
120,324,92445,5,0,0:0:0:0:
80,260,92598,1,0,0:0:0:0:
104,188,92751,2,0,P|112:136|96:96,1,75,2|0,0:0|0:0,0:0:0:0:
64,52,93058,2,0,L|16:24,3,37.5,0|0|0|0,0:0|0:0|0:0|0:0,0:0:0:0:
64,52,93364,2,0,P|104:40|152:56,1,75,2|0,0:0|0:0,0:0:0:0:
188,100,93670,6,0,P|224:96|280:72,2,75,0|0|2,0:0|0:0|0:0,0:0:0:0:
116,116,94130,2,0,P|188:136|240:200,2,150
28,188,94895,6,0,P|12:217|4:268,1,75
120,332,95201,2,0,L|76:256,1,75,2|0,0:0|0:0,0:0:0:0:
108,196,95508,1,0,0:0:0:0:
108,196,95584,1,0,0:0:0:0:
108,196,95661,2,0,P|148:188|200:192,2,75,0|2|0,0:0|0:0|0:0,0:0:0:0:
200,272,96120,6,0,P|248:288|296:272,2,75,0|0|2,0:0|0:0|0:0,0:0:0:0:
248,212,96580,2,0,P|260:288|248:368,2,150
224,140,97345,1,2,0:0:0:0:
220,132,97422,1,0,0:0:0:0:
216,124,97498,1,0,0:0:0:0:
212,116,97575,1,0,0:0:0:0:
208,108,97651,2,0,L|208:56,3,37.5,2|0|0|0,0:0|0:0|0:0|0:0,0:0:0:0:
176,88,97958,2,0,L|148:48,3,37.5,2|0|0|0,0:0|0:0|0:0|0:0,0:0:0:0:
132,88,98264,2,0,P|76:96|40:116,1,75,2|0,0:0|0:0,0:0:0:0:
68,232,98570,6,0,P|48:260|28:304,2,75,0|0|2,0:0|0:0|0:0,0:0:0:0:
140,212,99029,2,0,P|52:224|-8:260,2,150
216,212,99795,5,2,0:0:0:0:
256,276,99948,1,0,0:0:0:0:
304,132,100101,1,6,0:0:0:0:
352,304,100254,1,0,0:0:0:0:
424,184,100408,2,0,L|444:104,2,75,2|0|2,0:0|0:0|0:0,0:0:0:0:
453,252,100867,2,0,L|424:184,1,75,4|0,0:0|0:0,0:0:0:0:
