osu file format v14

[General]
AudioFilename: ginkiha - borealis.mp3
AudioLeadIn: 0
PreviewTime: 71634
Countdown: 0
SampleSet: Soft
StackLeniency: 0.7
Mode: 3
LetterboxInBreaks: 0
SpecialStyle: 0
WidescreenStoryboard: 0

[Editor]
DistanceSpacing: 0.8
BeatDivisor: 4
GridSize: 4
TimelineZoom: 1.6

[Metadata]
Title:Borealis
TitleUnicode:Borealis
Artist:ginkiha
ArtistUnicode:ginkiha
Creator:erlinadewi-
Version:ADVANCED
Source:SOUND VOLTEX III GRAVITY WARS
Tags:SDVX 3 制作決定記念 オリジナル楽曲コンテスト Production Confirmation Commemorative Original Song Contest EOS sequel KONAMI BEMANI Arcade Championship -bangke- ALfarris
BeatmapID:774742
BeatmapSetID:351521

[Difficulty]
HPDrainRate:7.5
CircleSize:4
OverallDifficulty:7.5
ApproachRate:5
SliderMultiplier:1.5
SliderTickRate:1

[Events]
//Background and Video events
0,0,"BG.jpg",0,0
//Break Periods
//Storyboard Layer 0 (Background)
//Storyboard Layer 1 (Fail)
//Storyboard Layer 2 (Pass)
//Storyboard Layer 3 (Foreground)
//Storyboard Sound Samples

[TimingPoints]
614,306.122448979592,4,2,1,25,1,0
71940,-100,4,2,1,25,0,1
91226,-100,4,2,1,25,0,0

[HitObjects]
448,192,614,5,4,0:0:0:0:
64,192,767,1,0,0:0:0:0:
320,192,920,1,0,0:0:0:0:
192,192,1073,1,0,0:0:0:0:
448,192,1226,1,0,0:0:0:0:
192,192,1379,1,0,0:0:0:0:
320,192,1532,1,0,0:0:0:0:
64,192,1685,1,0,0:0:0:0:
448,192,1838,1,0,0:0:0:0:
64,192,1991,1,0,0:0:0:0:
192,192,2144,1,0,0:0:0:0:
320,192,2297,1,0,0:0:0:0:
448,192,2450,1,0,0:0:0:0:
320,192,2603,1,0,0:0:0:0:
192,192,2756,1,0,0:0:0:0:
64,192,2909,1,0,0:0:0:0:
320,192,3062,1,0,0:0:0:0:
192,192,3216,1,0,0:0:0:0:
64,192,3369,1,0,0:0:0:0:
448,192,3522,1,0,0:0:0:0:
320,192,3675,1,0,0:0:0:0:
192,192,3828,1,0,0:0:0:0:
320,192,3981,1,0,0:0:0:0:
448,192,4134,1,0,0:0:0:0:
64,192,4287,1,0,0:0:0:0:
448,192,4440,1,0,0:0:0:0:
320,192,4593,1,0,0:0:0:0:
192,192,4746,1,0,0:0:0:0:
64,192,4899,1,0,0:0:0:0:
320,192,5052,1,0,0:0:0:0:
192,192,5205,1,0,0:0:0:0:
64,192,5358,1,0,0:0:0:0:
448,192,5511,5,0,0:0:0:0:
64,192,5665,1,0,0:0:0:0:
320,192,5818,1,0,0:0:0:0:
192,192,5971,1,0,0:0:0:0:
448,192,6124,1,0,0:0:0:0:
192,192,6277,1,0,0:0:0:0:
320,192,6430,1,0,0:0:0:0:
64,192,6583,1,0,0:0:0:0:
448,192,6736,1,0,0:0:0:0:
64,192,6889,1,0,0:0:0:0:
192,192,7042,1,0,0:0:0:0:
320,192,7195,1,0,0:0:0:0:
448,192,7348,1,0,0:0:0:0:
320,192,7501,1,0,0:0:0:0:
192,192,7654,1,0,0:0:0:0:
64,192,7807,1,0,0:0:0:0:
320,192,7960,1,0,0:0:0:0:
192,192,8114,1,0,0:0:0:0:
64,192,8267,1,0,0:0:0:0:
448,192,8420,1,0,0:0:0:0:
320,192,8573,1,0,0:0:0:0:
192,192,8726,1,0,0:0:0:0:
320,192,8879,1,0,0:0:0:0:
448,192,9032,1,0,0:0:0:0:
64,192,9185,1,0,0:0:0:0:
448,192,9338,1,0,0:0:0:0:
320,192,9491,1,0,0:0:0:0:
192,192,9644,1,0,0:0:0:0:
64,192,9797,1,8,0:0:0:0:
192,192,9874,1,8,0:0:0:0:
320,192,9950,1,8,0:0:0:0:
448,192,10027,1,0,0:0:0:0:
192,192,10103,1,8,0:0:0:0:
192,192,10256,1,8,0:0:0:0:
64,192,10409,1,2,0:0:0:0:
448,192,10409,1,0,0:0:0:0:
320,192,10409,1,4,0:0:0:0:
192,192,10562,1,0,0:0:0:0:
320,192,10716,1,2,0:0:0:0:
448,192,10716,1,8,0:0:0:0:
64,192,10869,1,0,0:0:0:0:
320,192,11022,1,0,0:0:0:0:
192,192,11022,1,2,0:0:0:0:
448,192,11175,1,0,0:0:0:0:
192,192,11328,1,8,0:0:0:0:
64,192,11328,1,2,0:0:0:0:
320,192,11481,1,0,0:0:0:0:
448,192,11634,1,0,0:0:0:0:
64,192,11634,1,2,0:0:0:0:
192,192,11787,1,0,0:0:0:0:
448,192,11940,1,2,0:0:0:0:
320,192,11940,1,8,0:0:0:0:
192,192,12093,1,0,0:0:0:0:
448,192,12246,1,0,0:0:0:0:
64,192,12246,1,2,0:0:0:0:
320,192,12399,1,0,0:0:0:0:
192,192,12552,1,2,0:0:0:0:
448,192,12552,1,8,0:0:0:0:
64,192,12705,1,0,0:0:0:0:
192,192,12858,1,2,0:0:0:0:
320,192,12858,1,0,0:0:0:0:
64,192,13011,1,0,0:0:0:0:
448,192,13165,1,8,0:0:0:0:
192,192,13165,1,2,0:0:0:0:
320,192,13318,1,0,0:0:0:0:
64,192,13471,1,2,0:0:0:0:
192,192,13471,1,0,0:0:0:0:
448,192,13624,1,0,0:0:0:0:
192,192,13777,1,2,0:0:0:0:
320,192,13777,1,8,0:0:0:0:
64,192,13930,1,0,0:0:0:0:
448,192,14083,1,0,0:0:0:0:
192,192,14083,1,2,0:0:0:0:
320,192,14236,1,0,0:0:0:0:
64,192,14389,1,2,0:0:0:0:
192,192,14389,1,8,0:0:0:0:
448,192,14542,1,0,0:0:0:0:
64,192,14695,1,2,0:0:0:0:
320,192,14695,1,0,0:0:0:0:
192,192,14848,1,0,0:0:0:0:
64,192,15001,1,2,0:0:0:0:
448,192,15001,1,8,0:0:0:0:
192,192,15154,1,0,0:0:0:0:
320,192,15154,1,2,0:0:0:0:
448,192,15307,1,2,0:0:0:0:
64,192,15307,1,0,0:0:0:0:
320,192,15460,1,0,0:0:0:0:
64,192,15614,1,2,0:0:0:0:
192,192,15614,1,8,0:0:0:0:
448,192,15767,1,0,0:0:0:0:
64,192,15920,1,2,0:0:0:0:
320,192,15920,1,0,0:0:0:0:
192,192,16073,1,0,0:0:0:0:
448,192,16226,1,8,0:0:0:0:
64,192,16226,1,2,0:0:0:0:
320,192,16379,1,0,0:0:0:0:
192,192,16532,1,2,0:0:0:0:
64,192,16532,1,0,0:0:0:0:
448,192,16685,1,0,0:0:0:0:
320,192,16838,1,8,0:0:0:0:
64,192,16838,1,2,0:0:0:0:
192,192,16991,1,0,0:0:0:0:
448,192,17144,1,0,0:0:0:0:
64,192,17144,1,2,0:0:0:0:
192,192,17297,1,0,0:0:0:0:
64,192,17450,1,8,0:0:0:0:
320,192,17450,1,2,0:0:0:0:
448,192,17603,1,0,0:0:0:0:
64,192,17756,1,2,0:0:0:0:
192,192,17756,1,0,0:0:0:0:
320,192,17909,1,0,0:0:0:0:
448,192,18062,1,2,0:0:0:0:
192,192,18062,1,8,0:0:0:0:
320,192,18216,1,0,0:0:0:0:
64,192,18369,1,2,0:0:0:0:
448,192,18369,1,0,0:0:0:0:
320,192,18522,1,0,0:0:0:0:
64,192,18675,1,2,0:0:0:0:
192,192,18675,1,8,0:0:0:0:
320,192,18828,1,0,0:0:0:0:
448,192,18981,1,0,0:0:0:0:
64,192,18981,1,2,0:0:0:0:
192,192,19134,1,0,0:0:0:0:
64,192,19287,1,8,0:0:0:0:
320,192,19287,1,2,0:0:0:0:
448,192,19440,1,0,0:0:0:0:
320,192,19593,1,0,0:0:0:0:
192,192,19593,1,2,0:0:0:0:
64,192,19593,128,0,20205:0:0:0:0:
192,192,19746,1,0,0:0:0:0:
448,192,19899,1,8,0:0:0:0:
320,192,19899,1,2,0:0:0:0:
448,192,20052,1,0,0:0:0:0:
320,192,20052,1,2,0:0:0:0:
448,192,20205,1,4,0:0:0:0:
192,192,20205,1,2,0:0:0:0:
64,192,20358,1,0,0:0:0:0:
320,192,20511,1,8,0:0:0:0:
448,192,20511,1,2,0:0:0:0:
192,192,20665,1,0,0:0:0:0:
320,192,20818,1,0,0:0:0:0:
64,192,20818,1,2,0:0:0:0:
192,192,20971,1,0,0:0:0:0:
448,192,21124,1,8,0:0:0:0:
64,192,21124,1,2,0:0:0:0:
320,192,21277,1,0,0:0:0:0:
192,192,21430,1,0,0:0:0:0:
64,192,21430,1,2,0:0:0:0:
320,192,21583,1,0,0:0:0:0:
448,192,21736,1,8,0:0:0:0:
192,192,21736,1,2,0:0:0:0:
320,192,21889,1,0,0:0:0:0:
448,192,22042,1,0,0:0:0:0:
64,192,22042,1,2,0:0:0:0:
192,192,22195,1,0,0:0:0:0:
64,192,22348,1,2,0:0:0:0:
448,192,22348,1,8,0:0:0:0:
192,192,22501,1,0,0:0:0:0:
64,192,22654,128,0,23879:0:0:0:0:
448,192,22654,1,2,0:0:0:0:
192,192,22807,1,0,0:0:0:0:
320,192,22960,1,2,0:0:0:0:
448,192,23114,1,0,0:0:0:0:
192,192,23267,1,2,0:0:0:0:
448,192,23420,1,0,0:0:0:0:
192,192,23573,1,2,0:0:0:0:
320,192,23726,1,0,0:0:0:0:
192,192,23879,128,0,24491:0:0:0:0:
448,192,23879,1,2,0:0:0:0:
64,192,24032,1,0,0:0:0:0:
320,192,24185,1,2,0:0:0:0:
64,192,24338,1,0,0:0:0:0:
448,192,24491,128,0,24797:0:0:0:0:
320,192,24491,1,2,0:0:0:0:
192,192,24644,1,0,0:0:0:0:
64,192,24797,128,8,25103:0:0:0:0:
320,192,24797,1,2,0:0:0:0:
320,192,24950,1,2,0:0:0:0:
192,192,25103,1,2,0:0:0:0:
448,192,25256,1,0,0:0:0:0:
64,192,25409,1,8,0:0:0:0:
192,192,25409,1,2,0:0:0:0:
320,192,25562,1,0,0:0:0:0:
448,192,25716,1,0,0:0:0:0:
64,192,25716,1,2,0:0:0:0:
192,192,25869,1,0,0:0:0:0:
320,192,26022,1,2,0:0:0:0:
448,192,26022,1,8,0:0:0:0:
64,192,26175,1,0,0:0:0:0:
320,192,26328,1,0,0:0:0:0:
192,192,26328,1,2,0:0:0:0:
448,192,26481,1,0,0:0:0:0:
64,192,26634,1,2,0:0:0:0:
320,192,26634,1,8,0:0:0:0:
192,192,26787,1,0,0:0:0:0:
448,192,26940,1,0,0:0:0:0:
320,192,26940,1,2,0:0:0:0:
192,192,27093,1,0,0:0:0:0:
320,192,27246,1,8,0:0:0:0:
64,192,27246,1,2,0:0:0:0:
192,192,27399,1,0,0:0:0:0:
448,192,27552,1,2,0:0:0:0:
64,192,27552,128,0,28777:0:0:0:0:
192,192,27705,1,0,0:0:0:0:
320,192,27858,1,2,0:0:0:0:
448,192,28011,1,0,0:0:0:0:
192,192,28165,1,2,0:0:0:0:
448,192,28318,1,0,0:0:0:0:
320,192,28471,1,2,0:0:0:0:
192,192,28624,1,0,0:0:0:0:
448,192,28777,128,0,29389:0:0:0:0:
320,192,28777,1,2,0:0:0:0:
192,192,28930,1,0,0:0:0:0:
64,192,29083,1,2,0:0:0:0:
192,192,29236,1,0,0:0:0:0:
64,192,29389,1,2,0:0:0:0:
192,192,29466,1,2,0:0:0:0:
448,192,29542,1,8,0:0:0:0:
320,192,29619,1,8,0:0:0:0:
192,192,29695,1,2,0:0:0:0:
64,192,29695,1,8,0:0:0:0:
64,192,29848,1,2,0:0:0:0:
192,192,29848,1,0,0:0:0:0:
448,192,30001,128,4,31226:0:0:0:0:
320,192,30001,1,2,0:0:0:0:
64,192,30307,128,0,31226:0:0:0:0:
320,192,31226,1,2,0:0:0:0:
192,192,31226,1,4,0:0:0:0:
448,192,31838,1,8,0:0:0:0:
320,192,31915,1,8,0:0:0:0:
64,192,31991,1,2,0:0:0:0:
192,192,32068,1,2,0:0:0:0:
448,192,32144,1,8,0:0:0:0:
320,192,32221,1,8,0:0:0:0:
192,192,32297,1,8,0:0:0:0:
64,192,32374,1,8,0:0:0:0:
320,192,32450,1,4,0:0:0:0:
448,192,32450,1,2,0:0:0:0:
192,192,32603,1,0,0:0:0:0:
64,192,32756,1,2,0:0:0:0:
320,192,32756,1,8,0:0:0:0:
448,192,32909,1,0,0:0:0:0:
320,192,33062,1,2,0:0:0:0:
64,192,33216,1,0,0:0:0:0:
448,192,33369,1,8,0:0:0:0:
192,192,33369,1,2,0:0:0:0:
320,192,33522,1,0,0:0:0:0:
64,192,33675,1,2,0:0:0:0:
192,192,33828,1,0,0:0:0:0:
64,192,33981,1,2,0:0:0:0:
320,192,33981,1,8,0:0:0:0:
448,192,34134,1,0,0:0:0:0:
448,192,34287,1,2,0:0:0:0:
192,192,34287,1,0,0:0:0:0:
64,192,34440,1,0,0:0:0:0:
448,192,34593,1,2,0:0:0:0:
64,192,34593,1,8,0:0:0:0:
448,192,34746,1,0,0:0:0:0:
192,192,34899,1,2,0:0:0:0:
320,192,35052,1,0,0:0:0:0:
192,192,35205,1,2,0:0:0:0:
448,192,35205,1,8,0:0:0:0:
64,192,35358,1,0,0:0:0:0:
192,192,35511,1,2,0:0:0:0:
320,192,35665,1,0,0:0:0:0:
64,192,35818,1,2,0:0:0:0:
192,192,35818,1,8,0:0:0:0:
448,192,35971,1,0,0:0:0:0:
320,192,36124,1,2,0:0:0:0:
192,192,36277,1,0,0:0:0:0:
320,192,36430,1,8,0:0:0:0:
448,192,36430,1,2,0:0:0:0:
64,192,36583,1,0,0:0:0:0:
448,192,36736,1,2,0:0:0:0:
192,192,36736,1,0,0:0:0:0:
448,192,36889,1,0,0:0:0:0:
320,192,37042,1,8,0:0:0:0:
64,192,37042,1,2,0:0:0:0:
64,192,37195,1,2,0:0:0:0:
448,192,37348,1,2,0:0:0:0:
320,192,37501,1,0,0:0:0:0:
192,192,37654,1,2,0:0:0:0:
448,192,37654,1,8,0:0:0:0:
64,192,37807,1,0,0:0:0:0:
192,192,37960,1,2,0:0:0:0:
320,192,38114,1,0,0:0:0:0:
64,192,38267,1,2,0:0:0:0:
448,192,38267,1,8,0:0:0:0:
192,192,38420,1,0,0:0:0:0:
320,192,38573,1,2,0:0:0:0:
448,192,38726,1,0,0:0:0:0:
64,192,38879,1,2,0:0:0:0:
320,192,38879,1,8,0:0:0:0:
192,192,39032,1,0,0:0:0:0:
320,192,39185,1,2,0:0:0:0:
64,192,39185,1,0,0:0:0:0:
448,192,39338,1,0,0:0:0:0:
64,192,39491,1,2,0:0:0:0:
448,192,39491,1,8,0:0:0:0:
64,192,39644,1,0,0:0:0:0:
448,192,39797,1,2,0:0:0:0:
192,192,39950,1,0,0:0:0:0:
320,192,40103,1,8,0:0:0:0:
64,192,40103,1,2,0:0:0:0:
448,192,40256,1,0,0:0:0:0:
320,192,40409,1,2,0:0:0:0:
192,192,40562,1,0,0:0:0:0:
64,192,40716,1,2,0:0:0:0:
448,192,40716,1,8,0:0:0:0:
320,192,40869,1,0,0:0:0:0:
192,192,41022,1,2,0:0:0:0:
448,192,41175,1,0,0:0:0:0:
64,192,41328,1,2,0:0:0:0:
320,192,41328,1,8,0:0:0:0:
64,192,41481,1,0,0:0:0:0:
448,192,41634,1,2,0:0:0:0:
192,192,41634,1,0,0:0:0:0:
192,192,41787,1,2,0:0:0:0:
320,192,41940,1,0,0:0:0:0:
64,192,41940,1,2,0:0:0:0:
448,192,42093,1,2,0:0:0:0:
320,192,42246,1,2,0:0:0:0:
64,192,42246,128,4,42399:0:0:0:0:
192,192,42399,128,0,42552:0:0:0:0:
448,192,42552,128,8,42705:0:0:0:0:
320,192,42552,1,2,0:0:0:0:
192,192,42705,1,0,0:0:0:0:
64,192,42858,128,0,43011:0:0:0:0:
320,192,42858,1,2,0:0:0:0:
448,192,43011,128,0,43165:0:0:0:0:
64,192,43165,1,2,0:0:0:0:
192,192,43165,128,8,43318:0:0:0:0:
320,192,43318,128,0,43471:0:0:0:0:
64,192,43471,1,2,0:0:0:0:
192,192,43624,128,0,43777:0:0:0:0:
320,192,43777,128,2,43930:0:0:0:0:
448,192,43777,1,8,0:0:0:0:
64,192,43930,128,0,44083:0:0:0:0:
448,192,44083,1,2,0:0:0:0:
320,192,44083,1,0,0:0:0:0:
192,192,44236,128,0,44389:0:0:0:0:
320,192,44389,128,2,44542:0:0:0:0:
448,192,44389,1,8,0:0:0:0:
64,192,44542,128,0,44695:0:0:0:0:
192,192,44695,1,2,0:0:0:0:
448,192,44695,128,0,44848:0:0:0:0:
320,192,44848,128,0,45001:0:0:0:0:
64,192,45001,128,2,45154:0:0:0:0:
192,192,45001,1,8,0:0:0:0:
448,192,45154,128,0,45307:0:0:0:0:
320,192,45307,128,0,45460:0:0:0:0:
192,192,45307,1,2,0:0:0:0:
64,192,45460,128,0,45614:0:0:0:0:
192,192,45614,128,2,45767:0:0:0:0:
448,192,45614,1,8,0:0:0:0:
320,192,45767,128,0,45920:0:0:0:0:
448,192,45920,1,2,0:0:0:0:
192,192,45920,1,0,0:0:0:0:
64,192,46073,128,0,46226:0:0:0:0:
320,192,46226,1,8,0:0:0:0:
192,192,46226,1,2,0:0:0:0:
448,192,46379,128,0,46532:0:0:0:0:
64,192,46532,1,2,0:0:0:0:
192,192,46532,128,0,46685:0:0:0:0:
320,192,46685,128,0,46838:0:0:0:0:
64,192,46838,128,8,46991:0:0:0:0:
448,192,46838,1,2,0:0:0:0:
448,192,46991,128,0,47144:0:0:0:0:
192,192,46991,1,2,0:0:0:0:
64,192,47144,128,0,47297:0:0:0:0:
320,192,47144,1,2,0:0:0:0:
192,192,47297,128,0,47450:0:0:0:0:
64,192,47450,1,8,0:0:0:0:
320,192,47450,128,2,47603:0:0:0:0:
448,192,47603,1,0,0:0:0:0:
192,192,47756,128,0,47909:0:0:0:0:
64,192,47756,1,2,0:0:0:0:
448,192,47909,128,0,48062:0:0:0:0:
64,192,48062,128,2,48216:0:0:0:0:
320,192,48062,1,8,0:0:0:0:
448,192,48216,128,0,48369:0:0:0:0:
192,192,48369,1,2,0:0:0:0:
320,192,48522,128,0,48675:0:0:0:0:
64,192,48675,128,8,48828:0:0:0:0:
448,192,48675,1,2,0:0:0:0:
320,192,48828,128,0,48981:0:0:0:0:
192,192,48981,1,2,0:0:0:0:
64,192,48981,1,0,0:0:0:0:
448,192,49134,128,0,49287:0:0:0:0:
192,192,49287,128,2,49440:0:0:0:0:
320,192,49287,1,8,0:0:0:0:
64,192,49440,128,0,49593:0:0:0:0:
448,192,49593,128,0,49746:0:0:0:0:
192,192,49593,1,2,0:0:0:0:
320,192,49746,128,0,49899:0:0:0:0:
192,192,49899,128,8,50052:0:0:0:0:
64,192,49899,1,2,0:0:0:0:
320,192,50052,128,0,50205:0:0:0:0:
64,192,50205,128,0,50358:0:0:0:0:
448,192,50205,1,2,0:0:0:0:
192,192,50358,128,0,50511:0:0:0:0:
448,192,50511,128,8,50665:0:0:0:0:
320,192,50511,1,2,0:0:0:0:
64,192,50665,128,0,50818:0:0:0:0:
192,192,50818,1,2,0:0:0:0:
320,192,50818,1,0,0:0:0:0:
320,192,50971,128,0,51124:0:0:0:0:
192,192,51124,128,8,51277:0:0:0:0:
448,192,51124,1,2,0:0:0:0:
64,192,51277,128,0,51430:0:0:0:0:
320,192,51430,1,2,0:0:0:0:
448,192,51506,1,8,0:0:0:0:
320,192,51583,1,8,0:0:0:0:
192,192,51659,1,8,0:0:0:0:
64,192,51736,1,2,0:0:0:0:
448,192,51736,1,8,0:0:0:0:
320,192,51889,1,2,0:0:0:0:
448,192,51889,1,8,0:0:0:0:
64,192,52042,1,2,0:0:0:0:
320,192,52042,1,4,0:0:0:0:
192,192,52042,1,0,0:0:0:0:
448,192,52195,1,0,0:0:0:0:
320,192,52348,1,8,0:0:0:0:
192,192,52348,1,2,0:0:0:0:
64,192,52501,1,0,0:0:0:0:
320,192,52654,1,0,0:0:0:0:
192,192,52807,1,2,0:0:0:0:
448,192,52960,1,8,0:0:0:0:
64,192,52960,1,2,0:0:0:0:
192,192,53114,1,0,0:0:0:0:
320,192,53190,1,0,0:0:0:0:
448,192,53267,1,0,0:0:0:0:
192,192,53267,1,2,0:0:0:0:
64,192,53420,1,0,0:0:0:0:
320,192,53573,1,8,0:0:0:0:
448,192,53573,1,2,0:0:0:0:
192,192,53726,1,0,0:0:0:0:
448,192,53879,1,0,0:0:0:0:
64,192,54032,1,2,0:0:0:0:
320,192,54185,1,8,0:0:0:0:
448,192,54185,1,2,0:0:0:0:
192,192,54338,1,0,0:0:0:0:
64,192,54491,1,2,0:0:0:0:
320,192,54491,1,0,0:0:0:0:
192,192,54644,1,0,0:0:0:0:
64,192,54797,1,8,0:0:0:0:
448,192,54797,1,2,0:0:0:0:
320,192,54950,1,0,0:0:0:0:
192,192,55103,1,0,0:0:0:0:
320,192,55256,1,2,0:0:0:0:
192,192,55409,1,2,0:0:0:0:
64,192,55409,1,8,0:0:0:0:
448,192,55562,1,0,0:0:0:0:
320,192,55639,1,0,0:0:0:0:
192,192,55716,1,2,0:0:0:0:
448,192,55716,1,0,0:0:0:0:
64,192,55869,1,0,0:0:0:0:
448,192,56022,1,2,0:0:0:0:
320,192,56022,1,8,0:0:0:0:
192,192,56175,1,0,0:0:0:0:
64,192,56328,1,0,0:0:0:0:
320,192,56481,1,2,0:0:0:0:
448,192,56557,1,0,0:0:0:0:
64,192,56634,1,8,0:0:0:0:
192,192,56634,1,2,0:0:0:0:
320,192,56787,1,0,0:0:0:0:
448,192,56940,1,0,0:0:0:0:
64,192,56940,1,2,0:0:0:0:
192,192,57093,1,0,0:0:0:0:
64,192,57246,1,8,0:0:0:0:
320,192,57246,1,2,0:0:0:0:
448,192,57399,1,0,0:0:0:0:
192,192,57552,1,0,0:0:0:0:
320,192,57705,1,2,0:0:0:0:
64,192,57858,1,8,0:0:0:0:
448,192,57858,1,2,0:0:0:0:
192,192,58011,1,0,0:0:0:0:
320,192,58088,1,0,0:0:0:0:
448,192,58165,1,0,0:0:0:0:
64,192,58165,1,2,0:0:0:0:
192,192,58318,1,0,0:0:0:0:
448,192,58471,1,2,0:0:0:0:
320,192,58471,1,8,0:0:0:0:
192,192,58624,1,0,0:0:0:0:
64,192,58777,1,0,0:0:0:0:
448,192,58930,1,2,0:0:0:0:
320,192,59006,1,0,0:0:0:0:
448,192,59083,1,2,0:0:0:0:
192,192,59083,1,8,0:0:0:0:
64,192,59236,1,0,0:0:0:0:
320,192,59389,1,2,0:0:0:0:
448,192,59389,1,0,0:0:0:0:
192,192,59542,1,0,0:0:0:0:
320,192,59695,1,2,0:0:0:0:
64,192,59695,1,8,0:0:0:0:
192,192,59848,1,0,0:0:0:0:
64,192,60001,1,0,0:0:0:0:
320,192,60154,1,2,0:0:0:0:
448,192,60307,1,2,0:0:0:0:
192,192,60307,1,8,0:0:0:0:
320,192,60460,1,0,0:0:0:0:
192,192,60537,1,0,0:0:0:0:
448,192,60614,1,0,0:0:0:0:
64,192,60614,1,2,0:0:0:0:
192,192,60767,1,0,0:0:0:0:
320,192,60920,1,2,0:0:0:0:
64,192,60920,1,8,0:0:0:0:
448,192,61073,1,0,0:0:0:0:
320,192,61226,1,0,0:0:0:0:
192,192,61379,1,2,0:0:0:0:
320,192,61455,1,0,0:0:0:0:
64,192,61532,1,2,0:0:0:0:
192,192,61532,1,8,0:0:0:0:
448,192,61685,1,0,0:0:0:0:
64,192,61838,5,4,0:0:0:0:
192,192,61838,1,2,0:0:0:0:
320,192,61838,1,0,0:0:0:0:
320,192,62144,1,8,0:0:0:0:
448,192,62144,1,0,0:0:0:0:
192,192,62144,1,2,0:0:0:0:
64,192,62450,1,2,0:0:0:0:
320,192,62450,1,0,0:0:0:0:
192,192,62756,1,8,0:0:0:0:
64,192,62756,1,2,0:0:0:0:
448,192,62756,1,0,0:0:0:0:
448,192,63062,1,0,0:0:0:0:
192,192,63062,1,2,0:0:0:0:
320,192,63369,1,8,0:0:0:0:
448,192,63369,1,0,0:0:0:0:
64,192,63369,1,2,0:0:0:0:
192,192,63675,1,2,0:0:0:0:
320,192,63675,1,0,0:0:0:0:
192,192,63981,1,8,0:0:0:0:
64,192,63981,1,2,0:0:0:0:
448,192,63981,1,0,0:0:0:0:
64,192,64287,1,2,0:0:0:0:
320,192,64287,1,0,0:0:0:0:
448,192,64593,1,0,0:0:0:0:
192,192,64593,1,8,0:0:0:0:
64,192,64593,1,2,0:0:0:0:
320,192,64899,1,0,0:0:0:0:
64,192,64899,1,2,0:0:0:0:
192,192,65205,1,2,0:0:0:0:
320,192,65205,1,8,0:0:0:0:
448,192,65205,1,0,0:0:0:0:
192,192,65511,1,2,0:0:0:0:
448,192,65511,1,0,0:0:0:0:
320,192,65818,1,8,0:0:0:0:
448,192,65818,1,0,0:0:0:0:
64,192,65818,1,2,0:0:0:0:
320,192,66124,1,0,0:0:0:0:
192,192,66124,1,2,0:0:0:0:
320,192,66430,1,8,0:0:0:0:
448,192,66430,1,0,0:0:0:0:
192,192,66430,1,2,0:0:0:0:
64,192,66736,1,2,0:0:0:0:
192,192,66736,1,0,0:0:0:0:
320,192,66889,1,2,0:0:0:0:
448,192,66889,1,0,0:0:0:0:
320,192,67042,1,8,0:0:0:0:
64,192,67042,1,2,0:0:0:0:
448,192,67195,1,2,0:0:0:0:
192,192,67195,1,0,0:0:0:0:
64,192,67348,1,2,0:0:0:0:
192,192,67348,1,0,0:0:0:0:
320,192,67501,1,2,0:0:0:0:
448,192,67501,1,0,0:0:0:0:
320,192,67654,1,8,0:0:0:0:
64,192,67654,1,2,0:0:0:0:
448,192,67807,1,2,0:0:0:0:
192,192,67807,1,0,0:0:0:0:
64,192,67960,1,2,0:0:0:0:
192,192,67960,1,0,0:0:0:0:
320,192,68114,1,2,0:0:0:0:
448,192,68114,1,0,0:0:0:0:
64,192,68267,1,8,0:0:0:0:
320,192,68267,1,2,0:0:0:0:
448,192,68420,1,2,0:0:0:0:
192,192,68420,1,0,0:0:0:0:
192,192,68573,1,0,0:0:0:0:
64,192,68573,1,2,0:0:0:0:
320,192,68726,1,2,0:0:0:0:
448,192,68726,1,0,0:0:0:0:
192,192,68879,1,8,0:0:0:0:
448,192,68879,1,2,0:0:0:0:
64,192,69032,1,2,0:0:0:0:
320,192,69032,1,0,0:0:0:0:
448,192,69185,1,2,0:0:0:0:
320,192,69261,1,2,0:0:0:0:
192,192,69338,1,2,0:0:0:0:
64,192,69415,1,2,0:0:0:0:
448,192,69491,1,8,0:0:0:0:
320,192,69568,1,2,0:0:0:0:
192,192,69644,1,2,0:0:0:0:
64,192,69721,1,2,0:0:0:0:
320,192,69797,1,2,0:0:0:0:
448,192,69874,1,2,0:0:0:0:
192,192,69950,1,2,0:0:0:0:
64,192,70027,1,2,0:0:0:0:
320,192,70103,1,8,0:0:0:0:
448,192,70180,1,2,0:0:0:0:
192,192,70256,1,2,0:0:0:0:
64,192,70333,1,2,0:0:0:0:
448,192,70409,1,0,0:0:0:0:
64,192,70562,1,0,0:0:0:0:
320,192,70716,1,0,0:0:0:0:
192,192,70869,1,0,0:0:0:0:
64,192,71022,1,8,0:0:0:0:
192,192,71098,1,0,0:0:0:0:
320,192,71175,1,2,0:0:0:0:
448,192,71251,1,0,0:0:0:0:
64,192,71328,1,2,0:0:0:0:
192,192,71404,1,0,0:0:0:0:
320,192,71481,1,2,0:0:0:0:
448,192,71557,1,0,0:0:0:0:
64,192,71634,1,2,0:0:0:0:
192,192,71634,1,0,0:0:0:0:
192,192,71940,1,2,0:0:0:0:
448,192,71940,128,0,72093:0:0:0:0:
320,192,71940,1,4,0:0:0:0:
64,192,72093,128,0,72246:0:0:0:0:
448,192,72246,1,2,0:0:0:0:
320,192,72246,128,8,72399:0:0:0:0:
192,192,72399,128,0,72552:0:0:0:0:
320,192,72552,1,2,0:0:0:0:
448,192,72552,128,0,72705:0:0:0:0:
64,192,72705,128,0,72858:0:0:0:0:
320,192,72858,1,2,0:0:0:0:
192,192,72858,128,8,73011:0:0:0:0:
448,192,73011,1,0,0:0:0:0:
64,192,73165,128,8,73318:0:0:0:0:
320,192,73165,1,2,0:0:0:0:
192,192,73318,128,0,73471:0:0:0:0:
448,192,73471,128,0,73624:0:0:0:0:
64,192,73471,1,2,0:0:0:0:
320,192,73624,128,0,73777:0:0:0:0:
192,192,73777,1,2,0:0:0:0:
64,192,73777,128,8,73930:0:0:0:0:
448,192,73930,128,0,74083:0:0:0:0:
192,192,74083,128,0,74236:0:0:0:0:
320,192,74083,1,2,0:0:0:0:
64,192,74236,128,0,74389:0:0:0:0:
448,192,74389,128,2,74542:0:0:0:0:
320,192,74389,1,8,0:0:0:0:
192,192,74542,128,0,74695:0:0:0:0:
64,192,74695,128,0,74848:0:0:0:0:
448,192,74695,1,2,0:0:0:0:
320,192,74848,128,0,75001:0:0:0:0:
192,192,75001,128,8,75154:0:0:0:0:
64,192,75001,1,2,0:0:0:0:
448,192,75154,128,0,75307:0:0:0:0:
64,192,75307,128,0,75460:0:0:0:0:
192,192,75307,1,2,0:0:0:0:
320,192,75460,128,0,75614:0:0:0:0:
192,192,75614,128,2,75767:0:0:0:0:
448,192,75614,1,8,0:0:0:0:
64,192,75767,128,0,75920:0:0:0:0:
448,192,75920,1,2,0:0:0:0:
320,192,75920,128,0,76073:0:0:0:0:
192,192,76073,128,0,76226:0:0:0:0:
448,192,76226,128,2,76379:0:0:0:0:
320,192,76226,1,8,0:0:0:0:
64,192,76379,128,0,76532:0:0:0:0:
192,192,76379,1,2,0:0:0:0:
320,192,76532,128,0,76685:0:0:0:0:
448,192,76532,1,2,0:0:0:0:
64,192,76685,1,0,0:0:0:0:
448,192,76838,128,2,76991:0:0:0:0:
192,192,76838,1,8,0:0:0:0:
320,192,76991,128,0,77144:0:0:0:0:
192,192,77144,128,0,77297:0:0:0:0:
448,192,77144,1,2,0:0:0:0:
64,192,77297,128,0,77450:0:0:0:0:
192,192,77450,128,2,77603:0:0:0:0:
320,192,77450,1,8,0:0:0:0:
448,192,77603,128,0,77756:0:0:0:0:
320,192,77756,128,0,77909:0:0:0:0:
64,192,77756,1,2,0:0:0:0:
448,192,78062,128,2,78216:0:0:0:0:
192,192,78062,1,8,0:0:0:0:
64,192,78216,128,0,78369:0:0:0:0:
320,192,78369,128,0,78522:0:0:0:0:
192,192,78369,1,2,0:0:0:0:
64,192,78522,128,0,78675:0:0:0:0:
192,192,78675,128,8,78828:0:0:0:0:
448,192,78675,1,2,0:0:0:0:
320,192,78828,128,0,78981:0:0:0:0:
448,192,78981,128,0,79134:0:0:0:0:
192,192,78981,1,2,0:0:0:0:
64,192,79134,128,0,79287:0:0:0:0:
448,192,79287,128,8,79440:0:0:0:0:
320,192,79287,1,2,0:0:0:0:
192,192,79440,128,0,79593:0:0:0:0:
320,192,79593,128,0,79746:0:0:0:0:
64,192,79593,1,2,0:0:0:0:
448,192,79746,128,0,79899:0:0:0:0:
64,192,79899,128,2,80052:0:0:0:0:
192,192,79899,1,8,0:0:0:0:
320,192,80052,128,0,80205:0:0:0:0:
192,192,80205,128,0,80358:0:0:0:0:
448,192,80205,1,2,0:0:0:0:
64,192,80358,128,0,80511:0:0:0:0:
320,192,80511,128,8,80665:0:0:0:0:
192,192,80511,1,2,0:0:0:0:
448,192,80665,128,0,80818:0:0:0:0:
192,192,80818,128,0,80971:0:0:0:0:
320,192,80818,1,2,0:0:0:0:
64,192,80971,128,0,81124:0:0:0:0:
192,192,81124,128,8,81277:0:0:0:0:
448,192,81124,1,2,0:0:0:0:
320,192,81277,128,2,81430:0:0:0:0:
64,192,81277,1,0,0:0:0:0:
448,192,81430,1,4,0:0:0:0:
64,192,81430,1,2,0:0:0:0:
192,192,81583,1,0,0:0:0:0:
320,192,81736,1,8,0:0:0:0:
64,192,81736,1,2,0:0:0:0:
448,192,81889,1,0,0:0:0:0:
64,192,82042,1,2,0:0:0:0:
192,192,82042,1,0,0:0:0:0:
320,192,82195,1,0,0:0:0:0:
448,192,82348,1,8,0:0:0:0:
192,192,82348,1,2,0:0:0:0:
64,192,82501,1,0,0:0:0:0:
320,192,82654,1,0,0:0:0:0:
192,192,82654,1,2,0:0:0:0:
448,192,82807,1,0,0:0:0:0:
64,192,82960,1,2,0:0:0:0:
192,192,82960,1,8,0:0:0:0:
320,192,83114,1,0,0:0:0:0:
448,192,83267,1,0,0:0:0:0:
64,192,83267,1,2,0:0:0:0:
192,192,83420,1,0,0:0:0:0:
320,192,83573,1,8,0:0:0:0:
64,192,83573,1,2,0:0:0:0:
448,192,83726,1,0,0:0:0:0:
320,192,83879,1,0,0:0:0:0:
192,192,83879,1,2,0:0:0:0:
64,192,84032,1,0,0:0:0:0:
448,192,84185,1,8,0:0:0:0:
320,192,84185,1,2,0:0:0:0:
192,192,84338,1,0,0:0:0:0:
64,192,84491,1,2,0:0:0:0:
448,192,84491,1,0,0:0:0:0:
320,192,84644,1,0,0:0:0:0:
192,192,84797,1,2,0:0:0:0:
448,192,84797,1,8,0:0:0:0:
64,192,84950,1,0,0:0:0:0:
320,192,85103,1,0,0:0:0:0:
192,192,85103,1,2,0:0:0:0:
448,192,85256,1,0,0:0:0:0:
320,192,85409,1,8,0:0:0:0:
64,192,85409,1,2,0:0:0:0:
192,192,85562,1,0,0:0:0:0:
64,192,85716,1,2,0:0:0:0:
448,192,85716,1,0,0:0:0:0:
192,192,85869,1,0,0:0:0:0:
448,192,86022,1,8,0:0:0:0:
320,192,86022,1,2,0:0:0:0:
64,192,86175,1,2,0:0:0:0:
192,192,86175,1,0,0:0:0:0:
192,192,86328,1,2,0:0:0:0:
320,192,86328,1,0,0:0:0:0:
320,192,86481,1,2,0:0:0:0:
448,192,86481,1,0,0:0:0:0:
64,192,86634,1,2,0:0:0:0:
192,192,86634,1,8,0:0:0:0:
448,192,86787,1,0,0:0:0:0:
320,192,86787,1,2,0:0:0:0:
192,192,86940,1,0,0:0:0:0:
64,192,86940,1,2,0:0:0:0:
320,192,87093,1,2,0:0:0:0:
448,192,87093,1,0,0:0:0:0:
192,192,87246,1,8,0:0:0:0:
64,192,87246,1,2,0:0:0:0:
192,192,87399,1,2,0:0:0:0:
320,192,87399,1,0,0:0:0:0:
320,192,87552,1,2,0:0:0:0:
448,192,87552,1,0,0:0:0:0:
64,192,87705,1,2,0:0:0:0:
192,192,87705,1,0,0:0:0:0:
192,192,87858,1,2,0:0:0:0:
320,192,87858,1,8,0:0:0:0:
320,192,88011,1,2,0:0:0:0:
448,192,88011,1,0,0:0:0:0:
64,192,88165,1,2,0:0:0:0:
192,192,88165,1,0,0:0:0:0:
192,192,88318,1,2,0:0:0:0:
320,192,88318,1,0,0:0:0:0:
320,192,88471,1,2,0:0:0:0:
448,192,88471,1,8,0:0:0:0:
192,192,88624,1,2,0:0:0:0:
320,192,88624,1,0,0:0:0:0:
64,192,88777,1,2,0:0:0:0:
192,192,88853,1,2,0:0:0:0:
320,192,88930,1,2,0:0:0:0:
448,192,89006,1,2,0:0:0:0:
64,192,89083,1,8,0:0:0:0:
192,192,89159,1,2,0:0:0:0:
320,192,89236,1,2,0:0:0:0:
448,192,89312,1,2,0:0:0:0:
192,192,89389,1,2,0:0:0:0:
64,192,89466,1,2,0:0:0:0:
320,192,89542,1,2,0:0:0:0:
448,192,89619,1,2,0:0:0:0:
192,192,89695,1,8,0:0:0:0:
64,192,89772,1,2,0:0:0:0:
320,192,89848,1,2,0:0:0:0:
448,192,89925,1,2,0:0:0:0:
64,192,90001,1,2,0:0:0:0:
192,192,90001,1,0,0:0:0:0:
320,192,90154,1,0,0:0:0:0:
192,192,90307,1,0,0:0:0:0:
64,192,90460,1,0,0:0:0:0:
448,192,90614,1,8,0:0:0:0:
320,192,90690,1,8,0:0:0:0:
192,192,90767,1,2,0:0:0:0:
64,192,90843,1,2,0:0:0:0:
448,192,90920,1,8,0:0:0:0:
320,192,90996,1,8,0:0:0:0:
64,192,91073,1,8,0:0:0:0:
192,192,91149,1,8,0:0:0:0:
448,192,91226,1,2,0:0:0:0:
320,192,91226,1,4,0:0:0:0:
192,192,91532,1,2,0:0:0:0:
448,192,91532,1,8,0:0:0:0:
320,192,91685,1,0,0:0:0:0:
64,192,91838,1,2,0:0:0:0:
192,192,91915,1,0,0:0:0:0:
320,192,91991,1,0,0:0:0:0:
448,192,92068,1,0,0:0:0:0:
64,192,92144,1,8,0:0:0:0:
192,192,92221,1,0,0:0:0:0:
320,192,92297,1,0,0:0:0:0:
192,192,92374,1,0,0:0:0:0:
64,192,92450,1,2,0:0:0:0:
192,192,92527,1,0,0:0:0:0:
320,192,92603,1,0,0:0:0:0:
448,192,92680,1,0,0:0:0:0:
320,192,92756,1,8,0:0:0:0:
192,192,92833,1,0,0:0:0:0:
64,192,92909,1,0,0:0:0:0:
192,192,92986,1,0,0:0:0:0:
320,192,93062,1,2,0:0:0:0:
64,192,93216,1,0,0:0:0:0:
320,192,93292,1,0,0:0:0:0:
192,192,93369,1,8,0:0:0:0:
448,192,93522,1,0,0:0:0:0:
320,192,93675,1,2,0:0:0:0:
192,192,93751,1,0,0:0:0:0:
64,192,93828,1,0,0:0:0:0:
192,192,93904,1,0,0:0:0:0:
320,192,93981,1,8,0:0:0:0:
448,192,94057,1,0,0:0:0:0:
320,192,94134,1,0,0:0:0:0:
192,192,94210,1,0,0:0:0:0:
64,192,94287,1,2,0:0:0:0:
192,192,94364,1,0,0:0:0:0:
320,192,94440,1,0,0:0:0:0:
448,192,94517,1,0,0:0:0:0:
64,192,94593,1,8,0:0:0:0:
192,192,94670,1,0,0:0:0:0:
320,192,94746,1,0,0:0:0:0:
448,192,94823,1,0,0:0:0:0:
64,192,94899,1,2,0:0:0:0:
192,192,95001,1,0,0:0:0:0:
448,192,95103,1,0,0:0:0:0:
320,192,95205,1,8,0:0:0:0:
64,192,95307,1,0,0:0:0:0:
192,192,95409,1,0,0:0:0:0:
320,192,95511,128,2,95665:0:0:0:0:
448,192,95511,128,0,95665:0:0:0:0:
192,192,95741,128,0,95894:0:0:0:0:
64,192,95741,128,0,95894:0:0:0:0:
448,192,95971,128,0,96124:0:0:0:0:
320,192,95971,128,2,96124:0:0:0:0:
192,192,96124,1,2,0:0:0:0:
64,192,96200,1,0,0:0:0:0:
192,192,96277,1,0,0:0:0:0:
448,192,96353,1,0,0:0:0:0:
320,192,96430,1,8,0:0:0:0:
64,192,96506,1,0,0:0:0:0:
192,192,96583,1,0,0:0:0:0:
448,192,96659,1,0,0:0:0:0:
320,192,96736,1,2,0:0:0:0:
192,192,96812,1,0,0:0:0:0:
64,192,96889,1,0,0:0:0:0:
320,192,96966,1,0,0:0:0:0:
448,192,97042,1,8,0:0:0:0:
192,192,97119,1,0,0:0:0:0:
64,192,97195,1,0,0:0:0:0:
320,192,97272,1,0,0:0:0:0:
448,192,97348,1,2,0:0:0:0:
64,192,97450,1,0,0:0:0:0:
192,192,97552,1,0,0:0:0:0:
320,192,97654,1,8,0:0:0:0:
448,192,97756,1,0,0:0:0:0:
64,192,97858,1,0,0:0:0:0:
192,192,97960,1,2,0:0:0:0:
448,192,98037,1,0,0:0:0:0:
320,192,98114,1,0,0:0:0:0:
64,192,98190,1,0,0:0:0:0:
192,192,98267,1,8,0:0:0:0:
320,192,98343,1,0,0:0:0:0:
448,192,98420,1,0,0:0:0:0:
320,192,98496,1,0,0:0:0:0:
64,192,98573,1,2,0:0:0:0:
64,192,98726,1,0,0:0:0:0:
320,192,98879,1,2,0:0:0:0:
448,192,98879,1,8,0:0:0:0:
320,192,99032,1,0,0:0:0:0:
64,192,99185,1,2,0:0:0:0:
64,192,99338,1,0,0:0:0:0:
320,192,99491,1,8,0:0:0:0:
192,192,99491,1,2,0:0:0:0:
192,192,99644,1,0,0:0:0:0:
320,192,99797,1,2,0:0:0:0:
320,192,99950,1,0,0:0:0:0:
192,192,100103,1,2,0:0:0:0:
448,192,100103,1,8,0:0:0:0:
192,192,100256,1,0,0:0:0:0:
320,192,100409,1,2,0:0:0:0:
320,192,100562,1,0,0:0:0:0:
448,192,100716,1,8,0:0:0:0:
64,192,100716,1,2,0:0:0:0:
64,192,100869,1,0,0:0:0:0:
448,192,100869,1,2,0:0:0:0:
192,192,101022,1,2,0:0:0:0:
320,192,101022,1,4,0:0:0:0:
64,192,101022,1,0,0:0:0:0:
448,192,101175,1,0,0:0:0:0:
64,192,101328,1,2,0:0:0:0:
320,192,101328,1,8,0:0:0:0:
448,192,101481,1,0,0:0:0:0:
320,192,101634,1,2,0:0:0:0:
192,192,101787,1,0,0:0:0:0:
448,192,101940,1,8,0:0:0:0:
64,192,101940,1,2,0:0:0:0:
192,192,102093,1,0,0:0:0:0:
320,192,102246,1,2,0:0:0:0:
192,192,102399,1,0,0:0:0:0:
64,192,102552,1,2,0:0:0:0:
448,192,102552,1,8,0:0:0:0:
320,192,102705,1,0,0:0:0:0:
192,192,102858,1,2,0:0:0:0:
320,192,103011,1,0,0:0:0:0:
192,192,103165,1,2,0:0:0:0:
64,192,103165,1,8,0:0:0:0:
448,192,103318,1,0,0:0:0:0:
64,192,103471,128,0,104695:0:0:0:0:
192,192,103471,1,2,0:0:0:0:
320,192,103471,1,0,0:0:0:0:
448,192,103624,1,0,0:0:0:0:
320,192,103777,1,8,0:0:0:0:
192,192,103777,1,2,0:0:0:0:
448,192,103930,1,0,0:0:0:0:
320,192,104083,1,0,0:0:0:0:
192,192,104083,1,2,0:0:0:0:
448,192,104236,1,0,0:0:0:0:
320,192,104389,1,8,0:0:0:0:
192,192,104389,1,2,0:0:0:0:
192,192,104542,1,0,0:0:0:0:
320,192,104695,1,2,0:0:0:0:
448,192,104695,128,0,105307:0:0:0:0:
192,192,104848,1,0,0:0:0:0:
320,192,105001,1,8,0:0:0:0:
64,192,105001,1,2,0:0:0:0:
192,192,105154,1,0,0:0:0:0:
192,192,105307,128,0,105614:0:0:0:0:
320,192,105307,1,2,0:0:0:0:
64,192,105460,1,0,0:0:0:0:
448,192,105614,1,8,0:0:0:0:
320,192,105614,128,2,105920:0:0:0:0:
64,192,105767,1,0,0:0:0:0:
448,192,105920,1,2,0:0:0:0:
192,192,105920,1,0,0:0:0:0:
64,192,106073,1,2,0:0:0:0:
320,192,106073,1,0,0:0:0:0:
192,192,106226,1,8,0:0:0:0:
64,192,106226,1,2,0:0:0:0:
320,192,106379,1,2,0:0:0:0:
448,192,106379,1,0,0:0:0:0:
192,192,106532,1,2,0:0:0:0:
448,192,106532,1,0,0:0:0:0:
320,192,106685,1,0,0:0:0:0:
64,192,106685,1,2,0:0:0:0:
64,192,106838,1,2,0:0:0:0:
192,192,106838,1,8,0:0:0:0:
320,192,106991,1,2,0:0:0:0:
448,192,106991,1,0,0:0:0:0:
192,192,107144,1,2,0:0:0:0:
448,192,107144,1,0,0:0:0:0:
320,192,107297,1,0,0:0:0:0:
64,192,107297,1,2,0:0:0:0:
192,192,107450,1,8,0:0:0:0:
64,192,107450,1,2,0:0:0:0:
448,192,107603,1,2,0:0:0:0:
320,192,107603,1,0,0:0:0:0:
320,192,107756,1,2,0:0:0:0:
64,192,107756,1,0,0:0:0:0:
192,192,107909,1,0,0:0:0:0:
448,192,107909,1,2,0:0:0:0:
192,192,108062,1,2,0:0:0:0:
64,192,108062,1,8,0:0:0:0:
448,192,108216,1,2,0:0:0:0:
320,192,108216,1,0,0:0:0:0:
192,192,108369,1,2,0:0:0:0:
64,192,108445,1,2,0:0:0:0:
320,192,108522,1,2,0:0:0:0:
448,192,108598,1,2,0:0:0:0:
192,192,108675,1,8,0:0:0:0:
64,192,108751,1,2,0:0:0:0:
320,192,108828,1,2,0:0:0:0:
448,192,108904,1,2,0:0:0:0:
64,192,108981,1,2,0:0:0:0:
192,192,109057,1,2,0:0:0:0:
448,192,109134,1,2,0:0:0:0:
320,192,109210,1,2,0:0:0:0:
64,192,109287,1,8,0:0:0:0:
192,192,109364,1,2,0:0:0:0:
448,192,109440,1,2,0:0:0:0:
320,192,109517,1,2,0:0:0:0:
64,192,109593,128,4,110818:0:0:0:0:
448,192,110205,128,8,110818:0:0:0:0:
192,192,110818,128,4,113267:0:0:0:0:
320,192,110818,1,2,0:0:0:0:
