osu file format v14

[General]
AudioFilename: Nanahira - Pink Stick Luv (full ver.).mp3
AudioLeadIn: 0
PreviewTime: 47609
Countdown: 1
SampleSet: Normal
StackLeniency: 0.7
Mode: 3
LetterboxInBreaks: 1
SpecialStyle: 0
WidescreenStoryboard: 1

[Editor]
Bookmarks: 1722
DistanceSpacing: 1.2
BeatDivisor: 16
GridSize: 32
TimelineZoom: 1

[Metadata]
Title:Pink Stick Luv (full ver.)
TitleUnicode:ぴんこすてぃっくLuv (full ver.)
Artist:gigaP Feat. Nanahira
ArtistUnicode:ギガP Feat. ななひら
Creator:Cocolax
Version:Normal
Source:
Tags:Nanahira ななひら Confetto ギガP gigaP Pink Stick Luv ぴんこすてぃっく Cocolax
BeatmapID:1126845
BeatmapSetID:473455

[Difficulty]
HPDrainRate:5
CircleSize:4
OverallDifficulty:5
ApproachRate:5
SliderMultiplier:1.40000000596046
SliderTickRate:1

[Events]
//Background and Video events
Video,-1420,"gigaP - Pink Stick Luv.avi"
0,0,"Pink Stick Luv.jpg",0,0
//Break Periods
2,129151,141272
2,189996,195357
//Storyboard Layer 0 (Background)
//Storyboard Layer 1 (Fail)
//Storyboard Layer 2 (Pass)
//Storyboard Layer 3 (Foreground)
//Storyboard Sound Samples

[TimingPoints]
501,422.535211267606,4,1,1,40,1,0
501,-117.647058823529,4,1,1,40,0,0
7261,-117.647058823529,4,1,1,40,0,0
34303,211.267605633803,4,1,1,40,1,1
34303,-222.222222222222,4,1,1,40,0,1
41063,422.535211267606,4,1,1,40,1,0
41063,-117.647058823529,4,1,1,40,0,0
47824,-117.647058823529,4,1,1,40,0,1
74867,211.267605633803,4,1,1,40,1,0
74867,-208.333333333333,4,1,1,40,0,0
101909,422.535211267606,4,1,1,40,1,1
101909,-117.647058823529,4,1,1,40,0,1
128951,-117.647058823529,4,1,1,40,0,0
142472,845.070422535211,4,1,1,40,1,0
142472,-71.4285714285714,4,1,1,40,0,0
157684,422.535211267606,4,1,1,40,1,1
157684,-113.636363636364,4,1,1,40,0,1
189796,-113.636363636364,4,1,1,40,0,0
196557,-133.333333333333,4,1,1,40,0,0
199937,-111.111111111111,4,1,1,40,0,0

[HitObjects]
64,192,501,5,0,0:0:0:0:
320,192,501,1,0,0:0:0:0:
192,192,712,1,0,0:0:0:0:
64,192,923,1,0,0:0:0:0:
192,192,1134,1,0,0:0:0:0:
64,192,1346,1,0,0:0:0:0:
320,192,1346,1,0,0:0:0:0:
448,192,1557,1,0,0:0:0:0:
320,192,1768,1,0,0:0:0:0:
64,192,1979,1,0,0:0:0:0:
192,192,1979,128,0,2402:0:0:0:0:
64,192,2402,1,0,0:0:0:0:
320,192,2613,1,0,0:0:0:0:
192,192,2719,1,0,0:0:0:0:
320,192,2824,1,0,0:0:0:0:
192,192,2930,1,0,0:0:0:0:
320,192,3036,1,0,0:0:0:0:
192,192,3141,1,0,0:0:0:0:
448,192,3247,1,0,0:0:0:0:
320,192,3247,1,0,0:0:0:0:
64,192,3353,1,0,0:0:0:0:
192,192,3353,1,0,0:0:0:0:
320,192,3458,1,0,0:0:0:0:
448,192,3458,1,0,0:0:0:0:
64,192,3670,1,0,0:0:0:0:
64,192,3881,1,0,0:0:0:0:
192,192,3881,128,0,4303:0:0:0:0:
64,192,4303,1,0,0:0:0:0:
320,192,4303,1,0,0:0:0:0:
64,192,4515,128,0,4937:0:0:0:0:
448,192,4515,1,0,0:0:0:0:
192,192,4726,1,0,0:0:0:0:
192,192,4937,1,0,0:0:0:0:
448,192,5148,1,0,0:0:0:0:
192,192,5360,1,0,0:0:0:0:
64,192,5571,1,0,0:0:0:0:
320,192,5571,128,0,5782:0:0:0:0:
64,192,5782,128,0,5993:0:0:0:0:
192,192,5993,128,0,6205:0:0:0:0:
320,192,5993,1,0,0:0:0:0:
448,192,6205,128,0,6416:0:0:0:0:
64,192,6416,1,0,0:0:0:0:
320,192,6416,1,0,0:0:0:0:
192,192,6522,1,0,0:0:0:0:
320,192,6627,1,0,0:0:0:0:
448,192,6733,1,0,0:0:0:0:
64,192,7050,1,0,0:0:0:0:
320,192,7050,1,0,0:0:0:0:
448,192,7261,1,0,0:0:0:0:
192,192,7261,128,0,7684:0:0:0:0:
448,192,7684,128,0,8106:0:0:0:0:
64,192,7684,1,0,0:0:0:0:
64,192,8106,1,0,0:0:0:0:
192,192,8106,128,0,8423:0:0:0:0:
64,192,8423,128,0,8740:0:0:0:0:
320,192,8740,128,0,9162:0:0:0:0:
64,192,9162,1,0,0:0:0:0:
192,192,9374,1,0,0:0:0:0:
64,192,9585,1,0,0:0:0:0:
320,192,9691,1,0,0:0:0:0:
192,192,9796,1,0,0:0:0:0:
448,192,9796,1,0,0:0:0:0:
320,192,9902,1,0,0:0:0:0:
192,192,10008,1,0,0:0:0:0:
320,192,10219,128,0,10641:0:0:0:0:
64,192,10430,1,0,0:0:0:0:
64,192,10641,1,0,0:0:0:0:
192,192,10853,1,0,0:0:0:0:
320,192,11064,1,0,0:0:0:0:
64,192,11275,128,0,11698:0:0:0:0:
192,192,11698,1,0,0:0:0:0:
320,192,11698,128,0,12120:0:0:0:0:
192,192,12120,128,0,12543:0:0:0:0:
64,192,12543,1,0,0:0:0:0:
320,192,12754,1,0,0:0:0:0:
448,192,12754,1,0,0:0:0:0:
320,192,12965,1,0,0:0:0:0:
64,192,13071,1,0,0:0:0:0:
192,192,13071,1,0,0:0:0:0:
192,192,13388,128,0,13599:0:0:0:0:
64,192,13388,128,0,13599:0:0:0:0:
448,192,13810,1,0,0:0:0:0:
192,192,13810,1,0,0:0:0:0:
64,192,13916,1,0,0:0:0:0:
320,192,13916,1,0,0:0:0:0:
192,192,14022,128,0,14444:0:0:0:0:
448,192,14022,128,0,14444:0:0:0:0:
320,192,14444,128,0,14867:0:0:0:0:
64,192,14444,128,0,14867:0:0:0:0:
192,192,14867,1,0,0:0:0:0:
448,192,14867,1,0,0:0:0:0:
64,192,15184,1,0,0:0:0:0:
192,192,15501,1,0,0:0:0:0:
320,192,15501,128,0,15923:0:0:0:0:
64,192,15923,1,0,0:0:0:0:
192,192,16029,1,0,0:0:0:0:
64,192,16134,1,0,0:0:0:0:
320,192,16346,1,0,0:0:0:0:
192,192,16451,1,0,0:0:0:0:
320,192,16557,1,0,0:0:0:0:
192,192,16662,1,0,0:0:0:0:
320,192,16768,1,0,0:0:0:0:
448,192,16979,128,0,17191:0:0:0:0:
64,192,17191,128,0,17402:0:0:0:0:
192,192,17402,1,0,0:0:0:0:
320,192,17613,1,0,0:0:0:0:
448,192,17613,1,0,0:0:0:0:
192,192,17824,1,0,0:0:0:0:
448,192,18036,128,0,18247:0:0:0:0:
320,192,18247,1,0,0:0:0:0:
64,192,18458,128,0,18881:0:0:0:0:
192,192,18881,128,0,19303:0:0:0:0:
320,192,18881,1,0,0:0:0:0:
64,192,19303,128,0,19515:0:0:0:0:
320,192,19303,128,0,19515:0:0:0:0:
192,192,19515,128,0,19726:0:0:0:0:
320,192,19726,128,0,19937:0:0:0:0:
448,192,19726,1,0,0:0:0:0:
448,192,19937,1,0,0:0:0:0:
64,192,19937,1,0,0:0:0:0:
320,192,20360,1,0,0:0:0:0:
192,192,20571,1,0,0:0:0:0:
320,192,20782,1,0,0:0:0:0:
64,192,20782,128,0,21205:0:0:0:0:
192,192,21205,1,0,0:0:0:0:
320,192,21627,1,0,0:0:0:0:
448,192,21627,128,0,22261:0:0:0:0:
192,192,21944,1,0,0:0:0:0:
320,192,22261,1,0,0:0:0:0:
448,192,22684,1,0,0:0:0:0:
320,192,22789,1,0,0:0:0:0:
192,192,22895,1,0,0:0:0:0:
64,192,23106,1,0,0:0:0:0:
192,192,23212,1,0,0:0:0:0:
320,192,23317,1,0,0:0:0:0:
448,192,23529,1,0,0:0:0:0:
320,192,23740,1,0,0:0:0:0:
448,192,23951,128,0,24162:0:0:0:0:
192,192,24162,128,0,24374:0:0:0:0:
320,192,24374,1,0,0:0:0:0:
448,192,24585,1,0,0:0:0:0:
64,192,24796,1,0,0:0:0:0:
192,192,24796,128,0,25219:0:0:0:0:
64,192,25219,1,0,0:0:0:0:
320,192,25430,1,0,0:0:0:0:
192,192,25641,128,0,26064:0:0:0:0:
64,192,26064,1,0,0:0:0:0:
320,192,26275,1,0,0:0:0:0:
64,192,26486,128,0,26909:0:0:0:0:
192,192,26909,1,0,0:0:0:0:
64,192,27331,1,0,0:0:0:0:
448,192,27437,1,0,0:0:0:0:
64,192,27543,128,0,27965:0:0:0:0:
448,192,27965,128,0,28388:0:0:0:0:
320,192,28388,128,0,28810:0:0:0:0:
192,192,28388,1,0,0:0:0:0:
192,192,28810,1,0,0:0:0:0:
64,192,29022,128,0,29444:0:0:0:0:
192,192,29444,1,0,0:0:0:0:
192,192,29655,1,0,0:0:0:0:
320,192,29655,1,0,0:0:0:0:
320,192,29867,1,0,0:0:0:0:
448,192,29867,1,0,0:0:0:0:
64,192,30289,1,0,0:0:0:0:
320,192,30289,1,0,0:0:0:0:
192,192,30501,1,0,0:0:0:0:
448,192,30501,1,0,0:0:0:0:
64,192,30712,1,0,0:0:0:0:
320,192,30712,1,0,0:0:0:0:
448,192,31134,128,0,31346:0:0:0:0:
192,192,31134,128,0,31346:0:0:0:0:
320,192,31557,1,0,0:0:0:0:
64,192,31662,1,0,0:0:0:0:
192,192,31979,1,0,0:0:0:0:
448,192,31979,1,0,0:0:0:0:
64,192,32191,1,0,0:0:0:0:
320,192,32191,1,0,0:0:0:0:
192,192,32402,128,0,32824:0:0:0:0:
448,192,32402,128,0,32824:0:0:0:0:
64,192,32824,1,0,0:0:0:0:
320,192,32824,128,0,33036:0:0:0:0:
64,192,33036,128,0,33458:0:0:0:0:
192,192,33458,1,0,0:0:0:0:
320,192,33670,1,0,0:0:0:0:
448,192,33670,1,0,0:0:0:0:
320,192,33881,1,0,0:0:0:0:
448,192,33881,1,0,0:0:0:0:
64,192,34303,1,0,0:0:0:0:
192,192,34408,1,0,0:0:0:0:
64,192,34514,1,0,0:0:0:0:
192,192,34619,1,0,0:0:0:0:
320,192,34725,1,0,0:0:0:0:
448,192,34831,1,0,0:0:0:0:
320,192,35042,1,0,0:0:0:0:
192,192,35148,1,0,0:0:0:0:
320,192,35253,1,0,0:0:0:0:
448,192,35359,1,0,0:0:0:0:
320,192,35464,1,0,0:0:0:0:
320,192,35676,1,0,0:0:0:0:
192,192,35781,1,0,0:0:0:0:
64,192,35887,1,0,0:0:0:0:
192,192,35993,1,0,0:0:0:0:
320,192,35993,1,0,0:0:0:0:
64,192,36204,1,0,0:0:0:0:
192,192,36204,1,0,0:0:0:0:
320,192,36415,1,0,0:0:0:0:
448,192,36415,1,0,0:0:0:0:
64,192,36626,1,0,0:0:0:0:
192,192,36626,1,0,0:0:0:0:
320,192,36838,1,0,0:0:0:0:
64,192,36839,1,0,0:0:0:0:
192,192,36943,128,0,37155:0:0:0:0:
448,192,36943,128,0,37155:0:0:0:0:
64,192,37155,1,0,0:0:0:0:
320,192,37155,1,0,0:0:0:0:
64,192,37366,1,0,0:0:0:0:
320,192,37472,1,0,0:0:0:0:
192,192,37577,1,0,0:0:0:0:
64,192,37683,1,0,0:0:0:0:
320,192,37788,1,0,0:0:0:0:
192,192,37894,1,0,0:0:0:0:
448,192,38105,1,0,0:0:0:0:
192,192,38211,1,0,0:0:0:0:
320,192,38317,1,0,0:0:0:0:
64,192,38422,1,0,0:0:0:0:
192,192,38422,1,0,0:0:0:0:
448,192,38633,1,0,0:0:0:0:
448,192,38845,1,0,0:0:0:0:
320,192,38845,1,0,0:0:0:0:
64,192,39056,1,0,0:0:0:0:
192,192,39056,128,0,39267:0:0:0:0:
64,192,39267,1,0,0:0:0:0:
320,192,39373,1,0,0:0:0:0:
448,192,39479,1,0,0:0:0:0:
320,192,39584,1,0,0:0:0:0:
448,192,39690,1,0,0:0:0:0:
192,192,39795,1,0,0:0:0:0:
64,192,39902,5,0,0:0:0:0:
192,192,40007,1,0,0:0:0:0:
320,192,40112,128,0,40324:0:0:0:0:
448,192,40112,128,0,40324:0:0:0:0:
64,192,40324,1,0,0:0:0:0:
192,192,40324,128,0,40535:0:0:0:0:
64,192,40535,128,0,40852:0:0:0:0:
192,192,40852,1,0,0:0:0:0:
320,192,41063,1,0,0:0:0:0:
448,192,41063,1,0,0:0:0:0:
320,192,41274,1,0,0:0:0:0:
64,192,41485,1,0,0:0:0:0:
192,192,41485,1,0,0:0:0:0:
64,192,41696,1,0,0:0:0:0:
320,192,41908,1,0,0:0:0:0:
448,192,42119,128,0,42541:0:0:0:0:
192,192,42119,1,0,0:0:0:0:
64,192,42541,128,0,42964:0:0:0:0:
192,192,42964,128,0,43175:0:0:0:0:
320,192,43386,1,0,0:0:0:0:
448,192,43386,1,0,0:0:0:0:
448,192,43809,1,0,0:0:0:0:
64,192,44020,1,0,0:0:0:0:
320,192,44020,1,0,0:0:0:0:
192,192,44126,1,0,0:0:0:0:
320,192,44232,1,0,0:0:0:0:
448,192,44232,128,0,45499:0:0:0:0:
64,192,45499,1,0,0:0:0:0:
192,192,45499,1,0,0:0:0:0:
64,192,45710,1,0,0:0:0:0:
192,192,45710,1,0,0:0:0:0:
64,192,45922,1,0,0:0:0:0:
192,192,45922,1,0,0:0:0:0:
64,192,46344,1,0,0:0:0:0:
320,192,46555,1,0,0:0:0:0:
192,192,46661,1,0,0:0:0:0:
64,192,46767,1,0,0:0:0:0:
192,192,46872,1,0,0:0:0:0:
320,192,46978,1,0,0:0:0:0:
448,192,47189,1,0,0:0:0:0:
192,192,47189,1,0,0:0:0:0:
448,192,47401,1,0,0:0:0:0:
320,192,47401,1,0,0:0:0:0:
64,192,47612,1,0,0:0:0:0:
192,192,47612,128,0,48034:0:0:0:0:
64,192,48034,1,0,0:0:0:0:
320,192,48246,128,0,48668:0:0:0:0:
448,192,48246,1,0,0:0:0:0:
448,192,48668,1,0,0:0:0:0:
192,192,48879,128,0,49091:0:0:0:0:
64,192,48879,128,0,49091:0:0:0:0:
320,192,49302,128,0,49724:0:0:0:0:
448,192,49302,1,0,0:0:0:0:
192,192,49724,1,0,0:0:0:0:
64,192,49936,128,0,50358:0:0:0:0:
448,192,49936,1,0,0:0:0:0:
192,192,50358,1,0,0:0:0:0:
320,192,50570,128,0,50781:0:0:0:0:
448,192,50570,128,0,50781:0:0:0:0:
192,192,50992,128,0,51415:0:0:0:0:
64,192,50992,1,0,0:0:0:0:
320,192,51415,1,0,0:0:0:0:
448,192,51626,128,0,52048:0:0:0:0:
64,192,51626,1,0,0:0:0:0:
64,192,52048,1,0,0:0:0:0:
192,192,52048,1,0,0:0:0:0:
64,192,52471,1,0,0:0:0:0:
192,192,52471,1,0,0:0:0:0:
192,192,52682,1,0,0:0:0:0:
320,192,52682,128,0,53105:0:0:0:0:
64,192,53105,1,0,0:0:0:0:
64,192,53316,1,0,0:0:0:0:
192,192,53316,1,0,0:0:0:0:
320,192,53527,1,0,0:0:0:0:
64,192,53739,1,0,0:0:0:0:
192,192,53739,1,0,0:0:0:0:
320,192,53950,1,0,0:0:0:0:
448,192,54161,1,0,0:0:0:0:
320,192,54161,1,0,0:0:0:0:
64,192,54372,1,0,0:0:0:0:
192,192,54372,128,0,54795:0:0:0:0:
64,192,54795,1,0,0:0:0:0:
320,192,55006,128,0,55429:0:0:0:0:
448,192,55006,1,0,0:0:0:0:
64,192,55429,1,0,0:0:0:0:
192,192,55429,1,0,0:0:0:0:
64,192,55851,1,0,0:0:0:0:
320,192,55851,1,0,0:0:0:0:
192,192,55851,128,0,56063:0:0:0:0:
448,192,56063,128,0,56485:0:0:0:0:
64,192,56485,1,0,0:0:0:0:
192,192,56485,1,0,0:0:0:0:
448,192,56696,1,0,0:0:0:0:
320,192,56696,1,0,0:0:0:0:
320,192,56908,1,0,0:0:0:0:
64,192,56908,128,0,57330:0:0:0:0:
192,192,57330,128,0,57753:0:0:0:0:
448,192,57753,1,0,0:0:0:0:
192,192,57964,128,0,58175:0:0:0:0:
320,192,57964,128,0,58175:0:0:0:0:
64,192,58175,1,0,0:0:0:0:
64,192,58386,1,0,0:0:0:0:
192,192,58598,128,0,59020:0:0:0:0:
64,192,58598,128,0,59020:0:0:0:0:
448,192,59020,1,0,0:0:0:0:
320,192,59232,1,0,0:0:0:0:
64,192,59443,1,0,0:0:0:0:
192,192,59654,1,0,0:0:0:0:
448,192,59654,1,0,0:0:0:0:
64,192,59865,1,0,0:0:0:0:
320,192,60077,1,0,0:0:0:0:
448,192,60077,1,0,0:0:0:0:
64,192,60288,1,0,0:0:0:0:
64,192,60499,1,0,0:0:0:0:
192,192,60499,1,0,0:0:0:0:
320,192,60710,1,0,0:0:0:0:
192,192,60710,1,0,0:0:0:0:
320,192,60922,1,0,0:0:0:0:
448,192,60922,1,0,0:0:0:0:
64,192,61133,1,0,0:0:0:0:
192,192,61133,128,0,61555:0:0:0:0:
64,192,61555,128,0,61767:0:0:0:0:
192,192,61767,1,0,0:0:0:0:
320,192,61767,128,0,62189:0:0:0:0:
64,192,62189,1,0,0:0:0:0:
192,192,62401,128,0,62612:0:0:0:0:
448,192,62401,128,0,62612:0:0:0:0:
320,192,62823,128,0,63246:0:0:0:0:
64,192,63246,1,0,0:0:0:0:
448,192,63457,128,0,63879:0:0:0:0:
192,192,63457,1,0,0:0:0:0:
320,192,63879,1,0,0:0:0:0:
64,192,64091,128,0,64302:0:0:0:0:
192,192,64091,128,0,64302:0:0:0:0:
320,192,64302,1,0,0:0:0:0:
320,192,64513,1,0,0:0:0:0:
448,192,64513,128,0,64936:0:0:0:0:
320,192,64936,1,0,0:0:0:0:
64,192,65147,1,0,0:0:0:0:
192,192,65147,128,0,65570:0:0:0:0:
320,192,65570,1,0,0:0:0:0:
448,192,65992,1,0,0:0:0:0:
320,192,65992,1,0,0:0:0:0:
64,192,66203,1,0,0:0:0:0:
320,192,66203,1,0,0:0:0:0:
320,192,66626,1,0,0:0:0:0:
64,192,66837,1,0,0:0:0:0:
192,192,66837,1,0,0:0:0:0:
448,192,67048,1,0,0:0:0:0:
320,192,67260,1,0,0:0:0:0:
192,192,67260,1,0,0:0:0:0:
64,192,67471,1,0,0:0:0:0:
192,192,67471,1,0,0:0:0:0:
64,192,67682,1,0,0:0:0:0:
448,192,67682,1,0,0:0:0:0:
192,192,67893,128,0,68316:0:0:0:0:
320,192,67893,128,0,68316:0:0:0:0:
64,192,68316,1,0,0:0:0:0:
448,192,68527,128,0,68950:0:0:0:0:
64,192,68527,1,0,0:0:0:0:
320,192,68950,1,0,0:0:0:0:
320,192,69372,128,0,69584:0:0:0:0:
192,192,69372,128,0,69584:0:0:0:0:
64,192,69584,128,0,70006:0:0:0:0:
448,192,69584,128,0,70006:0:0:0:0:
192,192,70006,1,0,0:0:0:0:
320,192,70006,128,0,70217:0:0:0:0:
448,192,70217,128,0,70429:0:0:0:0:
64,192,70429,128,0,70851:0:0:0:0:
448,192,70851,1,0,0:0:0:0:
448,192,71274,1,0,0:0:0:0:
320,192,71274,1,0,0:0:0:0:
64,192,71485,1,0,0:0:0:0:
320,192,71485,1,0,0:0:0:0:
320,192,71696,1,0,0:0:0:0:
448,192,71696,1,0,0:0:0:0:
64,192,71908,1,0,0:0:0:0:
192,192,71908,1,0,0:0:0:0:
64,192,72119,128,0,72541:0:0:0:0:
320,192,72119,128,0,72541:0:0:0:0:
448,192,72541,1,0,0:0:0:0:
192,192,72753,1,0,0:0:0:0:
320,192,72964,1,0,0:0:0:0:
64,192,73175,1,0,0:0:0:0:
192,192,73175,1,0,0:0:0:0:
448,192,73386,1,0,0:0:0:0:
320,192,73386,1,0,0:0:0:0:
64,192,73598,1,0,0:0:0:0:
320,192,73598,1,0,0:0:0:0:
192,192,73809,1,0,0:0:0:0:
448,192,73809,1,0,0:0:0:0:
320,192,74020,1,0,0:0:0:0:
448,192,74020,1,0,0:0:0:0:
64,192,74232,1,0,0:0:0:0:
192,192,74232,1,0,0:0:0:0:
320,192,74443,128,0,74865:0:0:0:0:
192,192,74443,128,0,74865:0:0:0:0:
64,192,74865,1,0,0:0:0:0:
448,192,74865,1,0,0:0:0:0:
320,192,75078,1,0,0:0:0:0:
64,192,75289,1,0,0:0:0:0:
192,192,75289,1,0,0:0:0:0:
320,192,75500,1,0,0:0:0:0:
64,192,75712,1,0,0:0:0:0:
448,192,75817,1,0,0:0:0:0:
64,192,75923,1,0,0:0:0:0:
448,192,76134,1,0,0:0:0:0:
64,192,76240,1,0,0:0:0:0:
448,192,76345,1,0,0:0:0:0:
192,192,76557,128,0,76768:0:0:0:0:
320,192,76557,128,0,77190:0:0:0:0:
64,192,76768,128,0,76979:0:0:0:0:
192,192,76979,128,0,77190:0:0:0:0:
448,192,77296,128,0,77613:0:0:0:0:
64,192,77296,1,0,0:0:0:0:
64,192,77613,1,0,0:0:0:0:
192,192,77613,1,0,0:0:0:0:
64,192,77824,1,0,0:0:0:0:
192,192,77824,1,0,0:0:0:0:
320,192,78036,1,0,0:0:0:0:
448,192,78036,1,0,0:0:0:0:
64,192,78247,1,0,0:0:0:0:
320,192,78247,1,0,0:0:0:0:
192,192,78352,1,0,0:0:0:0:
64,192,78458,1,0,0:0:0:0:
448,192,78564,1,0,0:0:0:0:
64,192,78669,1,0,0:0:0:0:
320,192,78669,128,0,78881:0:0:0:0:
64,192,78881,1,0,0:0:0:0:
192,192,79092,1,0,0:0:0:0:
448,192,79092,1,0,0:0:0:0:
320,192,79197,1,0,0:0:0:0:
448,192,79303,1,0,0:0:0:0:
320,192,79409,1,0,0:0:0:0:
64,192,79514,128,0,79726:0:0:0:0:
192,192,79514,1,0,0:0:0:0:
192,192,79726,1,0,0:0:0:0:
320,192,79937,1,0,0:0:0:0:
448,192,79937,1,0,0:0:0:0:
64,192,80148,1,0,0:0:0:0:
320,192,80359,1,0,0:0:0:0:
448,192,80359,1,0,0:0:0:0:
64,192,80571,1,0,0:0:0:0:
192,192,80676,128,0,80888:0:0:0:0:
448,192,80888,1,0,0:0:0:0:
320,192,80888,1,0,0:0:0:0:
64,192,80993,1,0,0:0:0:0:
192,192,81099,1,0,0:0:0:0:
320,192,81205,1,0,0:0:0:0:
64,192,81416,1,0,0:0:0:0:
192,192,81416,1,0,0:0:0:0:
448,192,81627,128,0,81838:0:0:0:0:
64,192,81838,1,0,0:0:0:0:
192,192,81838,1,0,0:0:0:0:
320,192,81944,1,0,0:0:0:0:
64,192,82050,1,0,0:0:0:0:
448,192,82155,1,0,0:0:0:0:
192,192,82155,1,0,0:0:0:0:
64,192,82367,128,0,82472:0:0:0:0:
448,192,82472,1,0,0:0:0:0:
320,192,82472,1,0,0:0:0:0:
448,192,82683,1,0,0:0:0:0:
64,192,82683,1,0,0:0:0:0:
320,192,82789,128,0,83106:0:0:0:0:
192,192,82789,128,0,83106:0:0:0:0:
192,192,83317,1,0,0:0:0:0:
64,192,83423,1,0,0:0:0:0:
320,192,83528,1,0,0:0:0:0:
64,192,83740,1,0,0:0:0:0:
192,192,83740,1,0,0:0:0:0:
320,192,83845,1,0,0:0:0:0:
448,192,83951,1,0,0:0:0:0:
320,192,84057,1,0,0:0:0:0:
192,192,84162,1,0,0:0:0:0:
448,192,84268,1,0,0:0:0:0:
320,192,84268,1,0,0:0:0:0:
64,192,84374,1,0,0:0:0:0:
192,192,84374,1,0,0:0:0:0:
448,192,84479,1,0,0:0:0:0:
320,192,84479,128,0,84902:0:0:0:0:
448,192,84902,1,0,0:0:0:0:
192,192,85007,1,0,0:0:0:0:
64,192,85219,1,0,0:0:0:0:
448,192,85324,1,0,0:0:0:0:
64,192,85430,1,0,0:0:0:0:
64,192,85641,1,0,0:0:0:0:
320,192,85747,1,0,0:0:0:0:
64,192,85852,1,0,0:0:0:0:
64,192,86064,1,0,0:0:0:0:
192,192,86064,1,0,0:0:0:0:
320,192,86275,128,0,86486:0:0:0:0:
448,192,86275,128,0,86486:0:0:0:0:
64,192,86486,128,0,86697:0:0:0:0:
320,192,86697,1,0,0:0:0:0:
448,192,86697,1,0,0:0:0:0:
64,192,86909,128,0,87120:0:0:0:0:
448,192,87120,1,0,0:0:0:0:
320,192,87120,1,0,0:0:0:0:
192,192,87331,1,0,0:0:0:0:
448,192,87331,1,0,0:0:0:0:
320,192,87437,1,0,0:0:0:0:
64,192,87437,1,0,0:0:0:0:
64,192,87648,1,0,0:0:0:0:
320,192,87648,1,0,0:0:0:0:
192,192,87859,128,0,87965:0:0:0:0:
448,192,87859,128,0,87965:0:0:0:0:
64,192,87965,1,0,0:0:0:0:
320,192,87965,1,0,0:0:0:0:
64,192,88388,1,0,0:0:0:0:
320,192,88388,1,0,0:0:0:0:
64,192,88599,1,0,0:0:0:0:
192,192,88599,128,0,88810:0:0:0:0:
448,192,88705,1,0,0:0:0:0:
64,192,88810,1,0,0:0:0:0:
448,192,89021,1,0,0:0:0:0:
320,192,89021,128,0,89233:0:0:0:0:
64,192,89127,1,0,0:0:0:0:
448,192,89233,1,0,0:0:0:0:
192,192,89550,128,0,90078:0:0:0:0:
448,192,89550,128,0,90078:0:0:0:0:
64,192,90078,1,0,0:0:0:0:
320,192,90078,1,0,0:0:0:0:
192,192,90289,1,0,0:0:0:0:
64,192,90500,1,0,0:0:0:0:
320,192,90500,1,0,0:0:0:0:
448,192,90712,1,0,0:0:0:0:
192,192,90817,1,0,0:0:0:0:
320,192,90923,128,0,91240:0:0:0:0:
448,192,90923,128,0,91240:0:0:0:0:
64,192,91240,128,0,91768:0:0:0:0:
192,192,91557,128,0,91768:0:0:0:0:
448,192,91768,1,0,0:0:0:0:
320,192,91768,1,0,0:0:0:0:
448,192,91979,1,0,0:0:0:0:
192,192,91979,128,0,92190:0:0:0:0:
448,192,92190,128,0,92402:0:0:0:0:
192,192,92402,1,0,0:0:0:0:
64,192,92507,1,0,0:0:0:0:
320,192,92507,1,0,0:0:0:0:
64,192,92613,1,0,0:0:0:0:
320,192,92613,128,0,92824:0:0:0:0:
64,192,92824,128,0,93036:0:0:0:0:
320,192,93036,1,0,0:0:0:0:
64,192,93247,1,0,0:0:0:0:
320,192,93247,1,0,0:0:0:0:
448,192,93352,1,0,0:0:0:0:
192,192,93352,1,0,0:0:0:0:
320,192,93458,128,0,93669:0:0:0:0:
64,192,93458,128,0,93669:0:0:0:0:
192,192,93669,128,0,93881:0:0:0:0:
448,192,93669,128,0,93881:0:0:0:0:
320,192,93881,128,0,94092:0:0:0:0:
64,192,93881,128,0,94092:0:0:0:0:
448,192,94303,1,0,0:0:0:0:
192,192,94303,1,0,0:0:0:0:
64,192,94409,1,0,0:0:0:0:
320,192,94409,1,0,0:0:0:0:
192,192,94514,1,0,0:0:0:0:
448,192,94514,1,0,0:0:0:0:
320,192,94726,128,0,94937:0:0:0:0:
64,192,94726,128,0,94937:0:0:0:0:
192,192,94937,1,0,0:0:0:0:
448,192,95043,1,0,0:0:0:0:
64,192,95148,1,0,0:0:0:0:
448,192,95254,1,0,0:0:0:0:
64,192,95359,1,0,0:0:0:0:
448,192,95465,1,0,0:0:0:0:
64,192,95571,1,0,0:0:0:0:
192,192,95571,128,0,95782:0:0:0:0:
64,192,95782,1,0,0:0:0:0:
320,192,95782,128,0,95993:0:0:0:0:
64,192,95993,1,0,0:0:0:0:
448,192,95993,128,0,96310:0:0:0:0:
64,192,96310,1,0,0:0:0:0:
192,192,96627,1,0,0:0:0:0:
192,192,96733,1,0,0:0:0:0:
64,192,96838,1,0,0:0:0:0:
320,192,96838,1,0,0:0:0:0:
448,192,96944,1,0,0:0:0:0:
320,192,97050,128,0,97261:0:0:0:0:
64,192,97050,128,0,97261:0:0:0:0:
192,192,97050,128,0,97261:0:0:0:0:
448,192,97261,1,0,0:0:0:0:
320,192,97367,1,0,0:0:0:0:
192,192,97472,1,0,0:0:0:0:
64,192,97472,1,0,0:0:0:0:
320,192,97578,1,0,0:0:0:0:
448,192,97578,1,0,0:0:0:0:
448,192,97683,1,0,0:0:0:0:
192,192,97789,128,0,98000:0:0:0:0:
64,192,97789,128,0,98000:0:0:0:0:
320,192,98000,1,0,0:0:0:0:
448,192,98106,1,0,0:0:0:0:
64,192,98528,1,0,0:0:0:0:
320,192,98528,128,0,98634:0:0:0:0:
448,192,98634,1,0,0:0:0:0:
64,192,98740,128,0,98845:0:0:0:0:
448,192,98845,1,0,0:0:0:0:
192,192,98845,128,0,99057:0:0:0:0:
64,192,99057,1,0,0:0:0:0:
448,192,99162,1,0,0:0:0:0:
64,192,99374,1,0,0:0:0:0:
448,192,99374,128,0,99479:0:0:0:0:
320,192,99479,1,0,0:0:0:0:
192,192,99479,128,0,99690:0:0:0:0:
64,192,99690,1,0,0:0:0:0:
320,192,99690,128,0,99902:0:0:0:0:
448,192,99902,128,0,100113:0:0:0:0:
64,192,100113,1,0,0:0:0:0:
192,192,100219,1,0,0:0:0:0:
320,192,100219,1,0,0:0:0:0:
192,192,100430,128,0,100641:0:0:0:0:
64,192,100641,1,0,0:0:0:0:
320,192,100747,128,0,100852:0:0:0:0:
64,192,100852,5,0,0:0:0:0:
448,192,100852,1,0,0:0:0:0:
192,192,100958,1,0,0:0:0:0:
64,192,101064,128,0,101275:0:0:0:0:
192,192,101275,128,0,101381:0:0:0:0:
320,192,101381,128,0,101697:0:0:0:0:
448,192,101381,128,0,101697:0:0:0:0:
64,192,101697,128,0,102120:0:0:0:0:
192,192,101697,1,0,0:0:0:0:
320,192,102120,1,0,0:0:0:0:
192,192,102331,1,0,0:0:0:0:
448,192,102331,1,0,0:0:0:0:
64,192,102754,1,0,0:0:0:0:
320,192,102754,1,0,0:0:0:0:
448,192,102965,128,0,103176:0:0:0:0:
192,192,102965,128,0,103176:0:0:0:0:
64,192,103387,128,0,103810:0:0:0:0:
320,192,103387,1,0,0:0:0:0:
192,192,103810,1,0,0:0:0:0:
192,192,104021,128,0,104444:0:0:0:0:
320,192,104021,1,0,0:0:0:0:
64,192,104444,1,0,0:0:0:0:
320,192,104655,128,0,104866:0:0:0:0:
448,192,104655,128,0,104866:0:0:0:0:
192,192,105078,128,0,105500:0:0:0:0:
64,192,105078,1,0,0:0:0:0:
320,192,105500,1,0,0:0:0:0:
448,192,105711,128,0,106134:0:0:0:0:
320,192,106134,1,0,0:0:0:0:
192,192,106345,1,0,0:0:0:0:
64,192,106556,1,0,0:0:0:0:
64,192,106768,1,0,0:0:0:0:
192,192,106768,128,0,107190:0:0:0:0:
64,192,107190,1,0,0:0:0:0:
64,192,107401,1,0,0:0:0:0:
320,192,107401,1,0,0:0:0:0:
192,192,107613,1,0,0:0:0:0:
448,192,107613,1,0,0:0:0:0:
320,192,107824,1,0,0:0:0:0:
192,192,108035,1,0,0:0:0:0:
448,192,108035,1,0,0:0:0:0:
320,192,108247,1,0,0:0:0:0:
448,192,108247,1,0,0:0:0:0:
192,192,108458,1,0,0:0:0:0:
64,192,108458,128,0,108880:0:0:0:0:
192,192,108880,1,0,0:0:0:0:
192,192,109092,128,0,109514:0:0:0:0:
320,192,109514,128,0,109937:0:0:0:0:
448,192,109937,1,0,0:0:0:0:
192,192,110148,128,0,110570:0:0:0:0:
64,192,110148,1,0,0:0:0:0:
64,192,110570,1,0,0:0:0:0:
320,192,110782,1,0,0:0:0:0:
448,192,110782,1,0,0:0:0:0:
64,192,110993,1,0,0:0:0:0:
192,192,110993,128,0,111416:0:0:0:0:
64,192,111416,1,0,0:0:0:0:
320,192,111416,1,0,0:0:0:0:
192,192,111838,128,0,112049:0:0:0:0:
64,192,111838,128,0,112049:0:0:0:0:
320,192,112049,1,0,0:0:0:0:
320,192,112261,128,0,112472:0:0:0:0:
192,192,112261,128,0,112472:0:0:0:0:
64,192,112472,1,0,0:0:0:0:
64,192,112683,128,0,113106:0:0:0:0:
192,192,113106,1,0,0:0:0:0:
320,192,113317,1,0,0:0:0:0:
448,192,113528,128,0,113739:0:0:0:0:
64,192,113739,1,0,0:0:0:0:
192,192,113739,1,0,0:0:0:0:
320,192,113951,1,0,0:0:0:0:
64,192,114162,1,0,0:0:0:0:
192,192,114162,1,0,0:0:0:0:
64,192,114373,1,0,0:0:0:0:
448,192,114585,1,0,0:0:0:0:
320,192,114585,1,0,0:0:0:0:
64,192,114796,1,0,0:0:0:0:
192,192,114796,1,0,0:0:0:0:
448,192,115007,1,0,0:0:0:0:
320,192,115007,1,0,0:0:0:0:
320,192,115218,128,0,115641:0:0:0:0:
192,192,115218,128,0,115641:0:0:0:0:
64,192,115641,1,0,0:0:0:0:
64,192,115852,128,0,116275:0:0:0:0:
320,192,115852,128,0,116275:0:0:0:0:
448,192,116275,1,0,0:0:0:0:
192,192,116486,128,0,116697:0:0:0:0:
448,192,116486,128,0,116697:0:0:0:0:
320,192,116909,128,0,117542:0:0:0:0:
448,192,116909,1,0,0:0:0:0:
448,192,117331,1,0,0:0:0:0:
192,192,117542,128,0,117965:0:0:0:0:
448,192,117542,1,0,0:0:0:0:
448,192,117965,1,0,0:0:0:0:
448,192,118176,128,0,118387:0:0:0:0:
64,192,118176,128,0,118387:0:0:0:0:
64,192,118599,1,0,0:0:0:0:
192,192,118599,1,0,0:0:0:0:
64,192,119021,1,0,0:0:0:0:
192,192,119021,1,0,0:0:0:0:
320,192,119232,128,0,119655:0:0:0:0:
192,192,119232,1,0,0:0:0:0:
448,192,119655,1,0,0:0:0:0:
192,192,120078,128,0,120923:0:0:0:0:
320,192,120289,128,0,120923:0:0:0:0:
448,192,120711,128,0,120923:0:0:0:0:
64,192,120923,128,0,121134:0:0:0:0:
192,192,121134,128,0,121345:0:0:0:0:
448,192,121134,128,0,121345:0:0:0:0:
64,192,121345,1,0,0:0:0:0:
320,192,121345,1,0,0:0:0:0:
64,192,121556,1,0,0:0:0:0:
320,192,121556,1,0,0:0:0:0:
64,192,121768,1,0,0:0:0:0:
320,192,121768,1,0,0:0:0:0:
192,192,121979,128,0,122401:0:0:0:0:
64,192,122401,1,0,0:0:0:0:
320,192,122401,1,0,0:0:0:0:
448,192,122613,128,0,123035:0:0:0:0:
192,192,122613,1,0,0:0:0:0:
320,192,123035,1,0,0:0:0:0:
64,192,123458,1,0,0:0:0:0:
192,192,123458,1,0,0:0:0:0:
320,192,123669,128,0,124092:0:0:0:0:
64,192,123669,128,0,124092:0:0:0:0:
192,192,124092,1,0,0:0:0:0:
192,192,124303,1,0,0:0:0:0:
448,192,124514,128,0,124937:0:0:0:0:
320,192,124937,1,0,0:0:0:0:
320,192,125359,1,0,0:0:0:0:
448,192,125359,1,0,0:0:0:0:
192,192,125570,128,0,125782:0:0:0:0:
64,192,125782,1,0,0:0:0:0:
320,192,125993,1,0,0:0:0:0:
448,192,125993,1,0,0:0:0:0:
192,192,126204,128,0,126627:0:0:0:0:
64,192,126204,128,0,126627:0:0:0:0:
320,192,126627,1,0,0:0:0:0:
448,192,126838,1,0,0:0:0:0:
320,192,126838,1,0,0:0:0:0:
64,192,127049,1,0,0:0:0:0:
192,192,127049,128,0,127261:0:0:0:0:
64,192,127261,1,0,0:0:0:0:
320,192,127261,128,0,127472:0:0:0:0:
448,192,127472,1,0,0:0:0:0:
64,192,127472,128,0,127683:0:0:0:0:
448,192,127683,1,0,0:0:0:0:
192,192,127683,128,0,127894:0:0:0:0:
64,192,127894,5,0,0:0:0:0:
64,192,128106,1,0,0:0:0:0:
448,192,128106,1,0,0:0:0:0:
320,192,128106,1,0,0:0:0:0:
64,192,128317,1,0,0:0:0:0:
64,192,128528,1,0,0:0:0:0:
192,192,128528,128,0,128951:0:0:0:0:
64,192,128951,1,0,0:0:0:0:
320,192,128951,1,0,0:0:0:0:
448,192,128951,1,0,0:0:0:0:
64,192,142472,132,0,143317:0:0:0:0:
192,192,142472,1,0,0:0:0:0:
192,192,142894,1,0,0:0:0:0:
320,192,143317,128,0,144162:0:0:0:0:
192,192,143317,1,0,0:0:0:0:
192,192,143739,1,0,0:0:0:0:
192,192,144162,1,0,0:0:0:0:
448,192,144162,128,0,145007:0:0:0:0:
192,192,144584,1,0,0:0:0:0:
192,192,145007,1,0,0:0:0:0:
64,192,145007,128,0,145852:0:0:0:0:
320,192,145007,128,0,145852:0:0:0:0:
448,192,145852,1,0,0:0:0:0:
192,192,145957,1,0,0:0:0:0:
64,192,146063,1,0,0:0:0:0:
192,192,146169,1,0,0:0:0:0:
320,192,146274,1,0,0:0:0:0:
192,192,146380,1,0,0:0:0:0:
64,192,146486,128,0,146697:0:0:0:0:
320,192,146697,128,0,147331:0:0:0:0:
448,192,146697,128,0,147331:0:0:0:0:
192,192,147331,1,0,0:0:0:0:
64,192,147331,1,0,0:0:0:0:
192,192,147436,1,0,0:0:0:0:
64,192,147436,1,0,0:0:0:0:
320,192,147542,128,0,148387:0:0:0:0:
448,192,147542,1,0,0:0:0:0:
448,192,147964,1,0,0:0:0:0:
448,192,148387,128,0,149232:0:0:0:0:
320,192,148810,1,0,0:0:0:0:
64,192,149232,1,0,0:0:0:0:
192,192,149232,128,0,149655:0:0:0:0:
320,192,149232,1,0,0:0:0:0:
64,192,149655,1,0,0:0:0:0:
320,192,149655,128,0,150077:0:0:0:0:
448,192,150077,1,0,0:0:0:0:
192,192,150077,128,0,150500:0:0:0:0:
64,192,150077,128,0,150500:0:0:0:0:
448,192,150922,128,0,151345:0:0:0:0:
320,192,150922,1,0,0:0:0:0:
320,192,151345,1,0,0:0:0:0:
64,192,151345,128,0,151767:0:0:0:0:
192,192,151767,1,0,0:0:0:0:
320,192,151767,128,0,152190:0:0:0:0:
448,192,151767,128,0,152190:0:0:0:0:
320,192,152612,128,0,153035:0:0:0:0:
64,192,152612,128,0,153035:0:0:0:0:
448,192,153035,128,0,153457:0:0:0:0:
192,192,153035,128,0,153457:0:0:0:0:
64,192,153457,1,0,0:0:0:0:
320,192,153457,128,0,153880:0:0:0:0:
64,192,153880,128,0,154302:0:0:0:0:
448,192,153880,1,0,0:0:0:0:
192,192,154302,128,0,154725:0:0:0:0:
448,192,154302,128,0,154725:0:0:0:0:
64,192,154725,128,0,155148:0:0:0:0:
320,192,154725,128,0,155148:0:0:0:0:
448,192,155148,128,0,155993:0:0:0:0:
192,192,155148,128,0,155993:0:0:0:0:
320,192,155570,128,0,155993:0:0:0:0:
64,192,155570,128,0,155993:0:0:0:0:
64,192,156415,1,0,0:0:0:0:
192,192,156626,128,0,156838:0:0:0:0:
64,192,156626,1,0,0:0:0:0:
448,192,156838,1,0,0:0:0:0:
320,192,157049,1,0,0:0:0:0:
192,192,157260,128,0,157683:0:0:0:0:
448,192,157260,128,0,157683:0:0:0:0:
320,192,157683,1,0,0:0:0:0:
64,192,157684,1,0,0:0:0:0:
64,192,158106,1,0,0:0:0:0:
448,192,158106,128,0,158529:0:0:0:0:
64,192,158529,1,0,0:0:0:0:
192,192,158740,128,0,158951:0:0:0:0:
64,192,158740,128,0,158951:0:0:0:0:
320,192,159162,128,0,159585:0:0:0:0:
448,192,159585,1,0,0:0:0:0:
192,192,159796,128,0,160219:0:0:0:0:
448,192,160219,128,0,160430:0:0:0:0:
64,192,160430,128,0,160641:0:0:0:0:
320,192,160430,128,0,160641:0:0:0:0:
192,192,160853,128,0,161275:0:0:0:0:
320,192,161275,128,0,161486:0:0:0:0:
448,192,161275,1,0,0:0:0:0:
192,192,161486,128,0,161909:0:0:0:0:
64,192,161909,1,0,0:0:0:0:
448,192,161909,128,0,162331:0:0:0:0:
64,192,162331,1,0,0:0:0:0:
192,192,162331,1,0,0:0:0:0:
64,192,162543,1,0,0:0:0:0:
192,192,162543,1,0,0:0:0:0:
448,192,162965,1,0,0:0:0:0:
64,192,163176,1,0,0:0:0:0:
320,192,163176,1,0,0:0:0:0:
448,192,163388,1,0,0:0:0:0:
64,192,163599,1,0,0:0:0:0:
320,192,163599,1,0,0:0:0:0:
192,192,163810,1,0,0:0:0:0:
448,192,163810,1,0,0:0:0:0:
320,192,164022,128,0,164233:0:0:0:0:
448,192,164022,128,0,164233:0:0:0:0:
64,192,164233,128,0,164655:0:0:0:0:
192,192,164655,1,0,0:0:0:0:
64,192,164867,128,0,165289:0:0:0:0:
320,192,165289,128,0,165712:0:0:0:0:
192,192,165289,1,0,0:0:0:0:
192,192,165712,128,0,165923:0:0:0:0:
448,192,165712,128,0,165923:0:0:0:0:
64,192,165712,1,0,0:0:0:0:
64,192,165923,128,0,166345:0:0:0:0:
320,192,166345,1,0,0:0:0:0:
192,192,166557,1,0,0:0:0:0:
448,192,166768,128,0,167191:0:0:0:0:
320,192,166768,1,0,0:0:0:0:
320,192,167191,1,0,0:0:0:0:
64,192,167613,1,0,0:0:0:0:
320,192,167613,128,0,168458:0:0:0:0:
192,192,167824,1,0,0:0:0:0:
64,192,168036,1,0,0:0:0:0:
192,192,168247,1,0,0:0:0:0:
448,192,168458,128,0,168881:0:0:0:0:
64,192,168881,1,0,0:0:0:0:
320,192,168881,1,0,0:0:0:0:
64,192,169092,1,0,0:0:0:0:
192,192,169092,1,0,0:0:0:0:
64,192,169303,1,0,0:0:0:0:
320,192,169514,1,0,0:0:0:0:
448,192,169514,1,0,0:0:0:0:
64,192,169726,1,0,0:0:0:0:
320,192,169937,1,0,0:0:0:0:
192,192,169937,1,0,0:0:0:0:
64,192,170148,1,0,0:0:0:0:
64,192,170360,1,0,0:0:0:0:
192,192,170360,1,0,0:0:0:0:
64,192,170571,1,0,0:0:0:0:
64,192,170782,128,0,170993:0:0:0:0:
192,192,170782,128,0,170993:0:0:0:0:
448,192,170993,128,0,171416:0:0:0:0:
64,192,171416,1,0,0:0:0:0:
320,192,171627,1,0,0:0:0:0:
192,192,171627,128,0,172050:0:0:0:0:
64,192,172050,1,0,0:0:0:0:
320,192,172261,128,0,172472:0:0:0:0:
192,192,172261,128,0,172472:0:0:0:0:
64,192,172684,128,0,173106:0:0:0:0:
192,192,173106,1,0,0:0:0:0:
192,192,173317,128,0,173740:0:0:0:0:
320,192,173317,1,0,0:0:0:0:
64,192,173740,1,0,0:0:0:0:
448,192,173951,128,0,174162:0:0:0:0:
192,192,173951,128,0,174162:0:0:0:0:
320,192,174162,1,0,0:0:0:0:
64,192,174162,1,0,0:0:0:0:
192,192,174374,1,0,0:0:0:0:
448,192,174374,1,0,0:0:0:0:
64,192,174796,1,0,0:0:0:0:
320,192,174796,1,0,0:0:0:0:
320,192,175007,128,0,175430:0:0:0:0:
64,192,175007,128,0,175430:0:0:0:0:
192,192,175430,128,0,175853:0:0:0:0:
448,192,175853,1,0,0:0:0:0:
320,192,175853,1,0,0:0:0:0:
320,192,176064,128,0,176486:0:0:0:0:
448,192,176064,128,0,176486:0:0:0:0:
192,192,176486,1,0,0:0:0:0:
64,192,176698,1,0,0:0:0:0:
320,192,176698,1,0,0:0:0:0:
192,192,176909,1,0,0:0:0:0:
448,192,177120,1,0,0:0:0:0:
192,192,177120,1,0,0:0:0:0:
320,192,177331,1,0,0:0:0:0:
64,192,177543,1,0,0:0:0:0:
192,192,177543,1,0,0:0:0:0:
64,192,177754,1,0,0:0:0:0:
448,192,177754,128,0,178176:0:0:0:0:
64,192,178176,128,0,178388:0:0:0:0:
320,192,178176,1,0,0:0:0:0:
192,192,178388,128,0,178810:0:0:0:0:
64,192,178810,1,0,0:0:0:0:
320,192,178810,1,0,0:0:0:0:
448,192,179233,128,0,179867:0:0:0:0:
320,192,179233,1,0,0:0:0:0:
64,192,179444,1,0,0:0:0:0:
192,192,179444,128,0,179867:0:0:0:0:
64,192,179867,128,0,180078:0:0:0:0:
192,192,180078,128,0,180289:0:0:0:0:
64,192,180289,128,0,180712:0:0:0:0:
320,192,180712,1,0,0:0:0:0:
448,192,180712,1,0,0:0:0:0:
192,192,181134,128,0,181979:0:0:0:0:
320,192,181134,1,0,0:0:0:0:
320,192,181345,1,0,0:0:0:0:
320,192,181557,1,0,0:0:0:0:
320,192,181768,1,0,0:0:0:0:
320,192,181979,128,0,182402:0:0:0:0:
448,192,181979,128,0,182402:0:0:0:0:
64,192,182402,1,0,0:0:0:0:
64,192,182613,1,0,0:0:0:0:
192,192,182824,128,0,183036:0:0:0:0:
448,192,182824,128,0,183036:0:0:0:0:
64,192,183036,1,0,0:0:0:0:
320,192,183247,1,0,0:0:0:0:
64,192,183458,128,0,183669:0:0:0:0:
192,192,183458,128,0,183669:0:0:0:0:
448,192,183669,1,0,0:0:0:0:
320,192,183881,128,0,184092:0:0:0:0:
192,192,183881,128,0,184092:0:0:0:0:
64,192,184092,1,0,0:0:0:0:
64,192,184303,1,0,0:0:0:0:
320,192,184514,128,0,184726:0:0:0:0:
448,192,184514,128,0,184726:0:0:0:0:
192,192,184726,1,0,0:0:0:0:
64,192,184937,1,0,0:0:0:0:
64,192,185148,1,0,0:0:0:0:
192,192,185148,128,0,185360:0:0:0:0:
320,192,185360,128,0,185571:0:0:0:0:
448,192,185360,1,0,0:0:0:0:
192,192,185571,128,0,185782:0:0:0:0:
64,192,185782,1,0,0:0:0:0:
320,192,185993,1,0,0:0:0:0:
448,192,185993,1,0,0:0:0:0:
192,192,186205,128,0,186416:0:0:0:0:
64,192,186205,128,0,186416:0:0:0:0:
320,192,186416,128,0,186627:0:0:0:0:
448,192,186416,128,0,186627:0:0:0:0:
64,192,186627,128,0,186838:0:0:0:0:
192,192,186627,128,0,186838:0:0:0:0:
320,192,186838,128,0,187050:0:0:0:0:
448,192,186838,128,0,187050:0:0:0:0:
64,192,187050,1,0,0:0:0:0:
192,192,187050,1,0,0:0:0:0:
64,192,187261,1,0,0:0:0:0:
320,192,187261,128,0,187472:0:0:0:0:
192,192,187472,128,0,187684:0:0:0:0:
448,192,187472,128,0,187684:0:0:0:0:
64,192,187684,1,0,0:0:0:0:
64,192,187895,1,0,0:0:0:0:
320,192,187895,1,0,0:0:0:0:
192,192,188106,128,0,188529:0:0:0:0:
320,192,188106,128,0,188529:0:0:0:0:
64,192,188740,5,0,0:0:0:0:
448,192,188740,1,0,0:0:0:0:
64,192,188951,1,0,0:0:0:0:
448,192,188951,1,0,0:0:0:0:
320,192,189374,128,0,189796:0:0:0:0:
192,192,189374,128,0,189796:0:0:0:0:
64,192,189374,128,0,189796:0:0:0:0:
448,192,189796,1,0,0:0:0:0:
64,192,196557,132,0,196768:0:0:0:0:
192,192,196768,1,0,0:0:0:0:
448,192,196874,1,0,0:0:0:0:
64,192,196979,1,0,0:0:0:0:
320,192,196979,128,0,197402:0:0:0:0:
64,192,197402,1,0,0:0:0:0:
192,192,197613,1,0,0:0:0:0:
448,192,197719,1,0,0:0:0:0:
64,192,197824,1,0,0:0:0:0:
320,192,197824,128,0,198220:0:0:0:0:
64,192,198247,1,0,0:0:0:0:
192,192,198458,1,0,0:0:0:0:
448,192,198564,1,0,0:0:0:0:
64,192,198669,1,0,0:0:0:0:
320,192,198881,1,0,0:0:0:0:
192,192,198881,1,0,0:0:0:0:
64,192,199092,5,0,0:0:0:0:
192,192,199303,1,0,0:0:0:0:
448,192,199409,1,0,0:0:0:0:
64,192,199514,1,0,0:0:0:0:
192,192,199514,1,0,0:0:0:0:
192,192,199726,1,0,0:0:0:0:
320,192,199726,1,0,0:0:0:0:
320,192,199937,128,0,200360:0:0:0:0:
448,192,199937,128,0,200360:0:0:0:0:
64,192,200360,1,0,0:0:0:0:
192,192,200360,1,0,0:0:0:0:
320,192,200782,128,0,200993:0:0:0:0:
64,192,200782,1,0,0:0:0:0:
192,192,200993,128,0,201205:0:0:0:0:
448,192,201205,128,0,201416:0:0:0:0:
64,192,201205,1,0,0:0:0:0:
320,192,201416,128,0,201627:0:0:0:0:
64,192,201627,128,0,201838:0:0:0:0:
192,192,201627,1,0,0:0:0:0:
448,192,201838,128,0,202050:0:0:0:0:
192,192,202050,128,0,202261:0:0:0:0:
320,192,202050,1,0,0:0:0:0:
320,192,202261,128,0,202472:0:0:0:0:
64,192,202472,128,0,202684:0:0:0:0:
448,192,202472,1,0,0:0:0:0:
192,192,202684,128,0,202895:0:0:0:0:
448,192,202684,1,0,0:0:0:0:
64,192,202895,1,0,0:0:0:0:
448,192,202895,128,0,203317:0:0:0:0:
320,192,202895,128,0,203317:0:0:0:0:
